Скачать через торрент музыку Солдатики Small Soldiers - 1998 бесплатно без регистрации torrent

Если у вас наблюдаются проблемы со скриншотами, переходом по ссылками, скачиванием торрентов - проблемы в блокировщике рекламы AdBlock. #хорошегоДня!


Статистика раздачи
Размер:  324 MB   |    Зарегистрирован:  6 лет 11 месяцев   |    .torrent скачан:  68 раз   |   
Раздают:  1  
   
Загрузка...
 
Автор Сообщение

Колян

avatar Колян


Солдатики / Small Soldiers

Жанр: Soundtrack
Год выпуска диска: 1998
Производитель диска: USA
Аудио кодек: FLAC
Тип рипа: tracks+.cue
Битрейт аудио: lossless
Продолжительность: 00:48:07

01 - Bone Thugs-N-Harmony - War (05:01)
02 - Queen & Wyclef Jean - Another One Bites The Dust (04:22)
03 - Billy Squier - The Stroke (04:18)
04 - Pat Benatar & Queen Latifah - Love Is A Battlefield (Remix by Kaygee) (04:55)
05 - Gary Glitter - Rock And Roll (Part 2) (Remix by Dutch) (03:51)
06 - The Cult - Love Removal Machine (Remix by Mickey Petralia) (06:21)
07 - The Pretenders & Kool Keith - My City Was Gone (Remix by The Butcher Bros) (05:02)
08 - Cheap Trick - Surrender (Remix by Rich Costey) (04:20)
09 - Rush - Tom Sawyer (Remix by DJ Z-Trip) (06:37)
10 - Edwin Starr - War (03:21)

 
Exact Audio Copy V0.99 prebeta 4 from 23. January 2008

EAC extraction logfile from 8. March 2009, 18:26

Various / Small Soldiers OST

Used drive : SONY DVD RW DRU-720A Adapter: 0 ID: 0

Read mode : SecureUtilize accurate stream : YesDefeat audio cache : YesMake use of C2 pointers : No

Read offset correction : 12Overread into Lead-In and Lead-Out : NoFill up missing offset samples with silence : YesDelete leading and trailing silent blocks : NoNull samples used in CRC calculations : YesUsed interface : Native Win32 interface for Win NT & 2000Gap handling : Appended to previous track

Used output format : User Defined EncoderSelected bitrate : 192 kBit/sQuality : HighAdd ID3 tag : NoCommand line compressor : C:\Program Files\Exact Audio Copy\Flac\flac.exeAdditional command line options : -V -8 -T "artist=%a" -T "title=%t" -T "album=%g" -T "date=%y" -T "tracknumber=%n" -T "genre=%m" %s

TOC of the extracted CD

Track | Start | Length | Start sector | End sector --------------------------------------------------------- 1 | 0:00.00 | 5:00.45 | 0 | 22544 2 | 5:00.45 | 4:22.25 | 22545 | 42219 3 | 9:22.70 | 4:18.17 | 42220 | 61586 4 | 13:41.12 | 4:55.33 | 61587 | 83744 5 | 18:36.45 | 3:51.25 | 83745 | 101094 6 | 22:27.70 | 6:20.45 | 101095 | 129639 7 | 28:48.40 | 5:01.67 | 129640 | 152281 8 | 33:50.32 | 4:19.40 | 152282 | 171746 9 | 38:09.72 | 6:36.70 | 171747 | 201516 10 | 44:46.67 | 3:20.70 | 201517 | 216586

Track 1

Filename L:\rips\Small Soldiers OST - 1998\01 - Bone Thugs-N-Harmony - War.wav

Pre-gap length 0:00:02.00

Peak level 98.8 % Track quality 100.0 % Test CRC AA55B4E1 Copy CRC AA55B4E1 Accurately ripped (confidence 9) [EDB1D067] Copy OK

Track 2

Filename L:\rips\Small Soldiers OST - 1998\02 - Queen & Wyclef Jean - Another One Bites The Dust.wav

Peak level 98.8 % Track quality 99.9 % Test CRC CF0948D8 Copy CRC CF0948D8 Accurately ripped (confidence 9) [43E3A335] Copy OK

Track 3

Filename L:\rips\Small Soldiers OST - 1998\03 - Billy Squier - The Stroke.wav

Peak level 98.8 % Track quality 100.0 % Test CRC 8F040F5E Copy CRC 8F040F5E Accurately ripped (confidence 9) [90FF3469] Copy OK

Track 4

Filename L:\rips\Small Soldiers OST - 1998\04 - Pat Benatar & Queen Latifah - Love Is A Battlefield (Remix by Kaygee).wav

Peak level 98.8 % Track quality 100.0 % Test CRC A7A5C092 Copy CRC A7A5C092 Accurately ripped (confidence 9) [6E00A630] Copy OK

Track 5

Filename L:\rips\Small Soldiers OST - 1998\05 - Gary Glitter - Rock And Roll (Part 2) (Remix by Dutch).wav

Peak level 94.4 % Track quality 100.0 % Test CRC B4032BD2 Copy CRC B4032BD2 Accurately ripped (confidence 9) [48002D8E] Copy OK

Track 6

Filename L:\rips\Small Soldiers OST - 1998\06 - The Cult - Love Removal Machine (Remix by Mickey Petralia).wav

Peak level 98.8 % Track quality 100.0 % Test CRC CEE40420 Copy CRC CEE40420 Accurately ripped (confidence 9) [DF08D24C] Copy OK

Track 7

Filename L:\rips\Small Soldiers OST - 1998\07 - The Pretenders & Kool Keith - My City Was Gone (Remix by The Butcher Bros).wav

Peak level 89.1 % Track quality 100.0 % Test CRC 75DB8A9B Copy CRC 75DB8A9B Accurately ripped (confidence 9) [47B5F9F8] Copy OK

Track 8

Filename L:\rips\Small Soldiers OST - 1998\08 - Cheap Trick - Surrender (Remix by Rich Costey).wav

Peak level 95.5 % Track quality 100.0 % Test CRC D5D8D0D2 Copy CRC D5D8D0D2 Accurately ripped (confidence 9) [00B0E64F] Copy OK

Track 9

Filename L:\rips\Small Soldiers OST - 1998\09 - Rush - Tom Sawyer (Remix by DJ Z-Trip).wav

Peak level 95.5 % Track quality 100.0 % Test CRC 7EAFFC4C Copy CRC 7EAFFC4C Accurately ripped (confidence 9) [7C3A9798] Copy OK

Track 10

Filename L:\rips\Small Soldiers OST - 1998\10 - Edwin Starr - War.wav

Peak level 92.2 % Track quality 99.9 % Test CRC 2D4AF0EE Copy CRC 2D4AF0EE Accurately ripped (confidence 9) [4EDFC822] Copy OK

All tracks accurately ripped

No errors occurred

End of status report
 
REM GENRE SoundtrackREM DATE 1998REM DISCID 770B470AREM COMMENT "ExactAudioCopy v0.99pb4"PERFORMER "Various"TITLE "Small Soldiers OST"FILE "01 - Bone Thugs-N-Harmony - War.wav" WAVE TRACK 01 AUDIO TITLE "War" PERFORMER "Bone Thugs-N-Harmony" INDEX 01 00:00:00FILE "02 - Queen & Wyclef Jean - Another One Bites The Dust.wav" WAVE TRACK 02 AUDIO TITLE "Another One Bites The Dust" PERFORMER "Queen & Wyclef Jean" INDEX 01 00:00:00FILE "03 - Billy Squier - The Stroke.wav" WAVE TRACK 03 AUDIO TITLE "The Stroke" PERFORMER "Billy Squier" INDEX 01 00:00:00FILE "04 - Pat Benatar & Queen Latifah - Love Is A Battlefield (Remix by Kaygee).wav" WAVE TRACK 04 AUDIO TITLE "Love Is A Battlefield (Remix by Kaygee)" PERFORMER "Pat Benatar & Queen Latifah" INDEX 01 00:00:00FILE "05 - Gary Glitter - Rock And Roll (Part 2) (Remix by Dutch).wav" WAVE TRACK 05 AUDIO TITLE "Rock And Roll (Part 2) (Remix by Dutch)" PERFORMER "Gary Glitter" INDEX 01 00:00:00FILE "06 - The Cult - Love Removal Machine (Remix by Mickey Petralia).wav" WAVE TRACK 06 AUDIO TITLE "Love Removal Machine (Remix by Mickey Petralia)" PERFORMER "The Cult" INDEX 01 00:00:00FILE "07 - The Pretenders & Kool Keith - My City Was Gone (Remix by The Butcher Bros).wav" WAVE TRACK 07 AUDIO TITLE "My City Was Gone (Remix by The Butcher Bros)" PERFORMER "The Pretenders & Kool Keith" INDEX 01 00:00:00FILE "08 - Cheap Trick - Surrender (Remix by Rich Costey).wav" WAVE TRACK 08 AUDIO TITLE "Surrender (Remix by Rich Costey)" PERFORMER "Cheap Trick" INDEX 01 00:00:00FILE "09 - Rush - Tom Sawyer (Remix by DJ Z-Trip).wav" WAVE TRACK 09 AUDIO TITLE "Tom Sawyer (Remix by DJ Z-Trip)" PERFORMER "Rush" INDEX 01 00:00:00FILE "10 - Edwin Starr - War.wav" WAVE TRACK 10 AUDIO TITLE "War" PERFORMER "Edwin Starr" INDEX 01 00:00:00



Трекер:  [ 25-Дек-2010 20:19 ]

  

Скачать .torrent

Размер .torrent файла 14 KB


Размер: 324 MB
Хэш (hash) релиза: 050ee7ecb95214eb8acb49c06724cf821abd5b2a

bot

Топик был перенесен в форум Саундтреки к фильмам и мультфильмам (lossless)

Перенес Колян

Хотите добавить комментарий к записи скачать торрент Солдатики Small Soldiers - 1998

!Обратная связь