Скачать через торрент музыку Никки, дьявол-младший Little Nicky - 2000 бесплатно без регистрации torrent

Если у вас наблюдаются проблемы со скриншотами, переходом по ссылками, скачиванием торрентов - проблемы в блокировщике рекламы AdBlock. #хорошегоДня!


Статистика раздачи
Размер:  351 MB   |    Зарегистрирован:  6 лет 11 месяцев   |    .torrent скачан:  89 раз   |   
Раздают:  1  
   
Загрузка...
 
Автор Сообщение

Mos

avatar Mos


Никки, дьявол-младший / Little Nicky

Жанр: Soundtrack
Год выпуска диска: 2000
Производитель диска: USA
Аудио кодек: FLAC
Тип рипа: tracks+.cue
Битрейт аудио: lossless
Продолжительность: 00:48:35

01 - P.O.D. - School of Hard Knocks (04:05)
02 - Incubus - Pardon Me (03:45)
03 - Deftones - Change (In the House of Flies) (04:58)
04 - Cypress Hill - (Rock) Superstar (04:37)
05 - Insolence - Natural High (03:20)
06 - Linkin Park - Points of Authority (03:21)
07 - Disturbed - Stupify (Fu's Forbidden Little Nicky remix) (05:08)
08 - Unloco - Nothing (02:41)
09 - Powerman 5000 - When Worlds Collide (02:57)
10 - Muse - Cave (04:47)
11 - Filter - Take a Picture (04:23)
12 - Deftones - Be Quiet and Drive (Far Away) (acoustic) (04:33)

Источник: what.cd
 
Exact Audio Copy V0.99 prebeta 5 from 4. May 2009

EAC extraction logfile from 13. May 2010, 14:04

Various / Little Nicky

Used drive : _NEC DVD+-RW ND-3650A Adapter: 0 ID: 1

Read mode : SecureUtilize accurate stream : YesDefeat audio cache : YesMake use of C2 pointers : No

Read offset correction : 48Overread into Lead-In and Lead-Out : NoFill up missing offset samples with silence : YesDelete leading and trailing silent blocks : NoNull samples used in CRC calculations : YesUsed interface : Native Win32 interface for Win NT & 2000Gap handling : Appended to previous track

Used output format : User Defined EncoderSelected bitrate : 320 kBit/sQuality : HighAdd ID3 tag : NoCommand line compressor : C:\Program Files\Exact Audio Copy\Flac\flac.exeAdditional command line options : -V -8 -T "artist=%a" -T "title=%t" -T "album=%g" -T "date=%y" -T "tracknumber=%n" -T "genre=%m" %s

TOC of the extracted CD

Track | Start | Length | Start sector | End sector --------------------------------------------------------- 1 | 0:00.32 | 4:04.53 | 32 | 18384 2 | 4:05.10 | 3:45.10 | 18385 | 35269 3 | 7:50.20 | 4:58.17 | 35270 | 57636 4 | 12:48.37 | 4:37.00 | 57637 | 78411 5 | 17:25.37 | 3:20.20 | 78412 | 93431 6 | 20:45.57 | 3:21.03 | 93432 | 108509 7 | 24:06.60 | 5:08.15 | 108510 | 131624 8 | 29:15.00 | 2:40.57 | 131625 | 143681 9 | 31:55.57 | 2:57.33 | 143682 | 156989 10 | 34:53.15 | 4:46.70 | 156990 | 178509 11 | 39:40.10 | 4:22.45 | 178510 | 198204 12 | 44:02.55 | 4:33.12 | 198205 | 218691

Track 1

Filename D:\Unfiled Music\Various Artists - Little Nicky Soundtrack (FLAC)\01 - P.O.D. - School of Hard Knocks.wav

Pre-gap length 0:00:02.42

Peak level 96.5 % Track quality 99.9 % Test CRC B1CEA5BB Copy CRC B1CEA5BB Accurately ripped (confidence 10) [16F1FE12] Copy OK

Track 2

Filename D:\Unfiled Music\Various Artists - Little Nicky Soundtrack (FLAC)\02 - Incubus - Pardon Me.wav

Peak level 95.4 % Track quality 99.9 % Test CRC 95F00F6C Copy CRC 95F00F6C Accurately ripped (confidence 10) [1956C6BB] Copy OK

Track 3

Filename D:\Unfiled Music\Various Artists - Little Nicky Soundtrack (FLAC)\03 - Deftones - Change (In the House of Flies).wav

Pre-gap length 0:00:01.04

Peak level 99.8 % Track quality 100.0 % Test CRC FBCBFA28 Copy CRC FBCBFA28 Accurately ripped (confidence 10) [EAB82344] Copy OK

Track 4

Filename D:\Unfiled Music\Various Artists - Little Nicky Soundtrack (FLAC)\04 - Cypress Hill - (Rock) Superstar.wav

Peak level 96.5 % Track quality 100.0 % Test CRC 670D98F6 Copy CRC 670D98F6 Accurately ripped (confidence 8) [8F4D774D] Copy OK

Track 5

Filename D:\Unfiled Music\Various Artists - Little Nicky Soundtrack (FLAC)\05 - Insolence - Natural High.wav

Peak level 96.5 % Track quality 100.0 % Test CRC 4262A7C0 Copy CRC 4262A7C0 Accurately ripped (confidence 10) [171D1B6E] Copy OK

Track 6

Filename D:\Unfiled Music\Various Artists - Little Nicky Soundtrack (FLAC)\06 - Linkin Park - Points of Authority.wav

Peak level 96.5 % Track quality 100.0 % Test CRC B0E692BA Copy CRC B0E692BA Accurately ripped (confidence 10) [364C7057] Copy OK

Track 7

Filename D:\Unfiled Music\Various Artists - Little Nicky Soundtrack (FLAC)\07 - Disturbed - Stupify (Fu's Forbidden Little Nicky remix).wav

Peak level 96.5 % Track quality 100.0 % Test CRC CED242EA Copy CRC CED242EA Accurately ripped (confidence 9) [80187FF7] Copy OK

Track 8

Filename D:\Unfiled Music\Various Artists - Little Nicky Soundtrack (FLAC)\08 - Unloco - Nothing.wav

Peak level 96.5 % Track quality 100.0 % Test CRC C463D60E Copy CRC C463D60E Accurately ripped (confidence 10) [75B9B4E3] Copy OK

Track 9

Filename D:\Unfiled Music\Various Artists - Little Nicky Soundtrack (FLAC)\09 - Powerman 5000 - When Worlds Collide.wav

Peak level 96.0 % Track quality 100.0 % Test CRC 1E208010 Copy CRC 1E208010 Accurately ripped (confidence 10) [FA7F2745] Copy OK

Track 10

Filename D:\Unfiled Music\Various Artists - Little Nicky Soundtrack (FLAC)\10 - Muse - Cave.wav

Peak level 96.5 % Track quality 100.0 % Test CRC 0D3ADD34 Copy CRC 0D3ADD34 Accurately ripped (confidence 9) [5BA433FA] Copy OK

Track 11

Filename D:\Unfiled Music\Various Artists - Little Nicky Soundtrack (FLAC)\11 - Filter - Take a Picture.wav

Peak level 96.5 % Track quality 100.0 % Test CRC 9ED4084B Copy CRC 9ED4084B Accurately ripped (confidence 9) [5F7E043D] Copy OK

Track 12

Filename D:\Unfiled Music\Various Artists - Little Nicky Soundtrack (FLAC)\12 - Deftones - Be Quiet and Drive (Far Away) (acoustic).wav

Peak level 99.8 % Track quality 100.0 % Test CRC 4D541E9B Copy CRC 4D541E9B Accurately ripped (confidence 10) [B70FF982] Copy OK

All tracks accurately ripped

No errors occurred

End of status report
 
REM GENRE UnknownREM DATE 2000REM DISCID AA0B630CREM COMMENT "ExactAudioCopy v0.99pb5"FILE "01 - P.O.D. - School of Hard Knocks.wav" WAVE TRACK 01 AUDIO PREGAP 00:00:32 INDEX 01 00:00:00FILE "02 - Incubus - Pardon Me.wav" WAVE TRACK 02 AUDIO INDEX 01 00:00:00 TRACK 03 AUDIO INDEX 00 03:44:07FILE "03 - Deftones - Change (In the House of Flies).wav" WAVE INDEX 01 00:00:00FILE "04 - Cypress Hill - (Rock) Superstar.wav" WAVE TRACK 04 AUDIO INDEX 01 00:00:00FILE "05 - Insolence - Natural High.wav" WAVE TRACK 05 AUDIO INDEX 01 00:00:00FILE "06 - Linkin Park - Points of Authority.wav" WAVE TRACK 06 AUDIO INDEX 01 00:00:00FILE "07 - Disturbed - Stupify (Fu's Forbidden Little Nicky remix).wav" WAVE TRACK 07 AUDIO INDEX 01 00:00:00FILE "08 - Unloco - Nothing.wav" WAVE TRACK 08 AUDIO INDEX 01 00:00:00FILE "09 - Powerman 5000 - When Worlds Collide.wav" WAVE TRACK 09 AUDIO INDEX 01 00:00:00FILE "10 - Muse - Cave.wav" WAVE TRACK 10 AUDIO INDEX 01 00:00:00FILE "11 - Filter - Take a Picture.wav" WAVE TRACK 11 AUDIO INDEX 01 00:00:00FILE "12 - Deftones - Be Quiet and Drive (Far Away) (acoustic).wav" WAVE TRACK 12 AUDIO INDEX 01 00:00:00



Трекер:  [ 26-Дек-2010 13:37 ]

  

Скачать .torrent

Размер .torrent файла 15 KB


Размер: 351 MB
Хэш (hash) релиза: d234b692a59c9b243be73bd7b9f82a1d74e1bc69

Торренты, похожие на Никки, дьявол-младший Little Nicky - 2000 скачать торрент

Форум Название Автор Размер S L Добавлен
Саундтреки к фильмам и мультфильмам (mp3) ·· (Soundtrack) Little Nicky / Никки, дьявол-младший - 2000, MP3 (tracks), 320 kbps Galfimbul 116949175112 MB 0 0 1292265917

21:45

13-Дек-10

Еще никто не оставлял запись к записи скачать торрент Никки, дьявол-младший Little Nicky - 2000 . Будь первым!

!Обратная связь