Скачать через торрент музыку The Crow: Salvation | Ворон: Спасение бесплатно без регистрации torrent

Если у вас наблюдаются проблемы со скриншотами, переходом по ссылками, скачиванием торрентов - проблемы в блокировщике рекламы AdBlock. #хорошегоДня!


Статистика раздачи
Размер:  277 MB   |    Зарегистрирован:  6 лет 11 месяцев   |    .torrent скачан:  49 раз   |   
Раздают:  1  
   
Загрузка...
 
Автор Сообщение

AqvaGen


The Crow: Salvation | Ворон: Спасение
Жанр: Score
Год выпуска диска: 2000
Страна: USA
Производитель диска: Koch Records CD 752
Аудио кодек: FLAC
Тип рипа: tracks+.cue
Битрейт аудио: lossless
Продолжительность: 51:42
01. Main title
02. Evidence Room
03. Alex Visits Laurenґs Grave
04. Houdini
05. Go Picasso
06. Industrial Strength Creeps
07. Make Me Like You
08. Officer Down
09. Investigating Key Club
10. Slo-Mo Walking
11. Alex Corvis' Execution
12. Your Daddy Owns D.E.R.T.
13. Alex Visits Thomas
14. Majorly Demented
15. The Crow Croaks
16. More Slo-Mo Walking
17. Chasing Sis
18. Captain Gets A Shock
19. Love Theme - Ending
20. 'Meet Again' Performed by Jane Jensen

Exact Audio Copy V0.99 prebeta 5 from 4. May 2009

EAC extraction logfile from 19. November 2009, 15:27

Marco Beltrami / The Crow: Salvation

Used drive : Optiarc DVD RW AD-7170A Adapter: 0 ID: 0

Read mode : Secure
Utilize accurate stream : Yes
Defeat audio cache : Yes
Make use of C2 pointers : No

Read offset correction : 48
Overread into Lead-In and Lead-Out : No
Fill up missing offset samples with silence : Yes
Delete leading and trailing silent blocks : No
Null samples used in CRC calculations : Yes
Used interface : Native Win32 interface for Win NT & 2000
Gap handling : Appended to previous track

Used output format : User Defined Encoder
Selected bitrate : 320 kBit/s
Quality : High
Add ID3 tag : No
Command line compressor : C:\Program Files\Exact Audio Copy\Flac\flac.exe
Additional command line options : -8 -V -T "ARTIST=%a" -T "TITLE=%t" -T "ALBUM=%g" -T "DATE=%y" -T "TRACKNUMBER=%n" -T "GENRE=%m" -T "COMMENT=EAC FLAC -8" %s

TOC of the extracted CD

Track | Start | Length | Start sector | End sector
---------------------------------------------------------
1 | 0:00.00 | 2:07.70 | 0 | 9594
2 | 2:07.70 | 2:21.52 | 9595 | 20221
3 | 4:29.47 | 2:54.68 | 20222 | 33339
4 | 7:24.40 | 1:59.25 | 33340 | 42289
5 | 9:23.65 | 2:15.45 | 42290 | 52459
6 | 11:39.35 | 0:36.20 | 52460 | 55179
7 | 12:15.55 | 3:18.72 | 55180 | 70101
8 | 15:34.52 | 2:29.68 | 70102 | 81344
9 | 18:04.45 | 4:05.32 | 81345 | 99751
10 | 22:10.02 | 1:01.13 | 99752 | 104339
11 | 23:11.15 | 4:03.12 | 104340 | 122576
12 | 27:14.27 | 2:09.73 | 122577 | 132324
13 | 29:24.25 | 2:30.50 | 132325 | 143624
14 | 31:55.00 | 4:54.60 | 143625 | 165734
15 | 36:49.60 | 2:10.17 | 165735 | 175501
16 | 39:00.02 | 1:07.50 | 175502 | 180576
17 | 40:07.52 | 3:02.68 | 180577 | 194294
18 | 43:10.45 | 2:36.12 | 194295 | 206006
19 | 45:46.57 | 2:37.13 | 206007 | 217794
20 | 48:23.70 | 3:24.60 | 217795 | 233154

Track 1

Filename E:\DownLoad\Score_The Crow Salvation\ 01. Marco Beltrami – Main title.wav

Pre-gap length 0:00:02.00

Peak level 97.8 %
Track quality 100.0 %
Test CRC 3CD57AD4
Copy CRC 3CD57AD4
Copy OK

Track 2

Filename E:\DownLoad\Score_The Crow Salvation\ 02. Marco Beltrami – Evidence Room.wav

Peak level 97.7 %
Track quality 100.0 %
Test CRC 7275D3CB
Copy CRC 7275D3CB
Copy OK

Track 3

Filename E:\DownLoad\Score_The Crow Salvation\ 03. Marco Beltrami – Alex Visits Laurenґs Grave.wav

Peak level 97.3 %
Track quality 100.0 %
Test CRC D1894E5F
Copy CRC D1894E5F
Copy OK

Track 4

Filename E:\DownLoad\Score_The Crow Salvation\ 04. Marco Beltrami – Houdini.wav

Peak level 97.7 %
Track quality 100.0 %
Test CRC A9C6FDA4
Copy CRC A9C6FDA4
Copy OK

Track 5

Filename E:\DownLoad\Score_The Crow Salvation\ 05. Marco Beltrami – Go Picasso.wav

Peak level 60.1 %
Track quality 100.0 %
Test CRC 0BDD9186
Copy CRC 0BDD9186
Copy OK

Track 6

Filename E:\DownLoad\Score_The Crow Salvation\ 06. Marco Beltrami – Industrial Strength Creeps.wav

Peak level 81.3 %
Track quality 100.0 %
Test CRC 14CE449F
Copy CRC 14CE449F
Copy OK

Track 7

Filename E:\DownLoad\Score_The Crow Salvation\ 07. Marco Beltrami – Make Me Like You.wav

Peak level 96.3 %
Track quality 100.0 %
Test CRC 6824456A
Copy CRC 6824456A
Copy OK

Track 8

Filename E:\DownLoad\Score_The Crow Salvation\ 08. Marco Beltrami – Officer Down.wav

Peak level 97.7 %
Track quality 100.0 %
Test CRC 41A60E2B
Copy CRC 41A60E2B
Copy OK

Track 9

Filename E:\DownLoad\Score_The Crow Salvation\ 09. Marco Beltrami – Investigating Key Club.wav

Peak level 97.8 %
Track quality 100.0 %
Test CRC 79DBD536
Copy CRC 79DBD536
Copy OK

Track 10

Filename E:\DownLoad\Score_The Crow Salvation\ 10. Marco Beltrami – Slo-Mo Walking.wav

Peak level 97.8 %
Track quality 100.0 %
Test CRC 09E94F8E
Copy CRC 09E94F8E
Copy OK

Track 11

Filename E:\DownLoad\Score_The Crow Salvation\ 11. Marco Beltrami – Alex Corvis' Execution.wav

Peak level 97.7 %
Track quality 100.0 %
Test CRC 9222BE7B
Copy CRC 9222BE7B
Copy OK

Track 12

Filename E:\DownLoad\Score_The Crow Salvation\ 12. Marco Beltrami – Your Daddy Owns D.E.R.T..wav

Peak level 90.6 %
Track quality 99.8 %
Test CRC CCA780E7
Copy CRC CCA780E7
Copy OK

Track 13

Filename E:\DownLoad\Score_The Crow Salvation\ 13. Marco Beltrami – Alex Visits Thomas.wav

Peak level 97.8 %
Track quality 100.0 %
Test CRC 4E58BBD1
Copy CRC 4E58BBD1
Copy OK

Track 14

Filename E:\DownLoad\Score_The Crow Salvation\ 14. Marco Beltrami – Majorly Demented.wav

Peak level 97.6 %
Track quality 100.0 %
Test CRC 2B35E475
Copy CRC 77084F34
Copy OK

Track 15

Filename E:\DownLoad\Score_The Crow Salvation\ 15. Marco Beltrami – The Crow Croaks.wav

Peak level 97.6 %
Track quality 100.0 %
Test CRC AE121B65
Copy CRC AE121B65
Copy OK

Track 16

Filename E:\DownLoad\Score_The Crow Salvation\ 16. Marco Beltrami – More Slo-Mo Walking.wav

Peak level 97.7 %
Track quality 100.0 %
Test CRC 5BE849AB
Copy CRC 5BE849AB
Copy OK

Track 17

Filename E:\DownLoad\Score_The Crow Salvation\ 17. Marco Beltrami – Chasing Sis.wav

Peak level 97.9 %
Track quality 100.0 %
Test CRC 349FDDFF
Copy CRC 349FDDFF
Copy OK

Track 18

Filename E:\DownLoad\Score_The Crow Salvation\ 18. Marco Beltrami – Captain Gets A Shock.wav

Peak level 97.7 %
Track quality 100.0 %
Test CRC B8C42659
Copy CRC B8C42659
Copy OK

Track 19

Filename E:\DownLoad\Score_The Crow Salvation\ 19. Marco Beltrami – Love Theme - Ending.wav

Peak level 97.6 %
Track quality 100.0 %
Test CRC 978675EE
Copy CRC 978675EE
Copy OK

Track 20

Filename E:\DownLoad\Score_The Crow Salvation\ 20. Marco Beltrami – 'Meet Again' Performed by Jane Jensen.wav

Peak level 97.7 %
Track quality 100.0 %
Test CRC E9300D0B
Copy CRC E9300D0B
Copy OK

No errors occurred

End of status report


Трекер:  [ 20-Дек-2010 13:40 ]

  

Скачать .torrent

Размер .torrent файла 13 KB


Размер: 277 MB
Хэш (hash) релиза: c8129c8f41d555ee019537caee4a1cc16e5d71af

Торренты, похожие на The Crow: Salvation | Ворон: Спасение скачать торрент

Форум Название Автор Размер S L Добавлен
Саундтреки к фильмам и мультфильмам (lossless) ·· (Soundtrack) The Crow: Salvation | Ворон: Спасение - 2000, FLAC (tracks+.cue), lossless Galfimbul 552032302526 MB 0 0 1292270253

22:57

13-Дек-10

bot

Топик был перенесен в форум Саундтреки к фильмам и мультфильмам (lossless)

Перенес AqvaGen

Хотите добавить комментарий к записи скачать торрент The Crow: Salvation | Ворон: Спасение

!Обратная связь