Скачать через торрент музыку The Best of Soundtrack - RETRO 3 - 2000, FLAC бесплатно без регистрации torrent

Если у вас наблюдаются проблемы со скриншотами, переходом по ссылками, скачиванием торрентов - проблемы в блокировщике рекламы AdBlock. #хорошегоДня!


Статистика раздачи
Размер:  464 MB   |    Зарегистрирован:  6 лет 11 месяцев   |    .torrent скачан:  42 раза   |   
Раздают:  1  
   
Загрузка...
 
Автор Сообщение

AqvaGen


The Best of Soundtrack - RETRO 3

Страна: various
Жанр: Retro/Oldies/Soundtrack
Год выпуска: 2000
Формат: FLAC (tracks)
Битрейт аудио: lossless
Продолжительность: 01:13:49

Трэклист:

1. Joe Dassin - Taka Takata [2:36]
2. Del Shannon - Runaway [2:26]
3. Pat Boone - Speedy Gonzales [2:37]
4. Cesaria Evora - Besame Mucho [4:52]
5. Taco - Puttin on the Ritz [4:37]
6. Teach In - I'm Alone [2:49]
7. Sohnny Cymbal - Mr. Bassman [2:34]
8. D. Russel - Paradise [3:50]
9. Charles Aznavour - Les Deux Guitares [3:49]
10. Andy Williams - Love Story [3:02]
11. The Manhattan Transfer - Java Jive [2:50]
12. Salvatore Adamo - La Nuit [3:06]
13. The Andrews Sisters - Ferry Boat Serenade [3:02]
14. Joe Dollan - Lady in Blue [3:05]
15. Ray Charles - Hit the Road Jack [1:57]
16. The Ventures - Hernando's Hideaway [2:23]
17. Mary Hopkin - Those Were the Days [4:59]
18. Tom Jones - Love Me Tonight [3:10]
19. Louis Armstrong - Kiss of Fire [3:05]
20. Roy Orbison - Only the Lonely [2:23]
21. Liza Minelli - Mein Herr [3:34]
22. The Platters - For the First Times [2:13]
23. Millie Small - My Boy Lollipop [2:02]
24. Jack Hilton Orchestra - St. Louis Blues [2:48]

Доп. информация:
Exact Audio Copy V0.99 prebeta 4 from 23. January 2008

EAC extraction logfile from 24. February 2008, 20:58

Various / The Best of Soundtrack - RETRO 3

Used drive : SONY DVD-ROM DDU1622 Adapter: 0 ID: 1

Read mode : Secure
Utilize accurate stream : Yes
Defeat audio cache : Yes
Make use of C2 pointers : No

Read offset correction : 12
Overread into Lead-In and Lead-Out : No
Fill up missing offset samples with silence : Yes
Delete leading and trailing silent blocks : No
Null samples used in CRC calculations : Yes
Used interface : Installed external ASPI interface
Gap handling : Not detected, thus appended to previous track

Used output format : Internal WAV Routines
Sample format : 44.100 Hz; 16 Bit; Stereo

TOC of the extracted CD

Track | Start | Length | Start sector | End sector
---------------------------------------------------------
1 | 0:00.00 | 2:36.25 | 0 | 11724
2 | 2:36.25 | 2:26.09 | 11725 | 22683
3 | 5:02.34 | 2:37.60 | 22684 | 34518
4 | 7:40.19 | 4:52.64 | 34519 | 56482
5 | 12:33.08 | 4:37.46 | 56483 | 77303
6 | 17:10.54 | 2:49.44 | 77304 | 90022
7 | 20:00.23 | 2:34.41 | 90023 | 101613
8 | 22:34.64 | 3:50.14 | 101614 | 118877
9 | 26:25.03 | 3:49.35 | 118878 | 136087
10 | 30:14.38 | 3:02.54 | 136088 | 149791
11 | 33:17.17 | 2:50.53 | 149792 | 162594
12 | 36:07.70 | 3:06.31 | 162595 | 176575
13 | 39:14.26 | 3:02.15 | 176576 | 190240
14 | 42:16.41 | 3:05.08 | 190241 | 204123
15 | 45:21.49 | 1:57.61 | 204124 | 212959
16 | 47:19.35 | 2:23.18 | 212960 | 223702
17 | 49:42.53 | 4:59.22 | 223703 | 246149
18 | 54:42.00 | 3:10.40 | 246150 | 260439
19 | 57:52.40 | 3:05.28 | 260440 | 274342
20 | 60:57.68 | 2:23.57 | 274343 | 285124
21 | 63:21.50 | 3:34.57 | 285125 | 301231
22 | 66:56.32 | 2:13.70 | 301232 | 311276
23 | 69:10.27 | 2:02.53 | 311277 | 320479
24 | 71:13.05 | 2:48.50 | 320480 | 333129

Track 1

Filename D:\01 Joe Dassin - Taka Takata.wav

Peak level 100.0 %
Track quality 100.0 %
Copy CRC CD07D313
Copy OK

Track 2

Filename D:\02 Del Shannon - Runaway.wav

Peak level 100.0 %
Track quality 99.9 %
Copy CRC A490650E
Copy OK

Track 3

Filename D:\03 Pat Boone - Speedy Gonzales.wav

Peak level 100.0 %
Track quality 100.0 %
Copy CRC 3E413B8A
Copy OK

Track 4

Filename D:\04 Cesaria Evora - Besame Mucho.wav

Peak level 78.1 %
Track quality 100.0 %
Copy CRC 228C21C5
Copy OK

Track 5

Filename D:\05 Taco - Puttin on the Ritz.wav

Peak level 100.0 %
Track quality 99.9 %
Copy CRC 824AA587
Copy OK

Track 6

Filename D:\06 Teach In - I'm Alone.wav

Peak level 100.0 %
Track quality 100.0 %
Copy CRC FDED6721
Copy OK

Track 7

Filename D:\07 Sohnny Cymbal - Mr. Bassman.wav

Peak level 100.0 %
Track quality 100.0 %
Copy CRC 64C17BE8
Copy OK

Track 8

Filename D:\08 D. Russel - Paradise.wav

Peak level 100.0 %
Track quality 100.0 %
Copy CRC 47DE0A68
Copy OK

Track 9

Filename D:\09 Charles Aznavour - Les Deux Guitares.wav

Peak level 100.0 %
Track quality 99.9 %
Copy CRC D10F012A
Copy OK

Track 10

Filename D:\10 Andy Williams - Love Story.wav

Peak level 100.0 %
Track quality 100.0 %
Copy CRC C77B3F16
Copy OK

Track 11

Filename D:\11 The Manhattan Transfer - Java Jive.wav

Peak level 88.1 %
Track quality 100.0 %
Copy CRC EA6E3C5B
Copy OK

Track 12

Filename D:\12 Salvatore Adamo - La Nuit.wav

Peak level 94.2 %
Track quality 100.0 %
Copy CRC 8F4C5D56
Copy OK

Track 13

Filename D:\13 The Andrews Sisters - Ferry Boat Serenade.wav

Peak level 97.8 %
Track quality 100.0 %
Copy CRC C481A790
Copy OK

Track 14

Filename D:\14 Joe Dollan - Lady in Blue.wav

Peak level 100.0 %
Track quality 100.0 %
Copy CRC 2643C322
Copy OK

Track 15

Filename D:\15 Ray Charles - Hit the Road Jack.wav

Peak level 100.0 %
Track quality 100.0 %
Copy CRC D449A7B5
Copy OK

Track 16

Filename D:\16 The Ventures - Hernando's Hideaway.wav

Peak level 73.4 %
Track quality 100.0 %
Copy CRC 86EA8B5E
Copy OK

Track 17

Filename D:\17 Mary Hopkin - Those Were the Days.wav

Peak level 100.0 %
Track quality 100.0 %
Copy CRC 21D3D849
Copy OK

Track 18

Filename D:\18 Tom Jones - Love Me Tonight.wav

Peak level 100.0 %
Track quality 100.0 %
Copy CRC 3268ABF2
Copy OK

Track 19

Filename D:\19 Louis Armstrong - Kiss of Fire.wav

Peak level 92.8 %
Track quality 100.0 %
Copy CRC 51516C88
Copy OK

Track 20

Filename D:\20 Roy Orbison - Only the Lonely.wav

Peak level 100.0 %
Track quality 99.9 %
Copy CRC 2E1182F4
Copy OK

Track 21

Filename D:\21 Liza Minelli - Mein Herr.wav

Peak level 100.0 %
Track quality 100.0 %
Copy CRC 05214CCD
Copy OK

Track 22

Filename D:\22 The Platters - For the First Times.wav

Peak level 100.0 %
Track quality 100.0 %
Copy CRC 13E966FF
Copy OK

Track 23

Filename D:\23 Millie Small - My Boy Lollipop.wav

Peak level 94.5 %
Track quality 100.0 %
Copy CRC 58EAEBAB
Copy OK

Track 24

Filename D:\24 Jack Hilton Orchestra - St. Louis Blues.wav

Peak level 100.0 %
Track quality 99.8 %
Copy CRC 68BFA254
Copy OK

No errors occurred

End of status report
AUDIOCHECKER v2.0 beta (build 457) - by Dester - opdester@freemail.hu
~~~~~~~~~~~~~~~~~~~~~~~~~~~~~~~~~~
-=== DO NOT EDIT THIS FILE! ===-

Path: D:\

01 -=- 01 Joe Dassin - Taka Takata.wav -=- CDDA (100%)
02 -=- 02 Del Shannon - Runaway.wav -=- CDDA (100%)
03 -=- 03 Pat Boone - Speedy Gonzales.wav -=- CDDA (100%)
04 -=- 04 Cesaria Evora - Besame Mucho.wav -=- CDDA (100%)
05 -=- 05 Taco - Puttin on the Ritz.wav -=- CDDA (100%)
06 -=- 06 Teach In - I'm Alone.wav -=- CDDA (100%)
07 -=- 07 Sohnny Cymbal - Mr. Bassman.wav -=- CDDA (100%)
08 -=- 08 D. Russel - Paradise.wav -=- CDDA (85%)
09 -=- 09 Charles Aznavour - Les Deux Guitares.wav -=- CDDA (100%)
10 -=- 10 Andy Williams - Love Story.wav -=- CDDA (100%)
11 -=- 11 The Manhattan Transfer - Java Jive.wav -=- CDDA (100%)
12 -=- 12 Salvatore Adamo - La Nuit.wav -=- CDDA (100%)
13 -=- 13 The Andrews Sisters - Ferry Boat Serenade.wav -=- CDDA (100%)
14 -=- 14 Joe Dollan - Lady in Blue.wav -=- CDDA (100%)
15 -=- 15 Ray Charles - Hit the Road Jack.wav -=- CDDA (100%)
16 -=- 16 The Ventures - Hernando's Hideaway.wav -=- CDDA (100%)
17 -=- 17 Mary Hopkin - Those Were the Days.wav -=- CDDA (100%)
18 -=- 18 Tom Jones - Love Me Tonight.wav -=- CDDA (100%)
19 -=- 19 Louis Armstrong - Kiss of Fire.wav -=- CDDA (100%)
20 -=- 20 Roy Orbison - Only the Lonely.wav -=- MPEG (93%)
21 -=- 21 Liza Minelli - Mein Herr.wav -=- CDDA (100%)
22 -=- 22 The Platters - For the First Times.wav -=- CDDA (99%)
23 -=- 23 Millie Small - My Boy Lollipop.wav -=- CDDA (100%)
24 -=- 24 Jack Hilton Orchestra - St. Louis Blues.wav -=- CDDA (43%)

Summary 93,08% CDDA

214672932


Трекер:  [ 20-Дек-2010 12:33 ]

  

Скачать .torrent

Размер .torrent файла 20 KB


Размер: 464 MB
Хэш (hash) релиза: 0cd566909d19f75b3a445d46c8c3c752c02f35b0

bot

Топик был перенесен в форум Саундтреки к фильмам и мультфильмам (lossless)

Перенес AqvaGen

Хотите добавить комментарий к записи скачать торрент The Best of Soundtrack - RETRO 3 - 2000, FLAC

!Обратная связь