Скачать через торрент музыку Семь Психопатов Seven Psychopaths бесплатно без регистрации torrent

Если у вас наблюдаются проблемы со скриншотами, переходом по ссылками, скачиванием торрентов - проблемы в блокировщике рекламы AdBlock. #хорошегоДня!


Статистика раздачи
Размер:  280 MB   |    Зарегистрирован:  4 года 6 месяцев   |    .torrent скачан:  26 раз   |   
Раздают:  1  
   
Загрузка...
 
Автор Сообщение

Galfimbul

avatar Galfimbul


Семь Психопатов / Seven Psychopaths


Жанр: Score \ Soundtrack || Композитор: Carter Burwell || Год выпуска диска: 2012 || Страна: США || Аудиокодек: FLAC (*.flac) || Тип рипа: tracks+.cue || Битрейт аудио: lossless || Продолжительность: 00:57:11 || Источник: What.cd || Наличие сканов в содержимом раздачи: нет || ID3-теги: да
Треклист:
01. Angel of Death – Hank Williams [01:47]
02. The First Cut Is The Deepest – P.P. Arnold [03:15]
03. The Quaker – Carter Burwell [04:01]
04. Berlioz: Strophes ‘Premiers Transports Que Nui N’oblie…’ [Roméo Et Juliette, Op 17 - Version With Original Parts. - Part 1] – The Monteverdi Choir And Orchestre Révolutionnaire et Romantique with Catherine Robbin, Jean-Paul Fouchécourt & John Eliot Gardiner [06:31]
05. Zachariah – Carter Burwell [00:54]
06. Angela Surf City – The Walkmen [03:20]
07. Billy’s Diary – Carter Burwell [01:49]
08. Dirty Dishes – Deer Tick [03:17]
09. My Lai – Carter Burwell [01:20]
10. Country Dumb – Josh T. Pearson [10:06]
11. Der Monde: Ach, Da Hängt Ja Der Mond! (Klein Kind/Chor) – Teresa Holloway, Philharmonia Chorus/Philharmonia Orchestra/Wolfgang Sawallisch [03:39]
12. All Gray and Shit – Carter Burwell [00:56]
13. This Movie Ends My Way – Carter Burwell [02:18]
14. Stranded – The Walkmen [04:23]
15. Billy’s Ending – Carter Burwell [00:57]
16. It Might – Carter Burwell [04:08]
17. Seven Psychopaths – Carter Burwell [00:59]
18. Different Drum – The Stone Poneys feat. Linda Ronstadt [02:38]
19. Zach’s Back – Carter Burwell [00:43]
Exact Audio Copy V1.0 beta 3 from 29. August 2011

EAC extraction logfile from 3. March 2013, 16:31

Various Artists / Seven Psychopaths (Original Motion Picture Soundtrack)

Used drive : LITE-ON LTR-40125S Adapter: 3 ID: 0

Read mode : SecureUtilize accurate stream : YesDefeat audio cache : YesMake use of C2 pointers : No

Read offset correction : 12Overread into Lead-In and Lead-Out : NoFill up missing offset samples with silence : YesDelete leading and trailing silent blocks : NoNull samples used in CRC calculations : YesUsed interface : Native Win32 interface for Win NT & 2000Gap handling : Appended to previous track

Used output format : User Defined EncoderSelected bitrate : 1024 kBit/sQuality : HighAdd ID3 tag : NoCommand line compressor : C:\Program Files (x86)\Exact Audio Copy\Flac\flac.exeAdditional command line options : -8 -V -T "ARTIST=%artist%" -T "TITLE=%title%" -T "ALBUM=%albumtitle%" -T "DATE=%year%" -T "TRACKNUMBER=%tracknr%" -T "GENRE=%genre%" -T "PERFORMER=%albuminterpret%" -T "COMPOSER=%composer%" %haslyrics%--tag-from-file=LYRICS="%lyricsfile%"%haslyrics% -T "ALBUMARTIST=%albumartist%" -T "DISCNUMBER=%cdnumber%" -T "TOTALDISCS=%totalcds%" -T "TOTALTRACKS=%numtracks%" -T "COMMENT=%comment%" %source% -o %dest%

TOC of the extracted CD

Track | Start | Length | Start sector | End sector --------------------------------------------------------- 1 | 0:00.00 | 1:47.39 | 0 | 8063 2 | 1:47.39 | 3:15.54 | 8064 | 22742 3 | 5:03.18 | 4:01.19 | 22743 | 40836 4 | 9:04.37 | 6:31.41 | 40837 | 70202 5 | 15:36.03 | 0:54.55 | 70203 | 74307 6 | 16:30.58 | 3:20.52 | 74308 | 89359 7 | 19:51.35 | 1:49.24 | 89360 | 97558 8 | 21:40.59 | 3:17.51 | 97559 | 112384 9 | 24:58.35 | 1:20.31 | 112385 | 118415 10 | 26:18.66 | 10:06.49 | 118416 | 163914 11 | 36:25.40 | 3:39.35 | 163915 | 180374 12 | 40:05.00 | 0:56.37 | 180375 | 184611 13 | 41:01.37 | 2:18.36 | 184612 | 194997 14 | 43:19.73 | 4:23.34 | 194998 | 214756 15 | 47:43.32 | 0:57.33 | 214757 | 219064 16 | 48:40.65 | 4:08.70 | 219065 | 237734 17 | 52:49.60 | 0:59.28 | 237735 | 242187 18 | 53:49.13 | 2:38.27 | 242188 | 254064 19 | 56:27.40 | 0:43.46 | 254065 | 257335

Track 1

Filename C:\Users\Matthew\Desktop\EAC RIPS\Carter Burwell - Seven Psychopaths (2012) [FLAC]\01 - Hank Williams - Angel of Death.wav

Pre-gap length 0:00:02.00

Peak level 60.9 % Extraction speed 8.2 X Track quality 99.9 % Test CRC 793CB757 Copy CRC 793CB757 Track not present in AccurateRip database Copy OK

Track 2

Filename C:\Users\Matthew\Desktop\EAC RIPS\Carter Burwell - Seven Psychopaths (2012) [FLAC]\02 - P.P. Arnold - The First Cut Is The Deepest.wav

Pre-gap length 0:00:01.61

Peak level 78.2 % Extraction speed 12.5 X Track quality 100.0 % Test CRC 1A23ED3A Copy CRC 1A23ED3A Track not present in AccurateRip database Copy OK

Track 3

Filename C:\Users\Matthew\Desktop\EAC RIPS\Carter Burwell - Seven Psychopaths (2012) [FLAC]\03 - Carter Burwell - The Quaker.wav

Pre-gap length 0:00:01.50

Peak level 94.9 % Extraction speed 13.3 X Track quality 100.0 % Test CRC F1C2F431 Copy CRC F1C2F431 Track not present in AccurateRip database Copy OK

Track 4

Filename C:\Users\Matthew\Desktop\EAC RIPS\Carter Burwell - Seven Psychopaths (2012) [FLAC]\04 - The Monteverdi Choir & Orchestre Révolutionaire et Romantique - Romeo Et Juliette, Op. 17 - Version With Original Parts. - Part 1.wav

Pre-gap length 0:00:01.34

Peak level 94.7 % Extraction speed 15.0 X Track quality 100.0 % Test CRC 4DA04593 Copy CRC 4DA04593 Track not present in AccurateRip database Copy OK

Track 5

Filename C:\Users\Matthew\Desktop\EAC RIPS\Carter Burwell - Seven Psychopaths (2012) [FLAC]\05 - Carter Burwell - Zacharia.wav

Pre-gap length 0:00:02.08

Peak level 83.8 % Extraction speed 9.3 X Track quality 99.8 % Test CRC 71F99AA7 Copy CRC 71F99AA7 Track not present in AccurateRip database Copy OK

Track 6

Filename C:\Users\Matthew\Desktop\EAC RIPS\Carter Burwell - Seven Psychopaths (2012) [FLAC]\06 - The Walkmen - Angela Surf City.wav

Pre-gap length 0:00:00.82

Peak level 85.5 % Extraction speed 15.3 X Track quality 100.0 % Test CRC DE4EED63 Copy CRC DE4EED63 Track not present in AccurateRip database Copy OK

Track 7

Filename C:\Users\Matthew\Desktop\EAC RIPS\Carter Burwell - Seven Psychopaths (2012) [FLAC]\07 - Carter Burwell - Billy''s Diary.wav

Pre-gap length 0:00:02.25

Peak level 94.6 % Extraction speed 14.1 X Track quality 100.0 % Test CRC 353CC433 Copy CRC 353CC433 Track not present in AccurateRip database Copy OK

Track 8

Filename C:\Users\Matthew\Desktop\EAC RIPS\Carter Burwell - Seven Psychopaths (2012) [FLAC]\08 - Deer Tick - Dirty Dishes.wav

Pre-gap length 0:00:02.08

Peak level 61.7 % Extraction speed 15.6 X Track quality 100.0 % Test CRC 15E7A370 Copy CRC 15E7A370 Track not present in AccurateRip database Copy OK

Track 9

Filename C:\Users\Matthew\Desktop\EAC RIPS\Carter Burwell - Seven Psychopaths (2012) [FLAC]\09 - Carter Burwell - My Lai.wav

Pre-gap length 0:00:01.74

Peak level 94.9 % Extraction speed 14.5 X Track quality 100.0 % Test CRC 7ED769F0 Copy CRC 7ED769F0 Track not present in AccurateRip database Copy OK

Track 10

Filename C:\Users\Matthew\Desktop\EAC RIPS\Carter Burwell - Seven Psychopaths (2012) [FLAC]\10 - Josh T. Pearson - Country Dumb.wav

Pre-gap length 0:00:02.53

Peak level 71.9 % Extraction speed 18.2 X Track quality 100.0 % Test CRC D809CC0A Copy CRC D809CC0A Track not present in AccurateRip database Copy OK

Track 11

Filename C:\Users\Matthew\Desktop\EAC RIPS\Carter Burwell - Seven Psychopaths (2012) [FLAC]\11 - Teresa Holloway - Der Monde- Ach, Da Hangt Ja Der Mond!.wav

Pre-gap length 0:00:02.01

Peak level 40.6 % Extraction speed 14.7 X Track quality 99.9 % Test CRC 08FA7263 Copy CRC 08FA7263 Track not present in AccurateRip database Copy OK

Track 12

Filename C:\Users\Matthew\Desktop\EAC RIPS\Carter Burwell - Seven Psychopaths (2012) [FLAC]\12 - Carter Burwell - All Gray and Shxt.wav

Pre-gap length 0:00:02.32

Peak level 60.8 % Extraction speed 14.5 X Track quality 100.0 % Test CRC C3BB7ECA Copy CRC C3BB7ECA Track not present in AccurateRip database Copy OK

Track 13

Filename C:\Users\Matthew\Desktop\EAC RIPS\Carter Burwell - Seven Psychopaths (2012) [FLAC]\13 - Carter Burwell - This Movie Ends My Way.wav

Pre-gap length 0:00:02.24

Peak level 95.0 % Extraction speed 17.3 X Track quality 100.0 % Test CRC DAA15FA3 Copy CRC DAA15FA3 Track not present in AccurateRip database Copy OK

Track 14

Filename C:\Users\Matthew\Desktop\EAC RIPS\Carter Burwell - Seven Psychopaths (2012) [FLAC]\14 - The Walkmen - Stranded.wav

Pre-gap length 0:00:02.32

Peak level 83.7 % Extraction speed 19.0 X Track quality 100.0 % Test CRC BDDAD2BF Copy CRC BDDAD2BF Track not present in AccurateRip database Copy OK

Track 15

Filename C:\Users\Matthew\Desktop\EAC RIPS\Carter Burwell - Seven Psychopaths (2012) [FLAC]\15 - Carter Burwell - Billy''s Ending.wav

Pre-gap length 0:00:02.34

Peak level 92.2 % Extraction speed 11.5 X Track quality 99.8 % Test CRC 8F1CBFA1 Copy CRC 8F1CBFA1 Track not present in AccurateRip database Copy OK

Track 16

Filename C:\Users\Matthew\Desktop\EAC RIPS\Carter Burwell - Seven Psychopaths (2012) [FLAC]\16 - Carter Burwell - It Might.wav

Pre-gap length 0:00:01.97

Peak level 78.6 % Extraction speed 19.2 X Track quality 100.0 % Test CRC 74701B7D Copy CRC 74701B7D Track not present in AccurateRip database Copy OK

Track 17

Filename C:\Users\Matthew\Desktop\EAC RIPS\Carter Burwell - Seven Psychopaths (2012) [FLAC]\17 - Carter Burwell - Seven Psychopaths.wav

Pre-gap length 0:00:03.26

Peak level 65.9 % Extraction speed 14.6 X Track quality 100.0 % Test CRC 73CF091C Copy CRC 73CF091C Track not present in AccurateRip database Copy OK

Track 18

Filename C:\Users\Matthew\Desktop\EAC RIPS\Carter Burwell - Seven Psychopaths (2012) [FLAC]\18 - The Stone Poneys ft. Linda Ronstadt - Different Drum.wav

Pre-gap length 0:00:02.38

Peak level 97.1 % Extraction speed 15.8 X Track quality 99.9 % Test CRC D59DD0A1 Copy CRC D59DD0A1 Track not present in AccurateRip database Copy OK

Track 19

Filename C:\Users\Matthew\Desktop\EAC RIPS\Carter Burwell - Seven Psychopaths (2012) [FLAC]\19 - Carter Burwell - Zach''s Back.wav

Pre-gap length 0:00:02.16

Peak level 74.2 % Extraction speed 13.1 X Track quality 100.0 % Test CRC 339A705E Copy CRC 339A705E Track not present in AccurateRip database Copy OK

None of the tracks are present in the AccurateRip database

No errors occurred

End of status report

---- CUETools DB Plugin V2.1.3

[CTDB TOCID: SOvbbSZTsc57DJMQqhydcDuQc6Q-] disk not present in database, Submit result: database access error: The request was aborted: The request was canceled.

==== Log checksum 5C7D0CA5A769355A47218AC30C6CFE36F69CD90382379859777282F1C61792CA ====
REM GENRE SoundtrackREM DATE 2012REM DISCID FA0D6713REM COMMENT "ExactAudioCopy v1.0b3"CATALOG 0780163430721PERFORMER "Various Artists"TITLE "Seven Psychopaths (Original Motion Picture Soundtrack)"FILE "01 - Hank Williams - Angel of Death.wav" WAVE TRACK 01 AUDIO TITLE "Angel of Death" PERFORMER "Hank Williams" ISRC USLS51230701 INDEX 01 00:00:00 TRACK 02 AUDIO TITLE "The First Cut Is The Deepest" PERFORMER "P.P. Arnold" ISRC USLS51230702 INDEX 00 01:45:68FILE "02 - P.P. Arnold - The First Cut Is The Deepest.wav" WAVE INDEX 01 00:00:00 TRACK 03 AUDIO TITLE "The Quaker" PERFORMER "Carter Burwell" ISRC USLS51230703 INDEX 00 03:14:16FILE "03 - Carter Burwell - The Quaker.wav" WAVE INDEX 01 00:00:00 TRACK 04 AUDIO TITLE "Romeo Et Juliette, Op. 17 - Version With Original Parts. - Part 1" PERFORMER "The Monteverdi Choir & Orchestre Rйvolutionaire et Romantique" ISRC USLS51230704 INDEX 00 03:59:68FILE "04 - The Monteverdi Choir & Orchestre Rйvolutionaire et Romantique - Romeo Et Juliette, Op. 17 - Version With Original Parts. - Part 1.wav" WAVE INDEX 01 00:00:00 TRACK 05 AUDIO TITLE "Zacharia" PERFORMER "Carter Burwell" ISRC USLS51230705 INDEX 00 06:29:35FILE "05 - Carter Burwell - Zacharia.wav" WAVE INDEX 01 00:00:00 TRACK 06 AUDIO TITLE "Angela Surf City" PERFORMER "The Walkmen" ISRC USLS51230706 INDEX 00 00:53:68FILE "06 - The Walkmen - Angela Surf City.wav" WAVE INDEX 01 00:00:00 TRACK 07 AUDIO TITLE "Billy''s Diary" PERFORMER "Carter Burwell" ISRC USLS51230707 INDEX 00 03:18:33FILE "07 - Carter Burwell - Billy''s Diary.wav" WAVE INDEX 01 00:00:00 TRACK 08 AUDIO TITLE "Dirty Dishes" PERFORMER "Deer Tick" ISRC USLS51230708 INDEX 00 01:47:18FILE "08 - Deer Tick - Dirty Dishes.wav" WAVE INDEX 01 00:00:00 TRACK 09 AUDIO TITLE "My Lai" PERFORMER "Carter Burwell" ISRC USLS51230709 INDEX 00 03:15:70FILE "09 - Carter Burwell - My Lai.wav" WAVE INDEX 01 00:00:00 TRACK 10 AUDIO TITLE "Country Dumb" PERFORMER "Josh T. Pearson" ISRC USLS51230710 INDEX 00 01:17:66FILE "10 - Josh T. Pearson - Country Dumb.wav" WAVE INDEX 01 00:00:00 TRACK 11 AUDIO TITLE "Der Monde: Ach, Da Hangt Ja Der Mond!" PERFORMER "Teresa Holloway" ISRC USLS51230711 INDEX 00 10:04:48FILE "11 - Teresa Holloway - Der Monde- Ach, Da Hangt Ja Der Mond!.wav" WAVE INDEX 01 00:00:00 TRACK 12 AUDIO TITLE "All Gray and Sh*t" PERFORMER "Carter Burwell" ISRC USLS51230712 INDEX 00 03:37:11FILE "12 - Carter Burwell - All Gray and Shxt.wav" WAVE INDEX 01 00:00:00 TRACK 13 AUDIO TITLE "This Movie Ends My Way" PERFORMER "Carter Burwell" ISRC USLS51230713 INDEX 00 00:54:19FILE "13 - Carter Burwell - This Movie Ends My Way.wav" WAVE INDEX 01 00:00:00 TRACK 14 AUDIO TITLE "Stranded" PERFORMER "The Walkmen" ISRC USLS51230714 INDEX 00 02:16:12FILE "14 - The Walkmen - Stranded.wav" WAVE INDEX 01 00:00:00 TRACK 15 AUDIO TITLE "Billy''s Ending" PERFORMER "Carter Burwell" ISRC USLS51230715 INDEX 00 04:21:08FILE "15 - Carter Burwell - Billy''s Ending.wav" WAVE INDEX 01 00:00:00 TRACK 16 AUDIO TITLE "It Might" PERFORMER "Carter Burwell" ISRC USLS51230716 INDEX 00 00:55:35FILE "16 - Carter Burwell - It Might.wav" WAVE INDEX 01 00:00:00 TRACK 17 AUDIO TITLE "Seven Psychopaths" PERFORMER "Carter Burwell" ISRC USLS51230717 INDEX 00 04:05:50FILE "17 - Carter Burwell - Seven Psychopaths.wav" WAVE INDEX 01 00:00:00 TRACK 18 AUDIO TITLE "Different Drum" PERFORMER "The Stone Poneys ft. Linda Ronstadt" ISRC USLS51230718 INDEX 00 00:56:74FILE "18 - The Stone Poneys ft. Linda Ronstadt - Different Drum.wav" WAVE INDEX 01 00:00:00 TRACK 19 AUDIO TITLE "Zach''s Back" PERFORMER "Carter Burwell" ISRC USLS51230719 INDEX 00 02:36:15FILE "19 - Carter Burwell - Zach''s Back.wav" WAVE INDEX 01 00:00:00




Трекер:  [ 12-Июн-2013 16:35 ]

  

Скачать .torrent

Размер .torrent файла 13 KB


Размер: 280 MB
Хэш (hash) релиза: 56dafa6a57d693611434128c2415d55af7bb311c

bot

Топик был перенесен в форум Саундтреки к фильмам и мультфильмам (lossless)

Перенес Galfimbul

Хотите добавить комментарий к записи скачать торрент Семь Психопатов Seven Psychopaths

!Обратная связь