Скачать через торрент Героический Эйдж Heroic Age бесплатно Аниме Все серии на русском torrent

Если у вас наблюдаются проблемы со скриншотами, переходом по ссылками, скачиванием торрентов - проблемы в блокировщике рекламы AdBlock. #хорошегоДня!


Статистика раздачи
Размер:  16.84 GB   |    Зарегистрирован:  4 года 8 месяцев   |    .torrent скачан:  62 раза   |   
Раздают:  1  
   
Загрузка...
 
Автор Сообщение

Galfimbul

avatar Galfimbul






Год выпуска: 2007
Страна: Япония
Жанр: приключения, романтика, фантастика, меха
Продолжительность: 26 эп. по 25 мин.
Перевод:

русские субтитры от Raito aka Винсент
Озвучка:

одноголосая (муж.) от AZAZELo (SHIZA)
Режиссер: Судзуки Тосимаса
Студия:
Описание:
Ответив на зов "Золотой расы", три расы собрались в одной Вселенной! Человеческая раса была последняя, четвертая раса, которая ответила на их зов и её прозвали "Стальной расой".
Много времени прошло с того момента и человечеству угрожает уничтожение от "Серебряной расы". Дабы спасти всё человечество, принцесса Дианейра отправляется на поиски спасителя! На разрушенной планете Орон, она встречает мальчика по имени Эйдж.
Эта встреча изменит судьбу Вселенной...
Информационные ссылки: AniDB || World Art || MAL
Качество: BDRip
Энкод: HQR
Тип видео: без хардсаба
Формат: mkv
Видео: x264 (Hi10p), 1280x720, ~3500 Kbps, 23.976 fps
Аудио JAP: AC3, 48000Hz, ~256 Kbps, 2ch
Аудио RUS 1: MP3, 41000Hz, 192 Kbps, 2ch
01. Star of Destruction
02. Forgotten Child
03. Hero''s Race
04. Planet Titarros
05. Nodoss
06. Cemetery Belt
07. Contract
08. Flashing Nodoss
09. Return
10. Lonely Hero
11. Shining Star
12. The Engulfing of the Torch
13. The Battle of Time
14. Roughly Putting on Airs
15. When Light Falls
16. Exceeding the Rules
17. Retaliation Forces
18. Victorious Day
19. Sortie in the System
20. The Nodos of Darkness
21. Planet Kodomos
22. Deadly Contract
23. The Four
24. Elysion
25. The Last Contract
26. Age
Общее
Уникальный идентификатор : 245067005318846536182184353323130009577 (0xB85E303A7D7391AEBB3FE6D5806BB7E9)
Полное имя : Z:\Anime\720p\Heroic Age [BD] [720p]\[HQR] Heroic Age TV -01- (BDRip 1280x720 h264 Hi10 ac3).mkv
Формат : Matroska
Версия формата : Version 4 / Version 2
Размер файла : 612 Мбайт
Продолжительность : 23 м.
Общий поток : 3579 Кбит/сек
Дата кодирования : UTC 2013-03-08 10:39:42
Программа кодирования : mkvmerge v6.1.0 (''Old Devil'') built on Mar 2 2013 14:32:37
Библиотека кодирования : libebml v1.3.0 + libmatroska v1.4.0

Видео
Идентификатор : 1
Формат : AVC
Формат/Информация : Advanced Video Codec
Профиль формата : High 10@L4.1
Параметр CABAC формата : Да
Параметр ReFrames формата : 8 кадров
Идентификатор кодека : V_MPEG4/ISO/AVC
Продолжительность : 23 м.
Битрейт : 3252 Кбит/сек
Ширина : 1280 пикселей
Высота : 720 пикселей
Соотношение сторон : 16:9
Режим частоты кадров : Постоянный
Частота кадров : 23,976 кадра/сек
Цветовое пространство : YUV
Субдискретизация насыщенности : 4:2:0
Битовая глубина : 10 бит
Тип развёртки : Прогрессивная
Бит/(Пиксели*Кадры) : 0.147
Размер потока : 556 Мбайт (91%)
Заголовок : [HQR] 01.The Ruined Planet
Библиотека кодирования : x264 core 129 r2230 1cffe9f
Настройки программы : cabac=1 / ref=8 / deblock=1:-3:-3 / analyse=0x3:0x133 / me=umh / subme=9 / psy=1 / psy_rd=0.95:0.15 / mixed_ref=1 / me_range=24 / chroma_me=1 / trellis=2 / 8x8dct=1 / cqm=0 / deadzone=21,11 / fast_pskip=1 / chroma_qp_offset=-3 / threads=4 / lookahead_threads=1 / sliced_threads=0 / nr=0 / decimate=0 / interlaced=0 / bluray_compat=0 / constrained_intra=0 / bframes=9 / b_pyramid=2 / b_adapt=2 / b_bias=0 / direct=3 / weightb=1 / open_gop=0 / weightp=2 / keyint=240 / keyint_min=24 / scenecut=40 / intra_refresh=0 / rc=crf / mbtree=0 / crf=16.0 / qcomp=0.75 / qpmin=0 / qpmax=34 / qpstep=4 / ip_ratio=1.40 / pb_ratio=1.30 / aq=1:0.70
Default : Да
Forced : Нет
Основные цвета : BT.709
Характеристики трансфера : BT.709
Коэффициенты матрицы : BT.709

Аудио
Идентификатор : 2
Формат : AC-3
Формат/Информация : Audio Coding 3
Расширение режима : CM (complete main)
Параметр Endianness формата : Big
Идентификатор кодека : A_AC3
Продолжительность : 23 м.
Вид битрейта : Постоянный
Битрейт : 256 Кбит/сек
Каналы : 2 канала
Расположение каналов : Front: L R
Частота : 48,0 КГц
Битовая глубина : 16 бит
Метод сжатия : С потерями
Размер потока : 43,8 Мбайт (7%)
Заголовок : Original
Язык : Japanese
Default : Да
Forced : Нет



Трекер:  [ 24-Мар-2013 17:10 ]

  

Скачать .torrent

Размер .torrent файла 93 KB


Размер: 16.84 GB
Хэш (hash) релиза: 8a134da3cfa3923f27af0e051ac338c78c801b2b
Подписка на обновления:

Еще никто не оставлял запись к записи скачать торрент Героический Эйдж Heroic Age . Будь первым!

!Обратная связь