Скачать через торрент Клуб GJ Клуб Добрых Дел бесплатно Аниме Все серии на русском torrent

Если у вас наблюдаются проблемы со скриншотами, переходом по ссылками, скачиванием торрентов - проблемы в блокировщике рекламы AdBlock. #хорошегоДня!


Статистика раздачи
Размер:  1.76 GB   |    Зарегистрирован:  4 года 8 месяцев   |    .torrent скачан:  25 раз   |   
Раздают:  1  
   
Загрузка...
 
Автор Сообщение

_N_

avatar _N_



Год выпуска: 2013
Страна: Япония
Жанр: комедия, повседневность
Продолжительность: 12 эп. по 24 мин.
Перевод:

русские субтитры от Zombieanne (полные/вспомогательные)
Озвучка:

двухголосая (муж./жен.) от Inspector_Gadjet & NikaLenina (AniDub)
Режиссер: Фудзивара Ёсиюки
Студия:
Описание:
В некоторой старшей школе существует «клуб добрых дел», где, как водится, единственный парень по имени Кёя Синомия вынужден развлекать четырех милых и нестандартных девушек. Президент, шумная малышка Мао Амацука, встревает во все, что можно, а если не получается, угадайте, кто виноват? Ее младшая сестра Мэгуми, наоборот, тихая и спокойная хозяюшка, правда, с двойным дном. Интеллектуальный гений Сион Сумэраги мало разбирается в повседневной жизни, а канадская гостья Клара Бернштейн умеет говорить с кошками и обожает есть мясо. И что же объединяет всех этих персонажей? Конечно же, великая сила аниме!

Добрые дела можно понимать по-разному, и для героев на первом месте – борьба со скукой, чем они регулярно и занимаются. Тут все средства хороши – от поедания вкусностей до танцев и армрестлинга, от игр в «братиков и сестричек» до культурных фестивалей. Комедия ситуаций и «весна юности», языковые шутки и молодежные розыгрыши, симпатичные герои и легко узнаваемые пародии – в общем, любители жанра не будут разочарованы!
© Hollow, World Art
Информационные ссылки: AniDB || World Art || MAL
Качество: BDRip
Энкод: Winter - RG Pantheon
Тип видео: без хардсаба
Формат: mkv
Видео: x264 (Hi10p), 1280x720, ~3000 Kbps, 23.976 fps
Аудио JAP: Vorbis, 48000Hz, ~256 Kbps, 2ch
Аудио RUS: AC3, 48000Hz, ~192 Kbps, 2ch
01. I Did a Good Job!
02. Friendliness, Loveliness, and Her Strangeness?
03. Kyoro on the GJ String
Общее
Уникальный идентификатор : 238331286730735858442088703095975324822 (0xB34CEFA97C815D2B95636CCA63FE2C96)
Полное имя : Z:\Anime\720p\GJ-bu [BD] [720p]\[Winter] GJ-bu 01 [BDrip 1280x720 x264 Vorbis].mkv
Формат : Matroska
Версия формата : Version 2
Размер файла : 508 Мбайт
Продолжительность : 23 м.
Режим общего битрейта : Переменный
Общий поток : 3086 Кбит/сек
Дата кодирования : UTC 2013-03-22 14:51:28
Программа кодирования : mkvmerge v2.9.8 (''C''est le bon'') built on Aug 13 2009 12:49:06
Библиотека кодирования : libebml v0.7.7 + libmatroska v0.8.1

Видео
Идентификатор : 1
Формат : AVC
Формат/Информация : Advanced Video Codec
Профиль формата : High 10@L4.1
Параметр CABAC формата : Да
Параметр ReFrames формата : 9 кадров
Идентификатор кодека : V_MPEG4/ISO/AVC
Продолжительность : 23 м.
Битрейт : 2768 Кбит/сек
Ширина : 1280 пикселей
Высота : 720 пикселей
Соотношение сторон : 16:9
Режим частоты кадров : Постоянный
Частота кадров : 23,976 кадра/сек
Цветовое пространство : YUV
Субдискретизация насыщенности : 4:2:0
Битовая глубина : 10 бит
Тип развёртки : Прогрессивная
Бит/(Пиксели*Кадры) : 0.125
Размер потока : 456 Мбайт (90%)
Библиотека кодирования : x264 core 129 r2230 1cffe9f
Настройки программы : cabac=1 / ref=9 / deblock=1:-2:-2 / analyse=0x3:0x133 / me=umh / subme=9 / psy=1 / psy_rd=0.90:0.00 / mixed_ref=1 / me_range=24 / chroma_me=1 / trellis=2 / 8x8dct=1 / cqm=0 / deadzone=21,11 / fast_pskip=1 / chroma_qp_offset=-2 / threads=6 / lookahead_threads=1 / sliced_threads=0 / nr=0 / decimate=0 / interlaced=0 / bluray_compat=0 / constrained_intra=0 / bframes=8 / b_pyramid=2 / b_adapt=2 / b_bias=0 / direct=1 / weightb=1 / open_gop=0 / weightp=2 / keyint=250 / keyint_min=23 / scenecut=40 / intra_refresh=0 / rc=crf / mbtree=0 / crf=15.8 / qcomp=0.70 / qpmin=9 / qpmax=40 / qpstep=4 / ip_ratio=1.40 / pb_ratio=1.30 / aq=1:0.90
Default : Нет
Forced : Нет

Аудио
Идентификатор : 2
Формат : Vorbis
Параметр Floor формата : 1
Идентификатор кодека : A_VORBIS
Продолжительность : 23 м.
Вид битрейта : Переменный
Битрейт : 256 Кбит/сек
Каналы : 2 канала
Частота : 48,0 КГц
Метод сжатия : С потерями
Размер потока : 42,2 Мбайт (8%)
Библиотека кодирования : libVorbis (Schaufenugget) (20101101 (Schaufenugget))
Язык : Japanese
Default : Да
Forced : Нет




Трекер:  [ 25-Мар-2013 14:09 ]

  

Скачать .torrent

Размер .torrent файла 20 KB


Размер: 1.76 GB
Хэш (hash) релиза: 1edda4ca36414c48eb48b1e09fc3b117751f45fc
Подписка на обновления:

Торренты, похожие на Клуб GJ Клуб Добрых Дел скачать торрент

Форум Название Автор Размер S L Добавлен
Аниме | Rips ·· Клуб GJ / Клуб Добрых Дел / GJ-bu [TV] [12 из 12] [без хардсаба] [RUS(int), JAP+SUB] [2012 г., комедия, повседневность, BDRip] Polarnik 23749916282.21 GB 0 0 1379147676

11:34

14-Сен-13

Аниме | HD Rips ·· Клуб GJ / Клуб Добрых Дел / GJ-bu (Фудзивара Ёсиюки) [TV] [Без хардсаба] [12 из 12] [RUS(ext), JAP + SUB] [2013 г., комедия, школа, повседневность, HDTVRip] [720p] Galfimbul 33104870573.08 GB 0 0 1366427259

06:07

20-Апр-13

Аниме | HD Rips ·· Клуб GJ / Клуб Добрых Дел / GJ-bu (Фудзивара Ёсиюки) [TV] [3 из 12] [без хардсаба] [RUS(ext), JAP+SUB] [2013 г., комедия, повседневность, BDRip] [1080p] Galfimbul 58555177855.45 GB 0 0 1364030369

12:19

23-Мар-13

Аниме | Rips ·· Клуб Добрых Дел / GJ-bu@ (Фудзивара Ёсиюки) [Special] [1 из 1] [без хардсаба] [RUS(ext),JAP+SUB] [2014, комедия, повседневность, BDRip] [720p] Galfimbul 966018498921 MB 0 0 1505136777

16:32

11-Сен-17

Аниме | HD Rips ·· Клуб Добрых Дел 2 / GJ-bu 2 / GJ-bu@ [Special] [Без хардсаба] [JAP, SUB] [2014 г., комедия, повседневность, школа, BDRip] [720p] Galfimbul 920162315878 MB 0 0 1414173851

21:04

24-Окт-14

Аниме | HD Rips ·· Клуб Добрых Дел / Клуб GJ / GJ-bu (Фудзивара Ёсиюки) [TV] [9 из 12] [Без хардсаба] [RUS(int), JAP+SUB] [2013 г., комедия, повседневность, BDRip] [1080p] Galfimbul 1517986663114.14 GB 0 0 1370962333

17:52

11-Июн-13

Еще никто не оставлял запись к записи скачать торрент Клуб GJ Клуб Добрых Дел . Будь первым!

!Обратная связь