Скачать через торрент музыку Космический патруль Raumpatrouille бесплатно без регистрации torrent

Если у вас наблюдаются проблемы со скриншотами, переходом по ссылками, скачиванием торрентов - проблемы в блокировщике рекламы AdBlock. #хорошегоДня!


Статистика раздачи
Размер:  376 MB   |    Зарегистрирован:  4 года 6 месяцев   |    .torrent скачан:  24 раза   |   
Раздают:  1  
   
Загрузка...
 
Автор Сообщение

Galfimbul

avatar Galfimbul


Космический патруль / Raumpatrouille

Название альбома: Raumpatrouille (The Complete Music)
Жанр: OST
Композитор: Peter Thomas Sound Orchester
Год выпуска диска: 2003
Год выпуска фильма: 1966
Страна-производитель диска: Germany
Издатель (лейбл): Bungalow
Номер по каталогу: bung 112
Аудиокодек: FLAC (*.flac)
Тип рипа: image+.cue
Битрейт аудио: lossless
Продолжительность: 01:02:06
Источник: собственный рип
Наличие сканов в содержимом раздачи: да
Треклист:
1 Space-Patrol (Raumpatrouille) 2:01
2 Shub-A-Doe 1:40
3 Lancet Bossa Nova 1:58
4 Love In Space 3:30
5 Ballet 1:43
6 Bolero On The Moon Rocks 2:03
7 Song And Sound The Stars Around 1:31
8 Landing On The Moon 3:09
9 Piccicato In Heaven 2:12
10 Outside Atmosphere 3:12
11 Take Sex 2:01
12 Jupiter's Pop Music 3:14
13 Sky-Life 2:00
14 Starlight Party 3:03
15 Orion 2000 1:38
16 Danger For The Crew 0:58
17 Position Overkill 2:19
18 The Space Patrol's Return 3:13
Bonus Tracks
19 Mars Menuet 3:04
20 Enter The Crew 1:28
21 Attention: Frogs! 1:06
22 Vision Gamma 0:57
23 Calling Earth 2:35
24 Invasion? 1:26
25 Till The Blue Moon 3:33
26 Sneaky Robots 1:59
27 Last Minute 1:52
28 Lonesome Astronaut 2:41
Exact Audio Copy V1.0 beta 3 from 29. August 2011

EAC extraction logfile from 24. March 2013, 22:40

Peter Thomas Soundorchester / Raumpatrouille - The Complete Music

Used drive : TSSTcorpCDDVDW SH-222AL Adapter: 1 ID: 0

Read mode : SecureUtilize accurate stream : YesDefeat audio cache : YesMake use of C2 pointers : No

Read offset correction : 6Overread into Lead-In and Lead-Out : NoFill up missing offset samples with silence : YesDelete leading and trailing silent blocks : NoNull samples used in CRC calculations : YesUsed interface : Installed external ASPI interface

Used output format : Internal WAV RoutinesSample format : 44.100 Hz; 16 Bit; Stereo

TOC of the extracted CD

Track | Start | Length | Start sector | End sector --------------------------------------------------------- 1 | 0:00.00 | 2:01.16 | 0 | 9090 2 | 2:01.16 | 1:40.42 | 9091 | 16632 3 | 3:41.58 | 1:58.01 | 16633 | 25483 4 | 5:39.59 | 3:29.22 | 25484 | 41180 5 | 9:09.06 | 1:43.55 | 41181 | 48960 6 | 10:52.61 | 2:02.44 | 48961 | 58154 7 | 12:55.30 | 1:31.03 | 58155 | 64982 8 | 14:26.33 | 3:09.06 | 64983 | 79163 9 | 17:35.39 | 2:11.43 | 79164 | 89031 10 | 19:47.07 | 3:12.04 | 89032 | 103435 11 | 22:59.11 | 2:01.44 | 103436 | 112554 12 | 25:00.55 | 3:13.27 | 112555 | 127056 13 | 28:14.07 | 2:00.33 | 127057 | 136089 14 | 30:14.40 | 3:03.06 | 136090 | 149820 15 | 33:17.46 | 1:37.38 | 149821 | 157133 16 | 34:55.09 | 0:58.56 | 157134 | 161539 17 | 35:53.65 | 2:18.48 | 161540 | 171937 18 | 38:12.38 | 3:12.64 | 171938 | 186401 19 | 41:25.27 | 3:04.06 | 186402 | 200207 20 | 44:29.33 | 1:27.50 | 200208 | 206782 21 | 45:57.08 | 1:06.24 | 206783 | 211756 22 | 47:03.32 | 0:57.17 | 211757 | 216048 23 | 48:00.49 | 2:34.73 | 216049 | 227671 24 | 50:35.47 | 1:26.05 | 227672 | 234126 25 | 52:01.52 | 3:32.25 | 234127 | 250051 26 | 55:34.02 | 1:59.09 | 250052 | 258985 27 | 57:33.11 | 1:52.08 | 258986 | 267393 28 | 59:25.19 | 2:41.05 | 267394 | 279473

Range status and errors

Selected range

Filename D:\torrent-razdacha\Peter Thomas Soundorchester - Raumpatrouille - The Complete Music 2003\Peter Thomas Soundorchester - Raumpatrouille - The Complete Music.wav

Peak level 99.6 % Extraction speed 3.0 X Range quality 100.0 % Test CRC D8D89899 Copy CRC D8D89899 Copy OK

No errors occurred

AccurateRip summary

Track 1 accurately ripped (confidence 2) [59ECBC32] (AR v2)Track 2 accurately ripped (confidence 2) [9B5C747A] (AR v2)Track 3 accurately ripped (confidence 2) [76A74FBC] (AR v2)Track 4 accurately ripped (confidence 2) [D2D1AF12] (AR v2)Track 5 accurately ripped (confidence 2) [6222A67A] (AR v2)Track 6 accurately ripped (confidence 2) [DE86A3FD] (AR v2)Track 7 accurately ripped (confidence 2) [C63C73FD] (AR v2)Track 8 accurately ripped (confidence 2) [AA36211A] (AR v2)Track 9 accurately ripped (confidence 2) [FB5F7EE0] (AR v2)Track 10 accurately ripped (confidence 2) [720F30B5] (AR v2)Track 11 accurately ripped (confidence 2) [B64F70B9] (AR v2)Track 12 accurately ripped (confidence 2) [8D5D7BC6] (AR v2)Track 13 accurately ripped (confidence 2) [33DDF229] (AR v2)Track 14 accurately ripped (confidence 2) [CD6575DA] (AR v2)Track 15 accurately ripped (confidence 2) [866FBF1A] (AR v2)Track 16 accurately ripped (confidence 2) [47C5ACCC] (AR v2)Track 17 accurately ripped (confidence 2) [9D285573] (AR v2)Track 18 accurately ripped (confidence 2) [E8D459C5] (AR v2)Track 19 accurately ripped (confidence 2) [804C5A51] (AR v2)Track 20 accurately ripped (confidence 2) [54FD5162] (AR v2)Track 21 accurately ripped (confidence 2) [0CD94DCF] (AR v2)Track 22 accurately ripped (confidence 2) [CEE4AE71] (AR v2)Track 23 accurately ripped (confidence 2) [51DE00D3] (AR v2)Track 24 accurately ripped (confidence 2) [98E99AC9] (AR v2)Track 25 accurately ripped (confidence 2) [95B0866E] (AR v2)Track 26 accurately ripped (confidence 2) [13A15EFF] (AR v2)Track 27 accurately ripped (confidence 2) [3992B6BB] (AR v2)Track 28 accurately ripped (confidence 2) [9D493788] (AR v2)

All tracks accurately ripped

End of status report

==== Log checksum 04E0627B8A3E3CE13514B7716DA79FC2F3271A93861462A43B6FE7F291BFF7EF ====
REM GENRE SoundtrackREM DATE 1966REM DISCID B00E8E1CREM COMMENT "ExactAudioCopy v1.0b3"PERFORMER "Peter Thomas Soundorchester"TITLE "Raumpatrouille - The Complete Music"FILE "Peter Thomas Soundorchester - Raumpatrouille - The Complete Music.wav" WAVE TRACK 01 AUDIO TITLE "Space-Patrol (Raumpatrouille)" PERFORMER "Peter Thomas Soundorchester" ISRC DEH429600901 INDEX 01 00:00:00 TRACK 02 AUDIO TITLE "Shub-a-dooe" PERFORMER "Peter Thomas Soundorchester" ISRC DEH429600902 INDEX 00 02:00:18 INDEX 01 02:01:16 TRACK 03 AUDIO TITLE "Lancet Bossa Nova" PERFORMER "Peter Thomas Soundorchester" ISRC DEH429600903 INDEX 00 03:40:48 INDEX 01 03:41:58 TRACK 04 AUDIO TITLE "Love In Space" PERFORMER "Peter Thomas Soundorchester" ISRC DEH429600904 INDEX 00 05:38:36 INDEX 01 05:39:59 TRACK 05 AUDIO TITLE "Ballet" PERFORMER "Peter Thomas Soundorchester" ISRC DEH429600905 INDEX 00 09:07:30 INDEX 01 09:09:06 TRACK 06 AUDIO TITLE "Bolero On The Moon Rocks" PERFORMER "Peter Thomas Soundorchester" ISRC DEH429600906 INDEX 00 10:51:40 INDEX 01 10:52:61 TRACK 07 AUDIO TITLE "Song And Sound The Stars Sound" PERFORMER "Peter Thomas Soundorchester" ISRC DEH429600907 INDEX 00 12:53:31 INDEX 01 12:55:30 TRACK 08 AUDIO TITLE "Landing On The Moon" PERFORMER "Peter Thomas Soundorchester" ISRC DEH429600908 INDEX 00 14:24:57 INDEX 01 14:26:33 TRACK 09 AUDIO TITLE "Piccicato In Heaven" PERFORMER "Peter Thomas Soundorchester" ISRC DEH429600909 INDEX 00 17:33:42 INDEX 01 17:35:39 TRACK 10 AUDIO TITLE "Outside Atmosphere" PERFORMER "Peter Thomas Soundorchester" ISRC DEH429600910 INDEX 00 19:45:18 INDEX 01 19:47:07 TRACK 11 AUDIO TITLE "Take Sex" PERFORMER "Peter Thomas Soundorchester" ISRC DEH429600911 INDEX 00 22:57:25 INDEX 01 22:59:11 TRACK 12 AUDIO TITLE "Jupiter's Pop Music" PERFORMER "Peter Thomas Soundorchester" ISRC DEH429600912 INDEX 00 24:59:22 INDEX 01 25:00:55 TRACK 13 AUDIO TITLE "Sky-Life" PERFORMER "Peter Thomas Soundorchester" ISRC DEH429600913 INDEX 00 28:12:10 INDEX 01 28:14:07 TRACK 14 AUDIO TITLE "Starlight Party" PERFORMER "Peter Thomas Soundorchester" ISRC DEH429600914 INDEX 00 30:12:33 INDEX 01 30:14:40 TRACK 15 AUDIO TITLE "Orion 2000" PERFORMER "Peter Thomas Soundorchester" ISRC DEH429600915 INDEX 00 33:15:72 INDEX 01 33:17:46 TRACK 16 AUDIO TITLE "Danger For The Crew" PERFORMER "Peter Thomas Soundorchester" ISRC DEH429600916 INDEX 00 34:53:57 INDEX 01 34:55:09 TRACK 17 AUDIO TITLE "Position: Overkill" PERFORMER "Peter Thomas Soundorchester" ISRC DEH429600917 INDEX 00 35:51:70 INDEX 01 35:53:65 TRACK 18 AUDIO TITLE "The Space Patrol's Return" PERFORMER "Peter Thomas Soundorchester" ISRC DEH429600918 INDEX 00 38:10:63 INDEX 01 38:12:38 TRACK 19 AUDIO TITLE "Mars Menuet" PERFORMER "Peter Thomas Soundorchester" ISRC DEH420311219 INDEX 00 41:23:45 INDEX 01 41:25:27 TRACK 20 AUDIO TITLE "Enter The Crew" PERFORMER "Peter Thomas Soundorchester" ISRC DEH420311220 INDEX 01 44:29:33 TRACK 21 AUDIO TITLE "Attention: Frogs!" PERFORMER "Peter Thomas Soundorchester" ISRC DEH429031121 INDEX 00 45:56:55 INDEX 01 45:57:08 TRACK 22 AUDIO TITLE "Vision Gamma" PERFORMER "Peter Thomas Soundorchester" ISRC DEH420311222 INDEX 00 47:02:43 INDEX 01 47:03:32 TRACK 23 AUDIO TITLE "Calling Earth" PERFORMER "Peter Thomas Soundorchester" ISRC DEH420311223 INDEX 00 48:00:32 INDEX 01 48:00:49 TRACK 24 AUDIO TITLE "Invasion?" PERFORMER "Peter Thomas Soundorchester" ISRC DEH420311224 INDEX 00 50:34:54 INDEX 01 50:35:47 TRACK 25 AUDIO TITLE "Till The Blue Moon" PERFORMER "Peter Thomas Soundorchester" ISRC DEH420311225 INDEX 00 52:00:60 INDEX 01 52:01:52 TRACK 26 AUDIO TITLE "Sneaky Robots" PERFORMER "Peter Thomas Soundorchester" ISRC DEH420311226 INDEX 00 55:33:12 INDEX 01 55:34:02 TRACK 27 AUDIO TITLE "Last Minute" PERFORMER "Peter Thomas Soundorchester" ISRC DEH420311227 INDEX 00 57:32:18 INDEX 01 57:33:11 TRACK 28 AUDIO TITLE "Lonesome Astronaut" PERFORMER "Peter Thomas Soundorchester" ISRC DEH420311228 INDEX 00 59:24:63 INDEX 01 59:25:19
Original soundtrack of the 1966 television series in 7 parts of the BAVARIA.
Re-released with bonus tracks in 2003 (cinema premiere of Raumpatrouille). Previous CD release in 1996.

Aufgenommen in den Bavaria Tonstudios, München.
Mit freundlicher Genehmigung der Bavaria Sonor GmbH.
Titel 19, 23 & 28 mit freundlicher Genehmigung der Ring Musik GmbH.
Alle Titel verlegt bei Ring Musik.

Composed By, Arranged By, Conductor – Peter Thomas
Cover – Renomierte Grafik Abteilung
Engineer – Hans Endrulat
Liner Notes, Other [Redaktion Bonus Tracks] – Matthias Künnecke


Трекер:  [ 12-Июн-2013 16:31 ]

  

Скачать .torrent

Размер .torrent файла 16 KB


Размер: 376 MB
Хэш (hash) релиза: 94f4d2245af6714b6ce24ee8e6abe625f2b415ef

bot

Топик был перенесен в форум Саундтреки к фильмам и мультфильмам (lossless)

Перенес Galfimbul

Хотите добавить комментарий к записи скачать торрент Космический патруль Raumpatrouille

!Обратная связь