Скачать через торрент Сначала 3 D.C.III: Da Capo III бесплатно Аниме Все серии на русском torrent

Если у вас наблюдаются проблемы со скриншотами, переходом по ссылками, скачиванием торрентов - проблемы в блокировщике рекламы AdBlock. #хорошегоДня!


Статистика раздачи
Размер:  1.2 GB   |    Зарегистрирован:  4 года 8 месяцев   |    .torrent скачан:  8 раз   |   
Раздают:  1  
   
Загрузка...
 
Автор Сообщение

Galfimbul

avatar Galfimbul



Год выпуска: 2013
Страна: Япония
Жанр: романтика, этти, школа
Продолжительность: 13 эп. по 25 мин.
Перевод:

русские субтитры от YakuSub Studio
редакторы: Helge, kuro, переводчики: Nika_Elrik, Teffycom, zverstal
Озвучка:

одноголосая (муж.) от Keita (Anidub)
Режиссер: Исикура Кэнъити
Студия: Circus
Описание:
Летят годы, идут десятилетия, а жизнь на райском острове Хацунэ не меняется, и XXI век внешне неотличим от века прошлого. Вот только вечноцветущие деревья остались в легендах, что передаются из поколения в поколение. И, конечно же, в каждом поколении находятся неисправимые романтики, что силой своей души способны творить обыкновенные чудеса. В недалеком будущем такие собрались в клубе журналистики академии Кадзами, который возглавляет красавица Рикка Моридзоно. Чтобы окончательно разобраться с наглым Сугинами, редактором неофициальной газеты, Рикка задумала выпустить убойный последний номер учебного года, главной темой которого будет… магия!

Ради вдохновения клуб в полном составе отправился на ночную прогулку к Вечной Сакуре, известной на острове любому ребенку. В местных легендах она исполняет желания, если стремления человека искренни и идут от сердца. Стоит ли удивляться, что увядшее дерево расцвело вновь - ведь среди главных героинь оказался единственный парень по имени Киётака Ёсино! Чего он пожелал, как оно исполнилось и при чем тут его знаменитая родственница, она же тезка чудо-дерева – вы узнаете, посмотрев сериал. Главное, помните, что время не властно над героями этой истории, и в ней рано или поздно все возвращается на круги своя!
© Hollow, World Art
Информационные ссылки: AniDB || World Art || MAL
Качество: BDRip
Энкод: Winter - RG Pantheon
Тип видео: без хардсаба
Формат: mkv
Видео: x264 (Hi10p), 1280x720, ~2800 Kbps, 23.976fps
Аудио JAP: Vorbis, 48000Hz, ~256 Kbps, 2ch
Аудио RUS: AC3, 48000Hz, 192 Kbps, 2ch
01. Cherry Blossoms Bloom
02. A Warm Place
Общее
Уникальный идентификатор : 189772566110157209988802297475463447823 (0x8EC4DDE49AB7C80789E615FB50C1050F)
Полное имя : Z:\Anime\720p\Da Capo III [BD] [720p]\[Winter] Da Capo III 01 [BDrip 1280x720 x264 Vorbis].mkv
Формат : Matroska
Версия формата : Version 2
Размер файла : 544 Мбайт
Продолжительность : 23 м.
Режим общего битрейта : Переменный
Общий поток : 3214 Кбит/сек
Дата кодирования : UTC 2013-03-26 14:35:16
Программа кодирования : mkvmerge v2.9.8 (''C''est le bon'') built on Aug 13 2009 12:49:06
Библиотека кодирования : libebml v0.7.7 + libmatroska v0.8.1

Видео
Идентификатор : 1
Формат : AVC
Формат/Информация : Advanced Video Codec
Профиль формата : High 10@L4.1
Параметр CABAC формата : Да
Параметр ReFrames формата : 9 кадров
Идентификатор кодека : V_MPEG4/ISO/AVC
Продолжительность : 23 м.
Битрейт : 2894 Кбит/сек
Ширина : 1280 пикселей
Высота : 720 пикселей
Соотношение сторон : 16:9
Режим частоты кадров : Постоянный
Частота кадров : 23,976 кадра/сек
Цветовое пространство : YUV
Субдискретизация насыщенности : 4:2:0
Битовая глубина : 10 бит
Тип развёртки : Прогрессивная
Бит/(Пиксели*Кадры) : 0.131
Размер потока : 490 Мбайт (90%)
Библиотека кодирования : x264 core 125 r2200 999b753
Настройки программы : cabac=1 / ref=9 / deblock=1:-2:-2 / analyse=0x3:0x133 / me=umh / subme=9 / psy=1 / psy_rd=0.90:0.00 / mixed_ref=1 / me_range=24 / chroma_me=1 / trellis=2 / 8x8dct=1 / cqm=0 / deadzone=21,11 / fast_pskip=1 / chroma_qp_offset=-2 / threads=6 / lookahead_threads=1 / sliced_threads=0 / nr=0 / decimate=0 / interlaced=0 / bluray_compat=0 / constrained_intra=0 / bframes=8 / b_pyramid=2 / b_adapt=2 / b_bias=0 / direct=1 / weightb=1 / open_gop=0 / weightp=2 / keyint=250 / keyint_min=23 / scenecut=40 / intra_refresh=0 / rc=crf / mbtree=0 / crf=15.8 / qcomp=0.70 / qpmin=9 / qpmax=40 / qpstep=4 / ip_ratio=1.40 / pb_ratio=1.30 / aq=1:0.90
Default : Нет
Forced : Нет

Аудио
Идентификатор : 2
Формат : Vorbis
Параметр Floor формата : 1
Идентификатор кодека : A_VORBIS
Продолжительность : 23 м.
Вид битрейта : Переменный
Битрейт : 256 Кбит/сек
Каналы : 2 канала
Частота : 48,0 КГц
Метод сжатия : С потерями
Размер потока : 43,4 Мбайт (8%)
Библиотека кодирования : libVorbis (Omnipresent) (20120203 (Omnipresent))
Язык : Japanese
Default : Да
Forced : Нет




Трекер:  [ 27-Мар-2013 18:27 ]

  

Скачать .torrent

Размер .torrent файла 13 KB


Размер: 1.2 GB
Хэш (hash) релиза: 31440bebd38b5bdfa04ffee2289c76efdaf16755
Подписка на обновления:

Еще никто не оставлял запись к записи скачать торрент Сначала 3 D.C.III: Da Capo III . Будь первым!

!Обратная связь