Скачать через торрент музыку Война Динозавров D-War бесплатно без регистрации torrent

Если у вас наблюдаются проблемы со скриншотами, переходом по ссылками, скачиванием торрентов - проблемы в блокировщике рекламы AdBlock. #хорошегоДня!


Статистика раздачи
Размер:  265 MB   |    Зарегистрирован:  4 года 6 месяцев   |    .torrent скачан:  26 раз   |   
Раздают:  1  
   
Загрузка...
 
Автор Сообщение

Galfimbul

avatar Galfimbul


Война Динозавров / D-War / Dragon Wars







Жанр: Score
Композитор: Steve Jablonsky
Год Выпуска Диска: 2007
Год Выпуска Фильма: 2007
Страна Производителя Диска: South Korea
Издатель (Лейбл): Milan/Sony BMG
Номер по каталогу: SB90109C



Аудиокодек: WV
Тип рипа: image+.cue
Продолжительность: 00:46:35



Источник: eMule.
Наличие сканов в содержимом раздачи: Да.



Треклист:
1. Immogi [02:19]
2. The Legend Awakes [05:57]
3. Village Attack [05:40]
4. Love Theme [01:40]
5. Yeouijoo [02:57]
6. General And His Army [01:00]
7. Second Life [01:18]
8. Destiny [02:55]
9. Battle In The Sky [02:24]
10. Hypnosis And Flashback [02:32]
11. Cafe Attack [01:58]
12. Rooftop Showdown [02:31]
13. The Altar [02:22]
14. Buraki [02:52]
15. D-War [02:01]
16. Farewell [02:41]
17. Arirang [03:16]
EAC extraction logfile from 17. September 2007, 17:43 for CDSteve Jablonsky / D-War

Used drive : SONY DVD RW DRU-830A Adapter: 0 ID: 1Read mode : Secure with NO C2, accurate stream, disable cacheRead offset correction : 6Overread into Lead-In and Lead-Out : No

Used output format : Internal WAV Routines 44.100 Hz; 16 Bit; Stereo

Other options : Fill up missing offset samples with silence : Yes Delete leading and trailing silent blocks : No Installed external ASPI interface

Range status and errorsSelected range Filename D:\[Major Motoko - HQShare.Net]\D-War.wav

Peak level 95.4 % Range quality 100.0 % CRC D5B34AE6 Copy OK

No errors occured

End of status report
REM GENRE ScoreREM DATE 2007REM DISCID E20AE911REM COMMENT "ExactAudioCopy v0.95b4"PERFORMER "Steve Jablonsky"TITLE "D-War"FILE "D-War.wv" WAVE TRACK 01 AUDIO TITLE "Imoogi" PERFORMER "Steve Jablonsky" INDEX 01 00:00:00 TRACK 02 AUDIO TITLE "The Legend Awakes" PERFORMER "Steve Jablonsky" INDEX 01 02:19:43 TRACK 03 AUDIO TITLE "Village Attack" PERFORMER "Steve Jablonsky" INDEX 01 08:17:33 TRACK 04 AUDIO TITLE "Love Theme" PERFORMER "Steve Jablonsky" INDEX 01 13:58:19 TRACK 05 AUDIO TITLE "Yeouijoo" PERFORMER "Steve Jablonsky" INDEX 01 15:38:55 TRACK 06 AUDIO TITLE "General and His Army" PERFORMER "Steve Jablonsky" INDEX 01 18:35:59 TRACK 07 AUDIO TITLE "Second Life" PERFORMER "Steve Jablonsky" INDEX 01 19:36:42 TRACK 08 AUDIO TITLE "Destiny" PERFORMER "Steve Jablonsky" INDEX 01 20:55:19 TRACK 09 AUDIO TITLE "Battle In The Sky" PERFORMER "Steve Jablonsky" INDEX 01 23:51:18 TRACK 10 AUDIO TITLE "Hypnosis and Flashback" PERFORMER "Steve Jablonsky" INDEX 01 26:15:65 TRACK 11 AUDIO TITLE "Cafe Attack" PERFORMER "Steve Jablonsky" INDEX 01 28:48:41 TRACK 12 AUDIO TITLE "Rooftop Showdown" PERFORMER "Steve Jablonsky" INDEX 01 30:47:13 TRACK 13 AUDIO TITLE "The Altar" PERFORMER "Steve Jablonsky" INDEX 01 33:19:08 TRACK 14 AUDIO TITLE "Buraki" PERFORMER "Steve Jablonsky" INDEX 01 35:41:70 TRACK 15 AUDIO TITLE "D-War" PERFORMER "Steve Jablonsky" INDEX 01 38:34:12 TRACK 16 AUDIO TITLE "Farewell" PERFORMER "Steve Jablonsky" INDEX 01 40:35:64 TRACK 17 AUDIO TITLE "Arirang" PERFORMER "Steve Jablonsky" INDEX 01 43:16:72







Трекер:  [ 12-Июн-2013 16:30 ]

  

Скачать .torrent

Размер .torrent файла 11 KB


Размер: 265 MB
Хэш (hash) релиза: 640adb149f7b31c87b98919b37bb91f94ae671b5

bot

Топик был перенесен в форум Саундтреки к фильмам и мультфильмам (lossless)

Перенес Galfimbul

Хотите добавить комментарий к записи скачать торрент Война Динозавров D-War

!Обратная связь