Скачать через торрент Искусство Меча Онлайн Мастера Меча Онлайн бесплатно Аниме Все серии на русском torrent

Если у вас наблюдаются проблемы со скриншотами, переходом по ссылками, скачиванием торрентов - проблемы в блокировщике рекламы AdBlock. #хорошегоДня!


Статистика раздачи
Размер:  8.96 GB   |    Зарегистрирован:  4 года 8 месяцев   |    .torrent скачан:  75 раз   |   
Раздают:  1  
   
Загрузка...
 
Автор Сообщение

L



Страна: Япония
Год выпуска: 2012 г.
Жанр: приключения, фэнтези.
Тип: TV
Продолжительность: (25 эп.), 25 мин.
Перевод:

от HR + Stan WarHammer(1-13)
от AniSense(14-25)
Озвучка:

двухголосая(жен./муж.) от Lee-Ann & Moonslayer (AniSense) Семпл
Режиссер: Ито Томохико.
Студия:
Описание: В начале XXI века случилась ожидаемая сенсация – некий японский гений создал ролевую игру с абсолютной виртуальной реальностью. Неудивительно, что «Искусство меча онлайн» обрело бешеную популярность, и 10 тысяч счастливчиков, кому достался первый тираж, в назначенный день и час разом оказались в игровом мире, собравшись в Городе Начал. Тут лукавый создатель, явившийся в виде огромной тени, и огорошил клиентов – оказывается, он задумал эксперимент, и выйти из виртуала можно, лишь когда кто-то пройдет игру до конца! Гибель в игре означает смерть в реальном мире, работать надо на полном серьезе – с этими словами злой гений удалился, а собравшиеся быстро поняли, что он прав.

Незадачливые игроки отреагировали по-разному: кто впал в отчаяние, кто стал сбиваться в группы, а кто-то решил жить сам по себе. В число последних попал и Кирито – сирота, который ничего не потерял. Более того, будучи бета-тестером и опытным игроком, Кирито быстро продвинулся, обретя славу как Черный Мечник. С одной стороны, парень сторонился общения, не желая больше заводить и терять близких; с другой – жить в игре и быть свободным от людей нельзя, особенно от таких, как красавица Асуна по прозвищу Вспышка! В общем, пока что Кирито, Асуна, другие герои и злодеи воюют на переднем крае, а мы верим, что они пройдут не только «Искусство меча», но и еще много интересных игр и миров!
© Hollow, World Art.
Качество: HDTVRip
Энкод: Leopard-Raws/Zero-Raws
Тип релиза: Без хардсаба
Формат видео: MP4
Видео: MPEG4 Video (H264) 1280x720 ~1713/1500 Kbps ~23.98fps(переменный фреймрейт) 8 bit
Аудио RUS: AAC/AC3, Stereo, 44.1 KHz, 256/192 kb/s (в составе контейнера)
Аудио JAP: AAC, Stereo, 48 KHz, 160/216 kb/s (в составе контейнера)
Релиз от: AniSense
General
Complete name : D:\Net Файлы\Sword Art Online [ТВ]\[Lee-Ann and Moonslayer] Sword Art Online - 20.mp4
Format : MPEG-4
Format profile : Base Media
Codec ID : isom
File size : 366 MiB
Duration : 23mn 59s
Overall bit rate mode : Variable
Overall bit rate : 2 134 Kbps
Encoded date : UTC 2012-11-17 22:56:47
Tagged date : UTC 2012-11-17 22:56:47
Writing application : Yamb 2.1.0.0 [http://yamb.unite-video.com]

Video
ID : 1
Format : AVC
Format/Info : Advanced Video Codec
Format profile : High@L4.0
Format settings, CABAC : Yes
Format settings, ReFrames : 3 frames
Codec ID : avc1
Codec ID/Info : Advanced Video Coding
Duration : 23mn 59s
Bit rate : 1 713 Kbps
Maximum bit rate : 12.6 Mbps
Width : 1 280 pixels
Height : 720 pixels
Display aspect ratio : 16:9
Frame rate mode : Variable
Frame rate : 24.464 fps
Original frame rate : 23.976 fps
Minimum frame rate : 23.976 fps
Maximum frame rate : 119.880 fps
Color space : YUV
Chroma subsampling : 4:2:0
Bit depth : 8 bits
Scan type : Progressive
Bits/(Pixel*Frame) : 0.076
Stream size : 294 MiB (80%)
Writing library : x264 core 75 r1246 5b3c89c
Encoding settings : cabac=1 / ref=3 / deblock=1:-2:-2 / analyse=0x3:0x133 / me=umh / subme=9 / psy=1 / psy_rd=0.5:0.0 / mixed_ref=1 / me_range=32 / chroma_me=1 / trellis=2 / 8x8dct=1 / cqm=0 / deadzone=21,11 / chroma_qp_offset=-2 / threads=6 / nr=0 / decimate=1 / mbaff=0 / bframes=2 / b_pyramid=0 / b_adapt=2 / b_bias=0 / direct=3 / wpredb=1 / keyint=240 / keyint_min=1 / scenecut=40 / rc_lookahead=36 / rc=crf / mbtree=1 / crf=19.0 / qcomp=0.60 / qpmin=10 / qpmax=51 / qpstep=8 / ip_ratio=1.40 / aq=1:1.00
Encoded date : UTC 2012-11-16 19:02:53
Tagged date : UTC 2012-11-17 22:56:51

Audio #1
ID : 2
Format : AAC
Format/Info : Advanced Audio Codec
Format profile : LC
Codec ID : 40
Duration : 23mn 59s
Bit rate mode : Variable
Bit rate : 256 Kbps
Maximum bit rate : 267 Kbps
Channel(s) : 2 channels
Channel positions : Front: L R
Sampling rate : 44.1 KHz
Compression mode : Lossy
Stream size : 43.9 MiB (12%)
Title : Lee-Ann & Moonslayer
Language : Russian
Encoded date : UTC 2012-11-17 22:56:49
Tagged date : UTC 2012-11-17 22:56:51

Audio #2
ID : 3
Format : AAC
Format/Info : Advanced Audio Codec
Format profile : LC
Codec ID : 40
Duration : 23mn 59s
Bit rate mode : Variable
Bit rate : 160 Kbps
Maximum bit rate : 194 Kbps
Channel(s) : 2 channels
Channel positions : Front: L R
Sampling rate : 48.0 KHz
Compression mode : Lossy
Stream size : 27.4 MiB (7%)
Title : Original
Language : Japanese
Encoded date : UTC 2012-11-17 22:56:50
Tagged date : UTC 2012-11-17 22:56:51
1. Мир Клинков
2. Битер
3. Красноносый олень
4. Чёрный мечник
5. Происшествие в безопасной зоне
6. Призрачный мститель
7. Тепло сердца
8. Танец чёрного и белого
9. Голубоглазый демон
10. Алая жажда крови
11. Девочка утренней росы
12. Сердце Юи
13. Глубины ада
14. Падение мира
15. Возвращение
16. Королевство Фей
17. Пленённая королева
18. К Древу Мира
19. Коридор Ругера
20. Огненный Генерал
21. Правда об Альвхейме
22. Главный Квест
23. Узы
24. Самопровозглашённый Герой
25. Семя Мира


Трекер:  [ 30-Мар-2013 19:17 ]

  

Скачать .torrent

Размер .torrent файла 27 KB


Размер: 8.96 GB
Хэш (hash) релиза: 14e7a1099b5f1264a94a59cfc8b6a58d6a5ba480
Подписка на обновления:

Торренты, похожие на Искусство Меча Онлайн Мастера Меча Онлайн скачать торрент

Форум Название Автор Размер S L Добавлен
Аниме | HD Rips ·· Мастера меча онлайн / Sword Art Online / Искусство меча онлайн [TV] [01-25 из 25] [Без хардсаба] [RUS(int), JAP, SUB] [2012 г., приключения, HDTVRip] [720p] L 91352109498.51 GB 0 0 1364660290

19:18

30-Мар-13

Аниме | Rips ·· Искусство Меча Онлайн 2 / Мастера меча онлайн II / Sword Art Online II (Ито Томохико) [TV+Special] [24+1 из 24+1] [Без хардсаба] [RUS(int), JAP, SUB] [2014 г., Приключения, фэнтези, романтика, драма, WEBRip] [720p] Galfimbul 92950860688.66 GB 0 0 1419896731

02:45

30-Дек-14

Аниме | Rips ·· Искусство Меча Онлайн 2 / Мастера меча онлайн II / Sword Art Online II (Ито Томохико) [TV] [6 из >24] [Без хардсаба] [RUS(int), JAP, SUB] [2014 г., Приключения, фэнтези, романтика, драма, HDTVRip] [720p] Galfimbul 24996581292.33 GB 0 0 1409056051

15:27

26-Авг-14

Аниме | Rips ·· Искусство Меча Онлайн 2 / Мастера меча онлайн II / Sword Art Online II (Ито Томохико) [TV] [8 из >24] [Без хардсаба] [RUS(int), JAP, SUB] [2014 г., приключения, фэнтези, WEBRip] [720p] Galfimbul 29706135602.77 GB 0 0 1409055955

15:25

26-Авг-14

Аниме | Rips ·· Мастера Меча Онлайн: Послесловие / Sword Art Online: Extra Edition / Искусство Меча Онлайн: Экстра-издание [Special] [1 из 1] [Без хардсаба] [RUS(int), JAP, SUB] [2013 г., приключения, фэнтези, BDRip] [720p] [HD] Galfimbul 15070438931.4 GB 0 0 1409055823

15:23

26-Авг-14

Аниме | Rips ·· Мастера меча онлайн II / Sword Art Online II / Искусство Меча Онлайн 2 [TV] [01-03 из 24] [Без хардсаба] [RUS(int), JAP, SUB] [2014 г., приключения, фэнтези, HDTVRip] [720p] [HD] Galfimbul 13431706341.25 GB 0 0 1409055704

15:21

26-Авг-14

Еще никто не оставлял запись к записи скачать торрент Искусство Меча Онлайн Мастера Меча Онлайн . Будь первым!

!Обратная связь