Скачать через торрент музыку Баффало 66 Buffalo 66 бесплатно без регистрации torrent

Если у вас наблюдаются проблемы со скриншотами, переходом по ссылками, скачиванием торрентов - проблемы в блокировщике рекламы AdBlock. #хорошегоДня!


Статистика раздачи
Размер:  225 MB   |    Зарегистрирован:  4 года 6 месяцев   |    .torrent скачан:  25 раз   |   
Раздают:  1  
   
Загрузка...
 
Автор Сообщение

Galfimbul

avatar Galfimbul


Баффало 66 / Buffalo ''66

Жанр: Soundtrack / Score
Композитор: Vincent Gallo & VA
Год выпуска диска: 1998
Издатель (лейбл): Lakeshore Records / LKS 33653
Аудиокодек: FLAC (*.flac)
Тип рипа: tracks+.cue
Битрейт аудио: lossless
Продолжительность: 43:33.307
Источник: what.cd
Наличие сканов в содержимом раздачи: да

Треклист:
01. Vincent Gallo - Lonely Boy (2:02)
02. Vincent Gallo - A Falling Down Billy Brown (2:02)
03. Vincent Gallo Sr. - Fools Rush In (2:54)
04. King Crimson - Moonchild (2:29)
05. Vincent Gallo - Drowning in Brown (2:20)
06. Vincent Gallo - A Somewhere Place (3:22)
07. Vincent Gallo - A Wet Cleaner (3:02)
08. Vincent Gallo - Sixteen Seconds Happy (1:15)
09. Stan Getz - I Remember When (3:00)
10. Vincent Gallo - With Smiles & Smiles & Smiles (2:42)
11. Yes - Heart of the Sunrise (10:36)
12. Yes - Sweetness (4:31)
13. Vincent Gallo - A Cold & Grey Summer Day (3:19)
Exact Audio Copy V0.99 prebeta 5 from 4. May 2009

EAC extraction logfile from 20. February 2010, 20:02

Various / Buffalo 66

Used drive : HL-DT-STBD-RE GGW-H20L Adapter: 3 ID: 0

Read mode : SecureUtilize accurate stream : YesDefeat audio cache : YesMake use of C2 pointers : No

Read offset correction : 667Overread into Lead-In and Lead-Out : NoFill up missing offset samples with silence : YesDelete leading and trailing silent blocks : NoNull samples used in CRC calculations : YesUsed interface : Native Win32 interface for Win NT & 2000Gap handling : Appended to previous track

Used output format : User Defined EncoderSelected bitrate : 768 kBit/sQuality : HighAdd ID3 tag : NoCommand line compressor : C:\Program Files\Exact Audio Copy\FLAC\FLAC.EXEAdditional command line options : -V -8 -T "artist=%a" -T "title=%t" -T "album=%g" -T "date=%y" -T "tracknumber=%n" -T "genre=%m" %s

TOC of the extracted CD

Track | Start | Length | Start sector | End sector --------------------------------------------------------- 1 | 0:00.00 | 2:01.74 | 0 | 9148 2 | 2:01.74 | 2:02.07 | 9149 | 18305 3 | 4:04.06 | 2:53.42 | 18306 | 31322 4 | 6:57.48 | 2:28.74 | 31323 | 42496 5 | 9:26.47 | 2:20.16 | 42497 | 53012 6 | 11:46.63 | 3:22.12 | 53013 | 68174 7 | 15:09.00 | 3:02.00 | 68175 | 81824 8 | 18:11.00 | 1:14.49 | 81825 | 87423 9 | 19:25.49 | 2:59.67 | 87424 | 100915 10 | 22:25.41 | 2:41.45 | 100916 | 113035 11 | 25:07.11 | 10:36.04 | 113036 | 160739 12 | 35:43.15 | 4:30.61 | 160740 | 181050 13 | 40:14.01 | 3:19.22 | 181051 | 195997

Track 1

Filename D:\EACRips\01 - Vincent Gallo - Lonely Boy.wav

Pre-gap length 0:00:02.00

Peak level 100.0 % Track quality 100.0 % Test CRC 81BEEEC2 Copy CRC 81BEEEC2 Cannot be verified as accurate (confidence 5) [FB53D97F], AccurateRip returned [60D95C95] Copy OK

Track 2

Filename D:\EACRips\02 - Vincent Gallo - A Falling Down Billy Brown.wav

Pre-gap length 0:00:02.05

Peak level 100.0 % Track quality 100.0 % Test CRC CE891C5B Copy CRC CE891C5B Cannot be verified as accurate (confidence 5) [FAF1CD88], AccurateRip returned [C8E4A325] Copy OK

Track 3

Filename D:\EACRips\03 - Vincent Gallo Sr. - Fools Rush In.wav

Pre-gap length 0:00:00.60

Peak level 100.0 % Track quality 100.0 % Test CRC 64B43A37 Copy CRC 64B43A37 Cannot be verified as accurate (confidence 5) [5FFF5FA4], AccurateRip returned [57A56A38] Copy OK

Track 4

Filename D:\EACRips\04 - King Crimson - Moonchild.wav

Pre-gap length 0:00:01.60

Peak level 100.0 % Track quality 100.0 % Test CRC A9C67354 Copy CRC A9C67354 Cannot be verified as accurate (confidence 5) [4165ECCA], AccurateRip returned [1A6DC72B] Copy OK

Track 5

Filename D:\EACRips\05 - Vincent Gallo - Drowning in Brown.wav

Pre-gap length 0:00:01.60

Peak level 100.0 % Track quality 100.0 % Test CRC 913E278E Copy CRC 913E278E Cannot be verified as accurate (confidence 5) [FAAFFEE2], AccurateRip returned [269515A8] Copy OK

Track 6

Filename D:\EACRips\06 - Vincent Gallo - A Somewhere Place.wav

Pre-gap length 0:00:00.60

Peak level 100.0 % Track quality 100.0 % Test CRC 889557EA Copy CRC 889557EA Cannot be verified as accurate (confidence 5) [F386ADE1], AccurateRip returned [7074458B] Copy OK

Track 7

Filename D:\EACRips\07 - Vincent Gallo - A Wet Cleaner.wav

Pre-gap length 0:00:00.10

Peak level 100.0 % Track quality 100.0 % Test CRC 01210E9A Copy CRC 01210E9A Cannot be verified as accurate (confidence 5) [C60EACDC], AccurateRip returned [C36F16D3] Copy OK

Track 8

Filename D:\EACRips\08 - Vincent Gallo - Sixteen Seconds Happy.wav

Pre-gap length 0:00:00.77

Peak level 70.5 % Track quality 100.0 % Test CRC 39A3AAA1 Copy CRC 39A3AAA1 Cannot be verified as accurate (confidence 5) [C653C103], AccurateRip returned [93B12461] Copy OK

Track 9

Filename D:\EACRips\09 - Stan Getz - I Remember When.wav

Pre-gap length 0:00:01.60

Peak level 100.0 % Track quality 100.0 % Test CRC A0EE9CE0 Copy CRC A0EE9CE0 Cannot be verified as accurate (confidence 5) [9CFF4DE2], AccurateRip returned [7ACD7272] Copy OK

Track 10

Filename D:\EACRips\10 - Vincent Gallo - With Smiles & Smiles & Smiles.wav

Pre-gap length 0:00:01.60

Peak level 100.0 % Track quality 100.0 % Test CRC 35B3D7B2 Copy CRC 35B3D7B2 Cannot be verified as accurate (confidence 5) [6C7EFCA4], AccurateRip returned [E842D353] Copy OK

Track 11

Filename D:\EACRips\11 - Yes - Heart of the Sunrise.wav

Pre-gap length 0:00:01.60

Peak level 100.0 % Track quality 100.0 % Test CRC EB441BDB Copy CRC EB441BDB Cannot be verified as accurate (confidence 5) [87A72078], AccurateRip returned [FEBEE979] Copy OK

Track 12

Filename D:\EACRips\12 - Yes - Sweetness.wav

Pre-gap length 0:00:02.18

Peak level 100.0 % Track quality 100.0 % Test CRC 0049CA4A Copy CRC 0049CA4A Cannot be verified as accurate (confidence 5) [AFBDF2C0], AccurateRip returned [554A647F] Copy OK

Track 13

Filename D:\EACRips\13 - Vincent Gallo - A Cold & Grey Summer Day.wav

Pre-gap length 0:00:00.58

Peak level 100.0 % Track quality 100.0 % Test CRC AE62411F Copy CRC AE62411F Cannot be verified as accurate (confidence 5) [DB00FEB8], AccurateRip returned [15570B0B] Copy OK

No tracks could be verified as accurateYou may have a different pressing from the one(s) in the database

No errors occurred

End of status report
REM GENRE SoundtrackREM DATE 1999REM DISCID A20A350DREM COMMENT "ExactAudioCopy v0.99pb5"PERFORMER "Various"TITLE "Buffalo 66"FILE "01 - Vincent Gallo - Lonely Boy.wav" WAVE TRACK 01 AUDIO TITLE "Lonely Boy" PERFORMER "Vincent Gallo" INDEX 01 00:00:00 TRACK 02 AUDIO TITLE "A Falling Down Billy Brown" PERFORMER "Vincent Gallo" INDEX 00 01:59:70FILE "02 - Vincent Gallo - A Falling Down Billy Brown.wav" WAVE INDEX 01 00:00:00 TRACK 03 AUDIO TITLE "Fools Rush In" PERFORMER "Vincent Gallo Sr." INDEX 00 02:01:37FILE "03 - Vincent Gallo Sr. - Fools Rush In.wav" WAVE INDEX 01 00:00:00 TRACK 04 AUDIO TITLE "Moonchild" PERFORMER "King Crimson" INDEX 00 02:51:72FILE "04 - King Crimson - Moonchild.wav" WAVE INDEX 01 00:00:00 TRACK 05 AUDIO TITLE "Drowning in Brown" PERFORMER "Vincent Gallo" INDEX 00 02:27:29FILE "05 - Vincent Gallo - Drowning in Brown.wav" WAVE INDEX 01 00:00:00 TRACK 06 AUDIO TITLE "A Somewhere Place" PERFORMER "Vincent Gallo" INDEX 00 02:19:46FILE "06 - Vincent Gallo - A Somewhere Place.wav" WAVE INDEX 01 00:00:00 TRACK 07 AUDIO TITLE "A Wet Cleaner" PERFORMER "Vincent Gallo" INDEX 00 03:22:04FILE "07 - Vincent Gallo - A Wet Cleaner.wav" WAVE INDEX 01 00:00:00 TRACK 08 AUDIO TITLE "Sixteen Seconds Happy" PERFORMER "Vincent Gallo" INDEX 00 03:01:17FILE "08 - Vincent Gallo - Sixteen Seconds Happy.wav" WAVE INDEX 01 00:00:00 TRACK 09 AUDIO TITLE "I Remember When" PERFORMER "Stan Getz" INDEX 00 01:13:04FILE "09 - Stan Getz - I Remember When.wav" WAVE INDEX 01 00:00:00 TRACK 10 AUDIO TITLE "With Smiles & Smiles & Smiles" PERFORMER "Vincent Gallo" INDEX 00 02:58:22FILE "10 - Vincent Gallo - With Smiles & Smiles & Smiles.wav" WAVE INDEX 01 00:00:00 TRACK 11 AUDIO TITLE "Heart of the Sunrise" PERFORMER "Yes" INDEX 00 02:40:00FILE "11 - Yes - Heart of the Sunrise.wav" WAVE INDEX 01 00:00:00 TRACK 12 AUDIO TITLE "Sweetness" PERFORMER "Yes" INDEX 00 10:33:65FILE "12 - Yes - Sweetness.wav" WAVE INDEX 01 00:00:00 TRACK 13 AUDIO TITLE "A Cold & Grey Summer Day" PERFORMER "Vincent Gallo" INDEX 00 04:30:17FILE "13 - Vincent Gallo - A Cold & Grey Summer Day.wav" WAVE INDEX 01 00:00:00
-----------------------

DON''T MODIFY THIS FILE

-----------------------

PERFORMER: auCDtect Task Manager, ver. 1.5.1RC6 build 1.5.1.7Copyright (c) 2008-2010 y-soft. All rights reservedhttp://y-soft.org

ANALYZER: auCDtect: CD records authenticity detector, version 0.8.2Copyright (c) 2004 Oleg Berngardt. All rights reserved.Copyright (c) 2004 Alexander Djourik. All rights reserved.

FILE: 07 - Vincent Gallo - A Wet Cleaner.flac Size: 13456010 Hash: 2F4A7090DCC826776564C85985D70FF2 Accuracy: -m0 Conclusion: CDDA 100% Signature: 665191202A9DF20FAE76E59E8F5FDFCD1996A806FILE: 06 - Vincent Gallo - A Somewhere Place.flac Size: 14364873 Hash: 6F56F26BA96AFB42568943BDC3ED6892 Accuracy: -m0 Conclusion: CDDA 100% Signature: C22BBD60D4BBB99356DEB2B8E512FCD873381C83FILE: 05 - Vincent Gallo - Drowning in Brown.flac Size: 12721499 Hash: 06C13DD97262F1D3B80EE79930A048CE Accuracy: -m0 Conclusion: CDDA 100% Signature: 1A5D878A155227852EEB8BD3ED8590CC807752ECFILE: 04 - King Crimson - Moonchild.flac Size: 13736080 Hash: 4FE6517C881B9F1F12C41FAC303D0F2E Accuracy: -m0 Conclusion: CDDA 99% Signature: 738D5407A80AFA310E51A3B1A59DC55583397E2FFILE: 03 - Vincent Gallo Sr. - Fools Rush In.flac Size: 15912445 Hash: E98985CCEB688C5CB0B98451C0AEA690 Accuracy: -m0 Conclusion: CDDA 100% Signature: 5F39D0154B5F9980C16A86190386C7DC60D6A58BFILE: 02 - Vincent Gallo - A Falling Down Billy Brown.flac Size: 8893223 Hash: E7BB46C6D6145B40649941266CFF7488 Accuracy: -m0 Conclusion: CDDA 100% Signature: B6102C1D8D0F58735D2B61E92EAEDC08504759E7FILE: 01 - Vincent Gallo - Lonely Boy.flac Size: 9310276 Hash: 9469EAFB69B495C0DD05681ECE33B6FB Accuracy: -m0 Conclusion: CDDA 100% Signature: 54384110C690C05777AB706B60059E86ADE68ECBFILE: 11 - Yes - Heart of the Sunrise.flac Size: 69547344 Hash: 8347469AE95EFA4D0B3D63B9A916D7CF Accuracy: -m0 Conclusion: CDDA 100% Signature: 575350597D391A966C7D0CCB9D86DBB45D2D05EBFILE: 10 - Vincent Gallo - With Smiles & Smiles & Smiles.flac Size: 10959499 Hash: 26E9ACB21D7CD077B85ECA9FFC47E89A Accuracy: -m0 Conclusion: CDDA 87% Signature: 6D46D7AD142E254DF48EC182D6F3B19ABC233B18FILE: 09 - Stan Getz - I Remember When.flac Size: 9765626 Hash: DBE970E23FDCB0F52590EF53E4DE3C66 Accuracy: -m0 Conclusion: CDDA 99% Signature: FD67444D5E95A36AE35BC1B42854EB977DBFF0BCFILE: 08 - Vincent Gallo - Sixteen Seconds Happy.flac Size: 6071222 Hash: BD0A4D35FF708D3CB93038D9E8D5957F Accuracy: -m0 Conclusion: CDDA 100% Signature: E3A6CD37A3881F70ED943BA82E3FCFA1E41EC9F3


Трекер:  [ 12-Июн-2013 16:30 ]

  

Скачать .torrent

Размер .torrent файла 3 KB


Размер: 225 MB
Хэш (hash) релиза: ed1b72699c935cf1ba30df346d2b3fab367233e0

Торренты, похожие на Баффало 66 Buffalo 66 скачать торрент

Форум Название Автор Размер S L Добавлен
Саундтреки к фильмам и мультфильмам (mp3) ·· [Soundtrack] Баффало 66|Buffalo '66 [1998] MP3|320 kbps Galfimbul 105374068100 MB 0 0 1458841525

20:45

24-Мар-16

bot

Топик был перенесен в форум Саундтреки к фильмам и мультфильмам (lossless)

Перенес Galfimbul

Хотите добавить комментарий к записи скачать торрент Баффало 66 Buffalo 66

!Обратная связь