Скачать через торрент Рандеву с Жизнью Date a Live бесплатно Аниме Все серии на русском torrent

Если у вас наблюдаются проблемы со скриншотами, переходом по ссылками, скачиванием торрентов - проблемы в блокировщике рекламы AdBlock. #хорошегоДня!


Статистика раздачи
Размер:  409 MB   |    Зарегистрирован:  4 года 8 месяцев   |    .torrent скачан:  45 раз   |   
Раздают:  1  
   
Загрузка...
 
Автор Сообщение

L


Рандеву с Жизнью / Date a Live / デート・ア・ライブ

Страна: Япония
Год выпуска: 2013 г.
Жанр: приключения
Тип: TV
Продолжительность: ТВ (12 эп.), 25 мин.
Режиссер: Мотонага Кэйтаро
Автор оригинала: Татибана Коси
Студия:

Описание:
Несколько лет назад разломы невиданной силы один за другим начали хаотично уничтожать целые мегаполисы. Родной город старшеклассника Итсуки Шидо и его младшей сестрёнки Котори бедствие тоже не обошло стороной и один из таких разломов за считанные секунды не оставил от их родного города и камня на камне. Но время шло, и жизнь Шидо снова вошла в свою колею: поход в школу, готовка, забота о младшей сестрёнке. Но новый разлом и встреча с загадочной девушкой в эпицентре взрыва переворачивает его жизнь с ног на голову. Его одноклассница отважный борец с духами, милая младшая сестрёнка Котори суровый и грубый капитан Фраксинуса, а новая знакомая оказалась духом неизвестного происхождения. И теперь Шидо за считанные дни предстоит, не только смирится с истинным положением дел, но и стать сердцеедом, влюбляющим в себя юных красавиц из другого мира, и всё это во имя спасения человечества!Oni. SHIZA Project
Озвучивание: SakaE & Oni
Работа над таймингом: Gigantic Guyver
Работа над звуком: SakaE
Перевод: Hyakka Ryoran [Koushin, mac, Enma]
Качество: HDTVRip
Тип релиза: Без хардсаба
Формат видео: MP4
Наличие линковки: Нет
Автор рипа: Zero-Raws
Видео: x264, 1280x720, ~2000 kbps, 23.976 fps
Аудио RUS: AAC, ~192 kbps, 48 kHz, 2 ch
Аудио JAP: AAC, ~192 kbps, 48 kHz, 2 ch
Субтитры: Нет
GeneralFormat : MPEG-4Format profile : Base MediaCodec ID : isomFile size : 409 MiBDuration : 23mn 42sOverall bit rate mode : VariableOverall bit rate : 2 411 KbpsEncoded date : UTC 2013-04-05 12:20:45Tagged date : UTC 2013-04-05 12:20:45

VideoID : 1Format : AVCFormat/Info : Advanced Video CodecFormat profile : High@L3.1Format settings, CABAC : YesFormat settings, ReFrames : 4 framesCodec ID : avc1Codec ID/Info : Advanced Video CodingDuration : 23mn 42sBit rate : 2 005 KbpsMaximum bit rate : 10.8 MbpsWidth : 1 280 pixelsHeight : 720 pixelsDisplay aspect ratio : 16:9Frame rate mode : ConstantFrame rate : 23.976 fpsColor space : YUVChroma subsampling : 4:2:0Bit depth : 8 bitsScan type : ProgressiveBits/(Pixel*Frame) : 0.091Stream size : 340 MiB (83%)Title : www.SHIZA-Project.comWriting library : x264 core 128 r2216+698 b3c1019Encoding settings : cabac=1 / ref=3 / deblock=1:0:0 / analyse=0x3:0x113 / me=hex / subme=7 / psy=1 / fade_compensate=0.00 / psy_rd=1.00:0.00 / mixed_ref=1 / me_range=16 / chroma_me=1 / trellis=1 / 8x8dct=1 / cqm=0 / deadzone=21,11 / fast_pskip=1 / chroma_qp_offset=-2 / threads=12 / lookahead_threads=2 / sliced_threads=0 / nr=0 / decimate=1 / interlaced=0 / bluray_compat=0 / constrained_intra=0 / fgo=0 / bframes=3 / b_pyramid=2 / b_adapt=1 / b_bias=0 / direct=1 / weightb=1 / open_gop=0 / weightp=2 / keyint=250 / keyint_min=23 / scenecut=40 / intra_refresh=0 / rc_lookahead=40 / rc=crf / mbtree=1 / crf=19.5000 / qcomp=0.60 / qpmin=0 / qpmax=69 / qpstep=4 / ip_ratio=1.40 / aq=1:1.00Encoded date : UTC 2013-04-05 21:48:50Tagged date : UTC 2013-04-05 12:20:47

Audio #1ID : 2Format : AACFormat/Info : Advanced Audio CodecFormat profile : LCCodec ID : 40Duration : 23mn 42sBit rate mode : VariableBit rate : 192 KbpsMaximum bit rate : 224 KbpsChannel(s) : 2 channelsChannel positions : Front: L RSampling rate : 48.0 KHzCompression mode : LossyStream size : 32.6 MiB (8%)Title : SakaE & Oni from SHIZALanguage : RussianEncoded date : UTC 2013-04-05 12:20:46Tagged date : UTC 2013-04-05 12:20:47

Audio #2ID : 3Format : AACFormat/Info : Advanced Audio CodecFormat profile : LCCodec ID : 40Duration : 23mn 42sBit rate mode : VariableBit rate : 208 KbpsMaximum bit rate : 246 KbpsChannel(s) : 2 channelsChannel positions : Front: L RSampling rate : 48.0 KHzCompression mode : LossyStream size : 35.3 MiB (9%)Title : Jap OriginalLanguage : JapaneseEncoded date : UTC 2013-04-05 12:20:46Tagged date : UTC 2013-04-05 12:20:47
01. История первая


Трекер:  [ 07-Апр-2013 17:06 ]

  

Скачать .torrent

Размер .torrent файла 16 KB


Размер: 409 MB
Хэш (hash) релиза: cdf97f9884d27cafa25ccf44dccf94f1683a252a
Подписка на обновления:

Торренты, похожие на Рандеву с Жизнью Date a Live скачать торрент

Форум Название Автор Размер S L Добавлен
Аниме | HD Rips ·· Рандеву с жизнью / Date a Live Director's Cut [TV] [12 из 12] [Без хардсаба] [JAP+SUB] [2015 г., приключения, романтика, фантастика, мистика, BDRip] [720p] Galfimbul 61634347125.74 GB 0 0 1449993215

10:53

13-Дек-15

Аниме | HD Rips ·· Рандеву с жизнью / Date a Live Director's Cut [TV] [12 из 12] [Без хардсаба] [JAP+SUB] [2015 г., приключения, романтика, фантастика, мистика, BDRip] [720p] Galfimbul 61634312585.74 GB 0 0 1449233832

15:57

4-Дек-15

Аниме | HD Rips ·· Рандеву с жизнью / Date A Live II (Мотонага Кэйтаро) [TV] [10 из 10] [Без хардсаба] [JAP+SUB] [2014 г., приключения, HDTVRip] [720p] Galfimbul 33517398953.12 GB 0 0 1400796211

01:03

23-Май-14

Аниме | HD Rips ·· Рандеву с жизнью / Date a Live (Мотонага Кэйтаро) [TV] [12 из 12] [без хардсаба] [JAP+SUB] [2013 г., комедия, романтика, мистика, этти, BDRip] [1080p] Polarnik 2185334468120.35 GB 0 0 1392983480

14:51

21-Фев-14

Аниме | Blu-Ray и BDRemux ·· Рандеву с жизнью / Date a Live (Мотонага Кэйтаро) [TV] [12 из 12] [без хардсаба] [JAP+SUB] [2013 г., комедия, романтика, мистика, этти, BDRemux] [1080p] Polarnik 8413947625778.36 GB 0 0 1392983415

14:50

21-Фев-14

Аниме | HD Rips ·· Рандеву с жизнью / Date a Live (Мотонага Кэйтаро) [TV] [1 из 12] [без хардсаба] [JAP+SUB] [2013 г., приключения, фантастика, мистика, романтика, комедия, BDRip] [720p] Polarnik 11353251801.06 GB 0 0 1378262186

05:36

4-Сен-13

Аниме | HD Rips ·· Рандеву с жизнью / Date a Live (Мотонага Кэйтаро) [TV] [12 из 12] [без хардсаба] [JAP+SUB] [2013 г., приключения, фантастика, мистика, романтика, комедия, HDTVRip] [720p] Polarnik 55468949725.17 GB 0 0 1373806280

15:51

14-Июл-13

Аниме | HD Rips ·· Рандеву с жизнью / Date a Live [TV] [1 из 12] [Без хардсаба] [RUS(int), JAP, SUB] [2013 г., приключения, фантастика, этти, HDTVRip] [720p] Galfimbul 401267164383 MB 0 0 1365627263

23:54

10-Апр-13

Аниме | HD Rips ·· Рандеву с жизнью / Date a Live (Мотонага Кэйтаро) [TV] [1 из 12] [без хардсаба] [RUS(int) JAP+SUB] [2013 г., приключения, фантастика, комедия, HDTVRip] [720p] L 428034950408 MB 0 0 1365325698

12:08

7-Апр-13

Аниме | HD Rips ·· Рандеву с жизнью / Date a Live (Мотонага Кэйтаро) [TV] [1 из 12] [без хардсаба] [JAP+SUB] [2013 г., приключения, фантастика, мистика, романтика, комедия, HDTVRip] [720p] L 562489631536 MB 0 0 1365237045

11:30

6-Апр-13

Аниме | HD Rips ·· Рандеву с жизнью 2 / Date A Live II / Date A Live: Encore [OVA] [1 из 1] [Без хардсаба] [JAP+SUB] [2014 г., приключения, романтика, фантастика, мистика, BDRip] [720p] Galfimbul 443847853423 MB 0 0 1466100422

21:07

16-Июн-16

Аниме | Rips ·· Рандеву с жизнью OVA-2 / Date a Live: Encore / Date A Live II OVA [OVA] [1 из 1] [Без хардсаба] [RUS(ext), JAP+SUB] [2014 г., приключения, романтика, фантастика, мистика, BDRip] [1080p] Galfimbul 350682066334 MB 0 0 1419322820

11:20

23-Дек-14

Аниме | Rips ·· Рандеву с жизнью OVA-2 / Date a Live: Encore / Date A Live II OVA [OVA] [1 из 1] [Без хардсаба] [JAP, RUS(ext)] [2014 г., приключения, романтика, фантастика, мистика, BDRip] [1080p] Galfimbul 350635069334 MB 0 0 1419246766

14:12

22-Дек-14

Аниме | Rips ·· Рандеву с жизнью 2 / Date a Live II [TV] [10 из 10] [Без хардсаба] [RUS(int), SUB] [2014 г., приключения, романтика, фантастика, мистика, BDRip] [720p] Galfimbul 49423771734.6 GB 0 0 1466345798

17:16

19-Июн-16

Аниме | HD Rips ·· Рандеву с жизнью / Gekijouban Date A Live - Mayuri Judgement (Мотонага Кэйтаро) [Movie] [Без хардсаба] [RUS(ext), JAP+SUB] [2015 г., приключения, романтика, фантастика, мистика, BDRip] [1080p] Galfimbul 69808979266.5 GB 0 0 1465630931

10:42

11-Июн-16

Аниме | HD Rips ·· Рандеву с жизнью / Gekijouban Date A Live - Mayuri Judgement [Movie] [Без хардсаба] [JAP+SUB] [2015 г., приключения, романтика, фантастика, мистика, BDRip] [720p] Galfimbul 25598606872.38 GB 0 0 1459629139

23:32

2-Апр-16

Аниме | HD Rips ·· Рандеву с жизнью (фильм) / Gekijouban Date A Live - Mayuri Judgement [Movie] [Без хардсаба] [JAP, SUB] [2015 г., приключения, BDRip] [720p] Galfimbul 14340726231.34 GB 0 0 1459444145

20:09

31-Мар-16

Аниме | HD Rips ·· Рандеву с жизнью (фильм) / Gekijouban Date A Live - Mayuri Judgement (Мотонага Кэйтаро) [Movie] [1 из 1] [без хардсаба] [JAP+SUB] [2015 г., приключения, BDRemux] [1080p] Galfimbul 2443319817322.76 GB 0 0 1457869800

14:50

13-Мар-16

Аниме | HD Rips ·· Рандеву с жизнью 2 / Date A Live: Encore (Мотонага Кэйтаро) [OVA] [1 из 1] [Без хардсаба] [JAP+SUB] [2014 г., приключения, романтика, фантастика, мистика, BDRemux] [1080p] Galfimbul 88217650968.22 GB 0 0 1447619268

23:27

15-Ноя-15

Еще никто не оставлял запись к записи скачать торрент Рандеву с Жизнью Date a Live . Будь первым!

!Обратная связь