Скачать через торрент Сатана на полставки! Hataraku Maou-sama! бесплатно Аниме Все серии на русском torrent

Если у вас наблюдаются проблемы со скриншотами, переходом по ссылками, скачиванием торрентов - проблемы в блокировщике рекламы AdBlock. #хорошегоДня!


Статистика раздачи
Размер:  241 MB   |    Зарегистрирован:  4 года 8 месяцев   |    .torrent скачан:  14 раз   |   
Раздают:  1  
   
Загрузка...
 
Автор Сообщение

L


Сатана на полставки! / Hataraku Maou-sama!
Страна: Япония
Год выпуска: 2013 г.
Жанр: Приключения
Продолжительность: 25 мин
Перевод: KatzSmile
Субтитры есть

Режиссер: Хосода Наото

Студия:

Описание: История начинается в альтернативной реальности, когда Князь Тьмы, то бишь Сатана, решает завоевать континент Энте Ислу. Но на каждого злодея найдётся свой герой. Вот и Эмилия задумала остановить нечестивца, и ей это, к счастью, удаётся. «Пора сматываться», — решает незадачливый Князь и случайно попадает в иной мир, а точнее, в современный Токио, столь ужасный и неизведанный для Сатаны и его друга и соратника Альсиэля.
Но, упс, беднягам явно не везёт! Героев, слава богу, вроде не видно, но вот магия не действует в этом мире! И обратно никак не вернуться. Нужен новый план. Как там у людишек принято — из грязи в князи? Ну ладно, не силой, так трудолюбием возьмём. Отсюда и начинается путь «Сатаны на полставки!»
А в это время по следам нашего Князя в столицу Японии прибывает сама Герой Эмилия и некоторые другие странные личности. Итак, кажется, время для охоты на Князя Тьмы настало!

Равка: Zero-Raws
Качество: HDTVRip
Формат видео: MKV
Видео: AVC (High@L3.1), 1280x720 (16:9), 1210kbps, 23.976fps, 8 bits
Аудио:
2. JAP AAC, 2ch, ~208kbps, 48.0kHz
01.
Video
ID : 1
Format : AVC
Format/Info : Advanced Video Codec
Format profile : High@L3.1
Format settings, CABAC : Yes
Format settings, ReFrames : 4 frames
Codec ID : avc1
Codec ID/Info : Advanced Video Coding
Duration : 23mn 39s
Bit rate : 1 210 Kbps
Maximum bit rate : 11.2 Mbps
Width : 1 280 pixels
Height : 720 pixels
Display aspect ratio : 16:9
Frame rate mode : Constant
Frame rate : 23.976 fps
Color space : YUV
Chroma subsampling : 4:2:0
Bit depth : 8 bits
Scan type : Progressive
Bits/(Pixel*Frame) : 0.055
Stream size : 205 MiB (85%)
Writing library : x264 core 128 r2216+698 b3c1019
Encoding settings : cabac=1 / ref=3 / deblock=1:0:0 / analyse=0x3:0x113 / me=hex / subme=7 / psy=1 / fade_compensate=0.00 / psy_rd=1.00:0.00 / mixed_ref=1 / me_range=16 / chroma_me=1 / trellis=1 / 8x8dct=1 / cqm=0 / deadzone=21,11 / fast_pskip=1 / chroma_qp_offset=-2 / threads=12 / lookahead_threads=2 / sliced_threads=0 / nr=0 / decimate=1 / interlaced=0 / bluray_compat=0 / constrained_intra=0 / fgo=0 / bframes=3 / b_pyramid=2 / b_adapt=1 / b_bias=0 / direct=1 / weightb=1 / open_gop=0 / weightp=2 / keyint=250 / keyint_min=23 / scenecut=40 / intra_refresh=0 / rc_lookahead=40 / rc=crf / mbtree=1 / crf=19.5000 / qcomp=0.60 / qpmin=0 / qpmax=69 / qpstep=4 / ip_ratio=1.40 / aq=1:1.00
Encoded date : UTC 2013-04-04 15:27:40
Tagged date : UTC 2013-04-04 15:27:42

Audio
ID : 2
Format : AAC
Format/Info : Advanced Audio Codec
Format profile : LC
Codec ID : 40
Duration : 23mn 39s
Bit rate mode : Variable
Bit rate : 208 Kbps
Maximum bit rate : 245 Kbps
Channel(s) : 2 channels
Channel positions : Front: L R
Sampling rate : 48.0 KHz
Compression mode : Lossy
Delay relative to video : 83ms
Stream size : 35.2 MiB (15%)
Language : Japanese
Encoded date : UTC 2013-04-04 15:04:16
Tagged date : UTC 2013-04-04 15:27:42


Трекер:  [ 07-Апр-2013 17:05 ]

  

Скачать .torrent

Размер .torrent файла 19 KB


Размер: 241 MB
Хэш (hash) релиза: a503c1684fe5f81c3479e74c52ae85be50ccf739
Подписка на обновления:

Еще никто не оставлял запись к записи скачать торрент Сатана на полставки! Hataraku Maou-sama! . Будь первым!

!Обратная связь