Скачать через торрент музыку В финале Джон умрет John Dies at the End бесплатно без регистрации torrent

Если у вас наблюдаются проблемы со скриншотами, переходом по ссылками, скачиванием торрентов - проблемы в блокировщике рекламы AdBlock. #хорошегоДня!


Статистика раздачи
Размер:  233 MB   |    Зарегистрирован:  4 года 7 месяцев   |    .torrent скачан:  20 раз   |   
Раздают:  1  
   
Загрузка...
 
Автор Сообщение

Galfimbul

avatar Galfimbul


В финале Джон умрет / John Dies at the End


Жанр: Score || Композитор: Brian Tyler || Год выпуска диска: 2013 || Год выпуска фильма: 2012 || Страна-производитель диска: США || Аудио кодек: FLAC (*.flac) || Тип рипа: tracks+.cue || Битрейт аудио: lossless || Продолжительность: 00:53:54 || Источник: What.cd || Наличие сканов в содержимом раздачи: нет
Треклист:
01. John Dies at the End [03:59]
02. Along the Blurry Road [01:43]
03. Soy Sauce [01:54]
04. Tweaker Lullaby [02:56]
05. Tripping Balls [02:10]
06. Our Quest [01:08]
07. Meet the Meat [02:19]
08. Mirrors and Bratwurst [05:12]
09. Marconi [01:51]
10. Strange Passenger [03:12]
11. Mall of the Dead [06:14]
12. Ultimate Manifestation [09:33]
13. Odd Interrogation [03:09]
14. Marconi''s Final Thoughts [01:27]
15. The Aftermath [04:17]
16. Dne Eht Ta Seid Nhoj [02:49]
Exact Audio Copy V1.0 beta 3 from 29. August 2011

EAC extraction logfile from 7. April 2013, 20:58

Brian Tyler / John Dies At The End [Limited Edition]

Used drive : HL-DT-STDVDRAM GH24NS90 Adapter: 2 ID: 0

Read mode : SecureUtilize accurate stream : YesDefeat audio cache : YesMake use of C2 pointers : No

Read offset correction : 6Overread into Lead-In and Lead-Out : NoFill up missing offset samples with silence : YesDelete leading and trailing silent blocks : NoNull samples used in CRC calculations : YesUsed interface : Installed external ASPI interfaceGap handling : Appended to previous track

Used output format : User Defined EncoderSelected bitrate : 1024 kBit/sQuality : HighAdd ID3 tag : NoCommand line compressor : C:\Program Files\Exact Audio Copy\FLAC\FLAC.EXEAdditional command line options : -8 -V -T "ARTIST=%artist%" -T "TITLE=%title%" -T "ALBUM=%albumtitle%" -T "DATE=%year%" -T "TRACKNUMBER=%tracknr%" -T "GENRE=%genre%" -T "PERFORMER=%albuminterpret%" -T "COMPOSER=%composer%" %haslyrics%--tag-from-file=LYRICS="%lyricsfile%"%haslyrics% -T "ALBUMARTIST=%albumartist%" -T "DISCNUMBER=%cdnumber%" -T "TOTALDISCS=%totalcds%" -T "TOTALTRACKS=%numtracks%" -T "COMMENT=%comment%" %source% -o %dest%

TOC of the extracted CD

Track | Start | Length | Start sector | End sector --------------------------------------------------------- 1 | 0:00.00 | 3:59.33 | 0 | 17957 2 | 3:59.33 | 1:42.69 | 17958 | 25676 3 | 5:42.27 | 1:53.71 | 25677 | 34222 4 | 7:36.23 | 2:56.27 | 34223 | 47449 5 | 10:32.50 | 2:10.30 | 47450 | 57229 6 | 12:43.05 | 1:08.26 | 57230 | 62355 7 | 13:51.31 | 2:19.28 | 62356 | 72808 8 | 16:10.59 | 5:11.56 | 72809 | 96189 9 | 21:22.40 | 1:51.12 | 96190 | 104526 10 | 23:13.52 | 3:12.26 | 104527 | 118952 11 | 26:26.03 | 6:14.21 | 118953 | 147023 12 | 32:40.24 | 9:32.57 | 147024 | 189980 13 | 42:13.06 | 3:08.46 | 189981 | 204126 14 | 45:21.52 | 1:26.64 | 204127 | 210640 15 | 46:48.41 | 4:16.58 | 210641 | 229898 16 | 51:05.24 | 2:49.19 | 229899 | 242592

Track 1

Filename H:\Music\incoming\01 - John Dies At The End.wav

Pre-gap length 0:00:02.00

Peak level 99.9 % Extraction speed 1.0 X Track quality 100.0 % Test CRC 27E54A9E Copy CRC 27E54A9E Track not present in AccurateRip database Copy OK

Track 2

Filename H:\Music\incoming\02 - Along The Blurry Road.wav

Pre-gap length 0:00:02.00

Peak level 81.1 % Extraction speed 0.7 X Track quality 99.8 % Test CRC C0D49606 Copy CRC C0D49606 Track not present in AccurateRip database Copy OK

Track 3

Filename H:\Music\incoming\03 - Soy Sauce.wav

Pre-gap length 0:00:02.00

Peak level 99.9 % Extraction speed 1.0 X Track quality 100.0 % Test CRC 099838CE Copy CRC 099838CE Track not present in AccurateRip database Copy OK

Track 4

Filename H:\Music\incoming\04 - Tweaker Lullaby.wav

Pre-gap length 0:00:02.00

Peak level 87.8 % Extraction speed 1.1 X Track quality 100.0 % Test CRC F8E9B1C4 Copy CRC F8E9B1C4 Track not present in AccurateRip database Copy OK

Track 5

Filename H:\Music\incoming\05 - Tripping Balls.wav

Pre-gap length 0:00:02.00

Peak level 99.9 % Extraction speed 1.1 X Track quality 100.0 % Test CRC 7EF28D08 Copy CRC 7EF28D08 Track not present in AccurateRip database Copy OK

Track 6

Filename H:\Music\incoming\06 - Our Quest.wav

Pre-gap length 0:00:02.00

Peak level 99.9 % Extraction speed 0.7 X Track quality 99.8 % Test CRC 58EF14C8 Copy CRC 58EF14C8 Track not present in AccurateRip database Copy OK

Track 7

Filename H:\Music\incoming\07 - Meet The Meat.wav

Pre-gap length 0:00:02.00

Peak level 99.9 % Extraction speed 1.2 X Track quality 100.0 % Test CRC F9F9E2CE Copy CRC F9F9E2CE Track not present in AccurateRip database Copy OK

Track 8

Filename H:\Music\incoming\08 - Mirrors And Bratwurst.wav

Pre-gap length 0:00:02.00

Peak level 99.9 % Extraction speed 1.3 X Track quality 99.9 % Test CRC E7739F5C Copy CRC E7739F5C Track not present in AccurateRip database Copy OK

Track 9

Filename H:\Music\incoming\09 - Marconi.wav

Pre-gap length 0:00:02.00

Peak level 99.9 % Extraction speed 1.3 X Track quality 100.0 % Test CRC 35DA7175 Copy CRC 35DA7175 Track not present in AccurateRip database Copy OK

Track 10

Filename H:\Music\incoming\10 - Strange Passenger.wav

Pre-gap length 0:00:02.00

Peak level 99.9 % Extraction speed 1.5 X Track quality 100.0 % Test CRC 5C647C6A Copy CRC 5C647C6A Track not present in AccurateRip database Copy OK

Track 11

Filename H:\Music\incoming\11 - Mall Of The Dead.wav

Pre-gap length 0:00:02.00

Peak level 99.9 % Extraction speed 1.7 X Track quality 100.0 % Test CRC 3DFF3626 Copy CRC 3DFF3626 Track not present in AccurateRip database Copy OK

Track 12

Filename H:\Music\incoming\12 - Ultimate Manifestation.wav

Pre-gap length 0:00:02.00

Peak level 99.9 % Extraction speed 1.9 X Track quality 100.0 % Test CRC 54CEC730 Copy CRC 54CEC730 Track not present in AccurateRip database Copy OK

Track 13

Filename H:\Music\incoming\13 - Odd Interrogation.wav

Pre-gap length 0:00:02.00

Peak level 90.6 % Extraction speed 1.8 X Track quality 100.0 % Test CRC F6017EA2 Copy CRC F6017EA2 Track not present in AccurateRip database Copy OK

Track 14

Filename H:\Music\incoming\14 - Marconi''s Final Thoughts.wav

Pre-gap length 0:00:02.00

Peak level 74.2 % Extraction speed 1.5 X Track quality 100.0 % Test CRC 9F2DEEC3 Copy CRC 9F2DEEC3 Track not present in AccurateRip database Copy OK

Track 15

Filename H:\Music\incoming\15 - The Aftermath.wav

Pre-gap length 0:00:02.00

Peak level 99.9 % Extraction speed 2.0 X Track quality 100.0 % Test CRC 0066DB65 Copy CRC 0066DB65 Track not present in AccurateRip database Copy OK

Track 16

Filename H:\Music\incoming\16 - Dne Eht Ta Seid Nhoj.wav

Pre-gap length 0:00:02.00

Peak level 99.9 % Extraction speed 1.9 X Track quality 100.0 % Test CRC 0803FCE7 Copy CRC 0803FCE7 Track not present in AccurateRip database Copy OK

None of the tracks are present in the AccurateRip database

No errors occurred

End of status report

==== Log checksum 1C253B6FB998B5B2C29968A79A8C3EAFAAEFAE70249DF83C3429ECFEDDA6AE9F ====
REM GENRE SoundtrackREM DATE 2012REM DISCID E50CA210REM COMMENT "ExactAudioCopy v1.0b3"PERFORMER "Brian Tyler"TITLE "John Dies At The End [Limited Edition]"FILE "01 - John Dies At The End.wav" WAVE TRACK 01 AUDIO TITLE "John Dies At The End" PERFORMER "Brian Tyler" FLAGS DCP INDEX 01 00:00:00 TRACK 02 AUDIO TITLE "Along The Blurry Road" PERFORMER "Brian Tyler" FLAGS DCP INDEX 00 03:57:33FILE "02 - Along The Blurry Road.wav" WAVE INDEX 01 00:00:00 TRACK 03 AUDIO TITLE "Soy Sauce" PERFORMER "Brian Tyler" FLAGS DCP INDEX 00 01:40:69FILE "03 - Soy Sauce.wav" WAVE INDEX 01 00:00:00 TRACK 04 AUDIO TITLE "Tweaker Lullaby" PERFORMER "Brian Tyler" FLAGS DCP INDEX 00 01:51:71FILE "04 - Tweaker Lullaby.wav" WAVE INDEX 01 00:00:00 TRACK 05 AUDIO TITLE "Tripping Balls" PERFORMER "Brian Tyler" FLAGS DCP INDEX 00 02:54:27FILE "05 - Tripping Balls.wav" WAVE INDEX 01 00:00:00 TRACK 06 AUDIO TITLE "Our Quest" PERFORMER "Brian Tyler" FLAGS DCP INDEX 00 02:08:30FILE "06 - Our Quest.wav" WAVE INDEX 01 00:00:00 TRACK 07 AUDIO TITLE "Meet The Meat" PERFORMER "Brian Tyler" FLAGS DCP INDEX 00 01:06:26FILE "07 - Meet The Meat.wav" WAVE INDEX 01 00:00:00 TRACK 08 AUDIO TITLE "Mirrors And Bratwurst" PERFORMER "Brian Tyler" FLAGS DCP INDEX 00 02:17:28FILE "08 - Mirrors And Bratwurst.wav" WAVE INDEX 01 00:00:00 TRACK 09 AUDIO TITLE "Marconi" PERFORMER "Brian Tyler" FLAGS DCP INDEX 00 05:09:56FILE "09 - Marconi.wav" WAVE INDEX 01 00:00:00 TRACK 10 AUDIO TITLE "Strange Passenger" PERFORMER "Brian Tyler" FLAGS DCP INDEX 00 01:49:12FILE "10 - Strange Passenger.wav" WAVE INDEX 01 00:00:00 TRACK 11 AUDIO TITLE "Mall Of The Dead" PERFORMER "Brian Tyler" FLAGS DCP INDEX 00 03:10:26FILE "11 - Mall Of The Dead.wav" WAVE INDEX 01 00:00:00 TRACK 12 AUDIO TITLE "Ultimate Manifestation" PERFORMER "Brian Tyler" FLAGS DCP INDEX 00 06:12:21FILE "12 - Ultimate Manifestation.wav" WAVE INDEX 01 00:00:00 TRACK 13 AUDIO TITLE "Odd Interrogation" PERFORMER "Brian Tyler" FLAGS DCP INDEX 00 09:30:57FILE "13 - Odd Interrogation.wav" WAVE INDEX 01 00:00:00 TRACK 14 AUDIO TITLE "Marconi''s Final Thoughts" PERFORMER "Brian Tyler" FLAGS DCP INDEX 00 03:06:46FILE "14 - Marconi''s Final Thoughts.wav" WAVE INDEX 01 00:00:00 TRACK 15 AUDIO TITLE "The Aftermath" PERFORMER "Brian Tyler" FLAGS DCP INDEX 00 01:24:64FILE "15 - The Aftermath.wav" WAVE INDEX 01 00:00:00 TRACK 16 AUDIO TITLE "Dne Eht Ta Seid Nhoj" PERFORMER "Brian Tyler" FLAGS DCP INDEX 00 04:14:58FILE "16 - Dne Eht Ta Seid Nhoj.wav" WAVE INDEX 01 00:00:00

MP3: (Score) В финале Джон умрет / John Dies at the End (by Brian Tyler) - 2013 (2012), MP3, 320 kbps


Трекер:  [ 13-Май-2013 15:24 ]

  

Скачать .torrent

Размер .torrent файла 19 KB


Размер: 233 MB
Хэш (hash) релиза: ae62ed67a173da6c0fb719d2571ab8221b09f077

Торренты, похожие на В финале Джон умрет John Dies at the End скачать торрент

Форум Название Автор Размер S L Добавлен
Саундтреки к фильмам и мультфильмам (mp3) ·· (Score) В финале Джон умрет / John Dies at the End (by Brian Tyler) - 2013 (2012), MP3, 320 kbps Galfimbul 129590902124 MB 0 0 1365951381

17:56

14-Апр-13

bot

Топик был перенесен в форум Саундтреки к фильмам и мультфильмам (lossless)

Перенес Galfimbul

Хотите добавить комментарий к записи скачать торрент В финале Джон умрет John Dies at the End

!Обратная связь