Скачать через торрент Леди против Дворецких! Ladies versus Butlers! бесплатно Аниме Все серии на русском torrent

Если у вас наблюдаются проблемы со скриншотами, переходом по ссылками, скачиванием торрентов - проблемы в блокировщике рекламы AdBlock. #хорошегоДня!


Статистика раздачи
Размер:  9.84 GB   |    Зарегистрирован:  4 года 7 месяцев   |    .torrent скачан:  53 раза   |   
Раздают:  1  
   
Загрузка...
 
Автор Сообщение

Galfimbul

avatar Galfimbul



Год выпуска: 2010
Страна: Япония
Жанр: комедия, этти
Продолжительность: 12 эп., 25 мин. + 6 спешлов, 3 мин.
Перевод:

русские субтитры от BlackHawk & KBM TeaM
переводчики: BlackHawk, Suxxxit-kun, редактор/оформление: Obelikx, редактор/перевод песен: Sakurachii, редактор: VanTuz
Режиссер: Оцуки Ацуси
Студия:
Описание:
16-летний Акихару Хино рано потерял родителей, а когда приемная семья дяди стала его тяготить, поступил в академию Хакурэй-Рё, уникальный интернат, разделенный на две секции. Первая, «дзёку» – обычная частная школа для богатых девушек, а вторая, «дзику» - школа для слуг, где девушки учатся на горничных, а немногочисленные юноши овладевают профессией дворецкого. Будущие слуги помимо учебы ежедневно практикуются на «принцессах» в профессиональных навыках, причем администрация поощряет нормальное человеческое общение между «хозяевами» и «слугами», и многие выпускники заключают между собой рабочие контракты сразу же при окончании школы.

Разумеется, небогатого сироту приняли в секцию слуг, а дальше началось… Злая судьба уже на пороге школы устроила парню ряд несчастных случаев, в итоге которых главного героя (и так хулиганисто выглядящего) записали в разбойники, ловеласы и извращенцы. И добро бы воду мутила гордячка Серния Флеймхарт, но в девушке, заступившейся за него и «разрулившей» ситуацию, Хино с ужасом узнал Томоми, кошмар своего детства, королеву зла и двуличия. Вот теперь, чтобы не пропасть, парню придется как следует попотеть!
© Hollow, World Art
Информационные ссылки: AniDB || MAL || World Art
Качество: BDRip
Энкод: Winter - RG Pantheon
Тип видео: без хардсаба
Формат: mkv
Видео: x264 (Hi10p), 1280x720, ~2700 Kbps, 23.976 fps
Аудио JAP: Vorbis, 48000Hz, ~256 Kbps, 2ch
Аудио RUS 1, 3: AC3, 48000Hz, 192 Kbps, 2ch
Аудио RUS 2: AAC, 48000Hz, 192 Kbps, 2ch
одноголосая (жен.) от от Persona99 (GetSmart) [1-12 + 1 SP]
одноголосая (муж.) от Ancord (AniDub) [1-12]

двухголосая (жен./муж.) от от Persona99 & Yukio (GetSmart) [1-12]
[b]01. Boy versus Lady
02. Lady versus Lady!
03. Card versus Lady?
04. Ladies versus Virgin?
05. Lady versus Lady!!
06. Secret versus Boy?
07. Lady versus Magical
08. Summer versus Skandal
09. Date versus Chase!
10. Love-Letter versus Rhapsody
11. Lady versus Lady!!!
12. Lady versus Butler!
Общее
Уникальный идентификатор : 189137133607204014815861213917088890634 (0x8E4A7CA6DA42DA939C99EBE65BD0BF0A)
Полное имя : W:\ANIMATION\720p\Ladies versus Butlers! [BD] [720p]\[Winter] Ladies versus Butlers! 01 [BDrip 1280x720 x264 Vorbis].mkv
Формат : Matroska
Версия формата : Version 2
Размер файла : 631 Мбайт
Продолжительность : 23 м.
Режим общего битрейта : Переменный
Общий поток : 3703 Кбит/сек
Дата кодирования : UTC 2013-04-09 17:03:43
Программа кодирования : mkvmerge v2.9.8 (''C''est le bon'') built on Aug 13 2009 12:49:06
Библиотека кодирования : libebml v0.7.7 + libmatroska v0.8.1

Видео
Идентификатор : 1
Формат : AVC
Формат/Информация : Advanced Video Codec
Профиль формата : High 10@L4.1
Параметр CABAC формата : Да
Параметр ReFrames формата : 9 кадров
Идентификатор кодека : V_MPEG4/ISO/AVC
Продолжительность : 23 м.
Битрейт : 3373 Кбит/сек
Ширина : 1280 пикселей
Высота : 720 пикселей
Соотношение сторон : 16:9
Режим частоты кадров : Постоянный
Частота кадров : 23,976 кадра/сек
Цветовое пространство : YUV
Субдискретизация насыщенности : 4:2:0
Битовая глубина : 10 бит
Тип развёртки : Прогрессивная
Бит/(Пиксели*Кадры) : 0.153
Размер потока : 575 Мбайт (91%)
Библиотека кодирования : x264 core 129 r2230 1cffe9f
Настройки программы : cabac=1 / ref=9 / deblock=1:-2:-2 / analyse=0x3:0x133 / me=umh / subme=9 / psy=1 / psy_rd=0.90:0.00 / mixed_ref=1 / me_range=24 / chroma_me=1 / trellis=2 / 8x8dct=1 / cqm=0 / deadzone=21,11 / fast_pskip=1 / chroma_qp_offset=-2 / threads=6 / lookahead_threads=1 / sliced_threads=0 / nr=0 / decimate=0 / interlaced=0 / bluray_compat=0 / constrained_intra=0 / bframes=8 / b_pyramid=2 / b_adapt=2 / b_bias=0 / direct=1 / weightb=1 / open_gop=0 / weightp=2 / keyint=250 / keyint_min=23 / scenecut=40 / intra_refresh=0 / rc=crf / mbtree=0 / crf=15.8 / qcomp=0.70 / qpmin=9 / qpmax=40 / qpstep=4 / ip_ratio=1.40 / pb_ratio=1.30 / aq=1:0.90
Default : Нет
Forced : Нет

Аудио
Идентификатор : 2
Формат : Vorbis
Параметр Floor формата : 1
Идентификатор кодека : A_VORBIS
Продолжительность : 23 м.
Вид битрейта : Переменный
Битрейт : 256 Кбит/сек
Каналы : 2 канала
Частота : 48,0 КГц
Метод сжатия : С потерями
Размер потока : 43,6 Мбайт (7%)
Библиотека кодирования : libVorbis (Schaufenugget) (20101101 (Schaufenugget))
Язык : Japanese
Default : Да
Forced : Нет




Трекер:  [ 22-Апр-2013 20:04 ]

  

Скачать .torrent

Размер .torrent файла 58 KB


Размер: 9.84 GB
Хэш (hash) релиза: 516cfd3f5951019c36ca597450abeb1167efc796
Подписка на обновления:

Торренты, похожие на Леди против Дворецких! Ladies versus Butlers! скачать торрент

Форум Название Автор Размер S L Добавлен
Аниме | HD Rips ·· Леди против Дворецких / Ladies versus Butlers / Ladies vs. Butlers! [TV] [1-12 из 12] [RUS(ext),JAP+SUB] [Specials] [1-6 из 6] [JAP+SUB] [2010 г., комедия, этти, BDRip] [1080p] [Любительская] Galfimbul 1663383263915.49 GB 0 0 1305347038

07:23

14-Май-11

Аниме | HD Rips ·· Леди против дворецких / Ladies versus Butlers! / Ladies vs. Butlers! [TV][1-12 из 12][JAP+SUB][2010 г., комедия, этти, HDTVRip][720p][Субтитры] Bot 40571804013.78 GB 0 0 1286481186

22:53

7-Окт-10

Аниме | HD Rips ·· Леди против Дворецких! / Ladies versus Butlers! (Оцуки Ацуси) [TV+Special] [12+6 из 12+6] [JAP+SUB] & [12+1 из 12+6] [RUS(ext)] [без хардсаба] [2010 г, комедия, этти, BDRip] [720p] Polarnik 105391993859.82 GB 0 0 1367181906

23:45

28-Апр-13

Аниме | HD Rips ·· Леди против Дворецких / Ladies versus Butlers! (Оцуки Ацуси) [TV] [12 из 12] [без хардсаба] [RUS(int), JAP+SUB] [2010 г., комедия, этти, HDTVRip] [720p] Bot 42765472533.98 GB 0 0 1286481057

22:50

7-Окт-10

Аниме | HD Rips ·· Леди против Дворецких! / Ladies versus Butlers! (Оцуки Ацуси) [TV] [12 из 12] [2 RUS(ext),JAP+SUB] [Specials] [6 из 6] [JAP+SUB] [без хардсаба] [2010 г, комедия, этти, BDRip] [720p] Bot 56902641425.3 GB 0 0 1286480879

22:47

7-Окт-10

Еще никто не оставлял запись к записи скачать торрент Леди против Дворецких! Ladies versus Butlers! . Будь первым!

!Обратная связь