Скачать через торрент Под мостом над Аракавой бесплатно Аниме Все серии на русском torrent

Если у вас наблюдаются проблемы со скриншотами, переходом по ссылками, скачиванием торрентов - проблемы в блокировщике рекламы AdBlock. #хорошегоДня!


Статистика раздачи
Размер:  7.82 GB   |    Зарегистрирован:  4 года 7 месяцев   |    .torrent скачан:  47 раз   |   
Раздают:  1  
   
Загрузка...
 
Автор Сообщение

Polarnik

avatar Polarnik



Год выпуска: 2010
Страна: Япония
Жанр: комедия, романтика, повседневность
Продолжительность: 13 эп. по 25 мин.
Перевод:

русские субтитры от Dreamers Team (полные/вспомогательные)
переводчик: junnes, редакторы: Amarillis,Looriental
Режиссер: Симбо Акиюки
Студия:
Описание:
22-летний Ко Итиномия – студент Тодая и наследник огромного концерна. Впрочем, парень, следуя фамильному девизу «Не будь никому должен», предпочитает не пользоваться семейными деньгами и связями, а давно живет и зарабатывает самостоятельно, став успешным бизнесменом и финансистом. Вот только на деле молодой Ко вращается в виртуальном мире, будучи «далек от народа», и потому, когда после падения с моста в реку Аракава его спасает симпатичная бездомная девушка Нино, долго не может понять, как отплатить спасительнице – ведь ни денег, ни палат каменных, ничего такого ей вообще не нужно!

Проблема в том, что девиз клана Итиномия настолько прочно вошел в плоть и кровь наследника, что наложился на семейную астму, и если Ко не поступит, как должно, то может банально задохнуться. Сжалившись над парнем, Нино сказала просто: «Хочешь отплатить? Тогда люби меня и живи со мной». Так и началась жизнь юного финансового гения под мостом на Аракаве вместе с любимой, в общине местных хиппи и чудиков. Причем оказалось все не так плохо – сырой рыбой японца не удивишь, предки жили и похуже, а всякие монстры и пришельцы – нормальные ребята, если помогают нам самим стать чуточку лучше и человечнее!
© Hollow, World Art
Информационные ссылки: AniDB || World Art || MAL
Качество: BDRip
Энкод: Winter - RG Pantheon
Тип видео: без хардсаба
Формат: mkv
Видео: x264 (Hi10p), 1280x720, ~3400 Kbps, 23.976 fps
Аудио JAP: Vorbis, 48000Hz, ~256 Kbps, 2ch
Аудио RUS 1-3: AC3, 48000Hz, ~192 Kbps, 2ch
одноголосая (муж.) от Darmen (Anything-group) [1-8]
одноголосая (муж.) от Zack Fair (AniDub)

двухголосая (муж./жен.) от absurd95 & Eladiel (Anilibria)
01. Bridge.
02. 2 Bridge
03. 3 Bridge
04. 4 Bridge
05. 5 Bridge
06. 6 Bridge
07. 7 Bridge
08. 8 Bridge
09. 9 Bridge
10. 10 Bridge
11. 11 Bridge
12. 12 Bridge
13. 13 Bridge
Общее
Уникальный идентификатор : 222829715086086562598479403063166855572 (0xA7A3712C0C15B6FA9C219B6449236994)
Полное имя : Z:\Anime\720p\Arakawa Under the Bridge TV-1 [BD] [720p]\[Winter] Arakawa Under the Bridge 01 [BDrip 1280x720 x264 Vorbis].mkv
Формат : Matroska
Версия формата : Version 2
Размер файла : 575 Мбайт
Продолжительность : 26 м.
Режим общего битрейта : Переменный
Общий поток : 2993 Кбит/сек
Дата кодирования : UTC 2013-02-09 07:39:51
Программа кодирования : mkvmerge v2.9.8 (''C''est le bon'') built on Aug 13 2009 12:49:06
Библиотека кодирования : libebml v0.7.7 + libmatroska v0.8.1

Видео
Идентификатор : 1
Формат : AVC
Формат/Информация : Advanced Video Codec
Профиль формата : High 10@L4.1
Параметр CABAC формата : Да
Параметр ReFrames формата : 9 кадров
Идентификатор кодека : V_MPEG4/ISO/AVC
Продолжительность : 26 м.
Битрейт : 2678 Кбит/сек
Ширина : 1280 пикселей
Высота : 720 пикселей
Соотношение сторон : 16:9
Режим частоты кадров : Постоянный
Частота кадров : 23,976 кадра/сек
Цветовое пространство : YUV
Субдискретизация насыщенности : 4:2:0
Битовая глубина : 10 бит
Тип развёртки : Прогрессивная
Бит/(Пиксели*Кадры) : 0.121
Размер потока : 515 Мбайт (89%)
Библиотека кодирования : x264 core 129 r2230 1cffe9f
Настройки программы : cabac=1 / ref=9 / deblock=1:-2:-2 / analyse=0x3:0x133 / me=umh / subme=9 / psy=1 / psy_rd=0.90:0.00 / mixed_ref=1 / me_range=24 / chroma_me=1 / trellis=2 / 8x8dct=1 / cqm=0 / deadzone=21,11 / fast_pskip=1 / chroma_qp_offset=-2 / threads=6 / lookahead_threads=1 / sliced_threads=0 / nr=0 / decimate=0 / interlaced=0 / bluray_compat=0 / constrained_intra=0 / bframes=8 / b_pyramid=2 / b_adapt=2 / b_bias=0 / direct=1 / weightb=1 / open_gop=0 / weightp=2 / keyint=250 / keyint_min=23 / scenecut=40 / intra_refresh=0 / rc=crf / mbtree=0 / crf=15.8 / qcomp=0.70 / qpmin=9 / qpmax=40 / qpstep=4 / ip_ratio=1.40 / pb_ratio=1.30 / aq=1:0.90
Default : Нет
Forced : Нет

Аудио
Идентификатор : 2
Формат : Vorbis
Параметр Floor формата : 1
Идентификатор кодека : A_VORBIS
Продолжительность : 26 м.
Вид битрейта : Переменный
Битрейт : 256 Кбит/сек
Каналы : 2 канала
Частота : 48,0 КГц
Метод сжатия : С потерями
Размер потока : 49,2 Мбайт (9%)
Библиотека кодирования : libVorbis (Schaufenugget) (20101101 (Schaufenugget))
Язык : Japanese
Default : Да
Forced : Нет


Данный релиз предназначен для просмотра на ПК. Воспроизведение на иных проигрывателях не гарантируется. Для просмотра рекомендуется Media Player Classic с установленным пакетом кодеков K-Lite.

Данный релиз содержит 10-битное видео (Hi10p). Для корректного воспроизведения обязательно используйте кодеки, поддерживающие 10-битное видео.

Данный релиз предназначен для просмотра с внешними субтитрами и внешними звуковыми дорожками.

Для просмотра с внешней звуковой дорожкой нужно:
перекинуть файлы .mka из папки "RUS Sound [<автор(ы) озвучки>]" в одну папку с видео и переключить звуковую дорожку в плеере при просмотре.
Для просмотра с субтитрами нужно:
перекинуть файлы .ass из папки "RUS Subtitles [<автор(ы) перевода>]" в одну папку с видео - плеер подгрузит их автоматически при открытии видео.


Трекер:  [ 06-Май-2013 18:58 ]

  

Скачать .torrent

Размер .torrent файла 48 KB


Размер: 7.82 GB
Хэш (hash) релиза: d97f2fd78bff71b24fa76507116759e25dd6c687
Подписка на обновления:

Торренты, похожие на Под мостом над Аракавой скачать торрент

Форум Название Автор Размер S L Добавлен
Аниме | HD Rips ·· Под мостом над Аракавой (ТВ-1) / Arakawa Under the Bridge (Симбо Акиюки) [TV] [13 из 13] [без хардсаба] [RUS(ext),JAP+SUB] [2010 г., комедия, романтика, повседневность, BDRip] [1080p] Galfimbul 1452036132313.52 GB 0 0 1427913887

21:44

1-Апр-15

Аниме | HD Rips ·· Под мостом над Аракавой / Arakawa Under the Bridge [TV] [1-2 из 13] [Без хардсаба] [RUS(int), JAP+SUB] [2010 г., комедия, романтика, повседневность, BDRip] [1080p] Galfimbul 27816075742.59 GB 0 0 1416647074

12:04

22-Ноя-14

Аниме | Rips ·· Под мостом над Аракавой / Arakawa Under the Bridge [TV] [1-2 из 13] [Без хардсаба] [RUS(ext), JAP+SUB] [2010 г., комедия, романтика, повседневность, BDRip] [1080p] Galfimbul 41344268663.85 GB 0 0 1416593324

21:08

21-Ноя-14

Аниме | HD Rips ·· Под мостом над Аракавой [ТВ-1] / Arakawa Under the Bridge [01-13 из 13] [TV] [без хардсаба] [RUS(int), JAP+SUB] [2010, комедия, романтика, повседневность, BDRip] [720p] Galfimbul 51710100804.82 GB 0 0 1411808480

12:01

27-Сен-14

Манга ·· Nakamura Hikaru - Под мостом над Аракавой / Arakawa Under The Bridge [manga] [Главы 1-88] [2004 г., сэйнэн, комедия, повседневность, романтика] [incomplete] Polarnik 198160807189 MB 0 0 1378478066

17:34

6-Сен-13

Манга ·· Nakamura Hikaru - Под мостом над Аракавой / Arakawa Under The Bridge [manga] [1-84] [2004 г., комедия, сэйнэн] [incomplete] Polarnik 178983632171 MB 0 0 1378111890

11:51

2-Сен-13

Аниме | HD Rips ·· Под мостом над Аракавой [ТВ-2] / Arakawa Under the Bridge x Bridge [TV] [1-13 из 13] [RUS(Int),JAP+SUB] [2010 г., комедия, романтика, повседневность, BDRip] [720p][любительская] L 85175659027.93 GB 0 0 1317649822

16:50

3-Окт-11

Аниме | HD Rips ·· Под мостом над Аракавой / Arakawa Under the Bridge [TV][1-13 из 13][JAP+SUB][2010, комедия, романтика, повседневность, DTVRip] Memorias 43694993324.07 GB 0 0 1290021184

22:13

17-Ноя-10

Еще никто не оставлял запись к записи скачать торрент Под мостом над Аракавой . Будь первым!

!Обратная связь