Скачать через торрент музыку Американский мечтатель The American Dreamer - 2007 бесплатно без регистрации torrent

Если у вас наблюдаются проблемы со скриншотами, переходом по ссылками, скачиванием торрентов - проблемы в блокировщике рекламы AdBlock. #хорошегоДня!


Статистика раздачи
Размер:  213 MB   |    Зарегистрирован:  4 года 7 месяцев   |    .torrent скачан:  25 раз   |   
Раздают:  1  
   
Загрузка...
 
Автор Сообщение

Galfimbul

avatar Galfimbul


Американский мечтатель | The American Dreamer

Жанр: Soundtrack
Год выпуска диска: 2007
Год выпуска фильма: 1971
Страна-производитель диска: EU
Издатель (лейбл): Smart Weed
Номер по каталогу: Smartweed3
Аудио кодек: FLAC (*.flac)
Тип рипа: tracks+.cue
Битрейт аудио: lossless
Продолжительность: 00:28:44
Источник: Собственный рип
Наличие сканов в содержимом раздачи: да

Треклист:
1. American Dreamer (01:51) - Gene Clark
2. Pass Me By (02:26) - Hello People
3. Whole Song (04:15) - John Manning
4. Outlaw Song (01:05) - Gene Clark
5. Easy Rider, 1970 (04:40) - Chris Sikelianos
6. The Screaming Metaphysical Blues (02:05) - John Buck Wilkin
7. Hard Road to New Mexico (05:31) - John Manning
8. Look At Me, Mama (02:08) - John Buck Wilkin
9. Sun, Moon, and Stars (01:40) - John Buck Wilkin
10. Other Side of This Life (03:03) - Abbey Road Singers
Exact Audio Copy V1.0 beta 3 from 29. August 2011

EAC extraction logfile from 15. April 2013, 11:27

Various / The American Dreamer

Used drive : PLEXTOR DVDR PX-L890SA Adapter: 1 ID: 0

Read mode : SecureUtilize accurate stream : YesDefeat audio cache : YesMake use of C2 pointers : No

Read offset correction : 6Overread into Lead-In and Lead-Out : NoFill up missing offset samples with silence : YesDelete leading and trailing silent blocks : NoNull samples used in CRC calculations : YesUsed interface : Installed external ASPI interfaceGap handling : Appended to previous track

Used output format : User Defined EncoderSelected bitrate : 1024 kBit/sQuality : HighAdd ID3 tag : NoCommand line compressor : C:\Program Files\Exact Audio Copy\Flac\flac.exeAdditional command line options : -V -8 -T "Genre=%genre%" -T "Artist=%artist%" -T "Title=%title%" -T "Album=%albumtitle%" -T "Date=%year%" -T "Tracknumber=%tracknr%" -T "Comment=%comment%" %source%

TOC of the extracted CD

Track | Start | Length | Start sector | End sector --------------------------------------------------------- 1 | 0:00.00 | 1:54.38 | 0 | 8587 2 | 1:54.38 | 2:29.32 | 8588 | 19794 3 | 4:23.70 | 4:18.71 | 19795 | 39215 4 | 8:42.66 | 1:09.05 | 39216 | 44395 5 | 9:51.71 | 4:43.02 | 44396 | 65622 6 | 14:34.73 | 2:11.21 | 65623 | 75468 7 | 16:46.19 | 5:31.07 | 75469 | 100300 8 | 22:17.26 | 2:12.56 | 100301 | 110256 9 | 24:30.07 | 1:44.59 | 110257 | 118115 10 | 26:14.66 | 3:10.01 | 118116 | 132366

Track 1

Filename F:\torrent\American Dreamer_OST\ost\01 American Dreamer.wav

Pre-gap length 0:00:02.00

Peak level 88.3 % Extraction speed 1.2 X Track quality 99.9 % Test CRC E143E7B6 Copy CRC E143E7B6 Track not present in AccurateRip database Copy OK

Track 2

Filename F:\torrent\American Dreamer_OST\ost\02 Pass Me By.wav

Peak level 94.6 % Extraction speed 1.7 X Track quality 100.0 % Test CRC 3B9A9043 Copy CRC 3B9A9043 Track not present in AccurateRip database Copy OK

Track 3

Filename F:\torrent\American Dreamer_OST\ost\03 Whole Song.wav

Peak level 96.6 % Extraction speed 1.8 X Track quality 99.9 % Test CRC DFD9D659 Copy CRC DFD9D659 Track not present in AccurateRip database Copy OK

Track 4

Filename F:\torrent\American Dreamer_OST\ost\04 Outlaw Song.wav

Peak level 95.9 % Extraction speed 1.1 X Track quality 99.8 % Test CRC 9CD816E9 Copy CRC 9CD816E9 Track not present in AccurateRip database Copy OK

Track 5

Filename F:\torrent\American Dreamer_OST\ost\05 Easy Rider, 1970.wav

Peak level 90.4 % Extraction speed 2.3 X Track quality 100.0 % Test CRC 239A3456 Copy CRC 239A3456 Track not present in AccurateRip database Copy OK

Track 6

Filename F:\torrent\American Dreamer_OST\ost\06 The Screaming Metaphysical Blues.wav

Pre-gap length 0:00:02.00

Peak level 91.9 % Extraction speed 2.2 X Track quality 100.0 % Test CRC 21EC81DC Copy CRC 21EC81DC Track not present in AccurateRip database Copy OK

Track 7

Filename F:\torrent\American Dreamer_OST\ost\07 Hard Road To New Mexico.wav

Peak level 98.8 % Extraction speed 2.7 X Track quality 100.0 % Test CRC F5FDF3BE Copy CRC F5FDF3BE Track not present in AccurateRip database Copy OK

Track 8

Filename F:\torrent\American Dreamer_OST\ost\08 Look At Me, Mama.wav

Peak level 95.7 % Extraction speed 2.4 X Track quality 100.0 % Test CRC D027633E Copy CRC D027633E Track not present in AccurateRip database Copy OK

Track 9

Filename F:\torrent\American Dreamer_OST\ost\09 Sun, Moon, And Stars.wav

Peak level 92.3 % Extraction speed 2.3 X Track quality 100.0 % Test CRC DC3C3D5E Copy CRC DC3C3D5E Track not present in AccurateRip database Copy OK

Track 10

Filename F:\torrent\American Dreamer_OST\ost\10 The Other Side Of This Life.wav

Peak level 99.8 % Extraction speed 2.7 X Track quality 100.0 % Test CRC 83111C7C Copy CRC 83111C7C Track not present in AccurateRip database Copy OK

None of the tracks are present in the AccurateRip database

No errors occurred

End of status report

==== Log checksum A82A85411CCA0A62B43973098A751E58903658F91E51DFED485D0F2BF919201A ====
REM GENRE SoundtrackREM DATE 2007REM DISCID 8206E40AREM COMMENT "ExactAudioCopy v1.0b3"PERFORMER "Various"TITLE "The American Dreamer"FILE "01 American Dreamer.wav" WAVE TRACK 01 AUDIO TITLE "American Dreamer" PERFORMER "Gene Clark" INDEX 01 00:00:00FILE "02 Pass Me By.wav" WAVE TRACK 02 AUDIO TITLE "Pass Me By" PERFORMER "Hello People" INDEX 01 00:00:00FILE "03 Whole Song.wav" WAVE TRACK 03 AUDIO TITLE "Whole Song" PERFORMER "John Manning" INDEX 01 00:00:00FILE "04 Outlaw Song.wav" WAVE TRACK 04 AUDIO TITLE "Outlaw Song" PERFORMER "Gene Clark" INDEX 01 00:00:00FILE "05 Easy Rider, 1970.wav" WAVE TRACK 05 AUDIO TITLE "Easy Rider, 1970" PERFORMER "Chris Sikelianos" INDEX 01 00:00:00 TRACK 06 AUDIO TITLE "The Screaming Metaphysical Blues" PERFORMER "John Buck Wilkin" INDEX 00 04:41:02FILE "06 The Screaming Metaphysical Blues.wav" WAVE INDEX 01 00:00:00FILE "07 Hard Road To New Mexico.wav" WAVE TRACK 07 AUDIO TITLE "Hard Road To New Mexico" PERFORMER "John Manning" INDEX 01 00:00:00FILE "08 Look At Me, Mama.wav" WAVE TRACK 08 AUDIO TITLE "Look At Me, Mama" PERFORMER "John Buck Wilkin" INDEX 01 00:00:00FILE "09 Sun, Moon, And Stars.wav" WAVE TRACK 09 AUDIO TITLE "Sun, Moon, And Stars" PERFORMER "John Buck Wilkin" INDEX 01 00:00:00FILE "10 The Other Side Of This Life.wav" WAVE TRACK 10 AUDIO TITLE "The Other Side Of This Life" PERFORMER "Abbey Road Singers" INDEX 01 00:00:00
AUDIOCHECKER v2.0 beta (build 457) - by Dester - opdester@freemail.hu~~~~~~~~~~~~~~~~~~~~~~~~~~~~~~~~~~-=== НЕ РЕДАКТИРУЙТЕ ЭТОТ ФАЙЛ! ===-

Путь: ...\ost

01 -=- 01 American Dreamer.flac -=- CDDA (100%)02 -=- 02 Pass Me By.flac -=- CDDA (100%)03 -=- 03 Whole Song.flac -=- CDDA (99%)04 -=- 04 Outlaw Song.flac -=- CDDA (100%)05 -=- 05 Easy Rider, 1970.flac -=- CDDA (100%)06 -=- 06 The Screaming Metaphysical Blues.flac -=- CDDA (100%)07 -=- 07 Hard Road To New Mexico.flac -=- CDDA (100%)08 -=- 08 Look At Me, Mama.flac -=- CDDA (99%)09 -=- 09 Sun, Moon, And Stars.flac -=- CDDA (100%)10 -=- 10 The Other Side Of This Life.flac -=- CDDA (99%)

Сводка 99,70% CDDA

116976356


Трекер:  [ 13-Май-2013 15:25 ]

  

Скачать .torrent

Размер .torrent файла 18 KB


Размер: 213 MB
Хэш (hash) релиза: b533b29a010dd5fdf756ef6ad70bb6e569cf2e36

bot

Топик был перенесен в форум Саундтреки к фильмам и мультфильмам (lossless)

Перенес Galfimbul

Хотите добавить комментарий к записи скачать торрент Американский мечтатель The American Dreamer - 2007

!Обратная связь