Скачать через торрент музыку Спартак: Кровь и Песок бесплатно без регистрации torrent

Если у вас наблюдаются проблемы со скриншотами, переходом по ссылками, скачиванием торрентов - проблемы в блокировщике рекламы AdBlock. #хорошегоДня!


Статистика раздачи
Размер:  380 MB   |    Зарегистрирован:  4 года 6 месяцев   |    .torrent скачан:  53 раза   |   
Раздают:  1  
   
Загрузка...
 
Автор Сообщение

Galfimbul

avatar Galfimbul


Спартак: Кровь и Песок (Война проклятых) / Spartacus: Blood And Sand (War Of The Damned)

Жанр: Score
Композитор: Joseph LoDuca
Год выпуска диска: 2013
Издатель (лейбл): Varese Sarabande
Номер по каталогу: VSD-7184
Аудиокодек: FLAC (*.flac)
Тип рипа: tracks+.cue
Битрейт аудио: lossless
Продолжительность: 76:46
Источник: what.cd (nazgul68)
Наличие сканов в содержимом раздачи: да
Треклист:
01. Rebel Army (3:24)
02. Trapped Animals (2:15)
03. Getaway (1:35)
04. Shelter From The Storm (1:04)
05. Crassus V. Spartacus / Agron Rescue (4:05)
06. Gannicus V. Caesar (1:55)
07. Final Glory (1:10)
08. A Free Man / Final Credits (6:56)
09. Tribute Games (2:49)
10. Ad Roma (2:44)
11. Crassus’ Army (2:38)
12. Sending Message / Crixus’ Fate (3:18)
13. Young Offering (2:12)
14. Caesar Tested (1:53)
15. Stoning (1:25)
16. Crassus’ Scheme / Sole Command (2:46)
17. Soaring Heights (2:14)
18. Decimation / Death Surrounds (5:31)
19. Wolf’s Bite / Huff And Puff (3:03)
20. Spartans In Flight (2:32)
21. Roar On (2:38)
22. Titans Crash / Leaving City (1:22)
23. Returns A Hero (1:37)
24. Crixus’ Heart / Alpha Fight (2:32)
25. Everything Is Clear (1:03)
26. Agron Crucified (1:41)
27. Gratitude (2:00)
28. Cry Of Freedom (1:42)
29. Gannicus Crucified (1:43)
30. Remembrance / Honor The Fallen (5:02)
Exact Audio Copy V1.0 beta 3 from 29. August 2011

EAC extraction logfile from 24. April 2013, 21:37

Joseph LoDuca / Spartacus: War Of The Damned

Used drive : HL-DT-STBD-RE BH10LS38 Adapter: 1 ID: 0

Read mode : SecureUtilize accurate stream : YesDefeat audio cache : YesMake use of C2 pointers : No

Read offset correction : 667Overread into Lead-In and Lead-Out : NoFill up missing offset samples with silence : YesDelete leading and trailing silent blocks : NoNull samples used in CRC calculations : YesUsed interface : Native Win32 interface for Win NT & 2000Gap handling : Appended to previous track

Used output format : User Defined EncoderSelected bitrate : 768 kBit/sQuality : HighAdd ID3 tag : NoCommand line compressor : C:\Program Files (x86)\Exact Audio Copy\FLAC\FLAC.EXEAdditional command line options : -8 -V -T "ARTIST=%artist%" -T "TITLE=%title%" -T "ALBUM=%albumtitle%" -T "DATE=%year%" -T "TRACKNUMBER=%tracknr%" -T "GENRE=%genre%" -T "PERFORMER=%albuminterpret%" -T "COMPOSER=%composer%" %haslyrics%--tag-from-file=LYRICS="%lyricsfile%"%haslyrics% -T "ALBUMARTIST=%albumartist%" -T "ALBUM ARTIST=%albumartist%" -T "DISCNUMBER=%cdnumber%" -T "TOTALDISCS=%totalcds%" -T "TOTALTRACKS=%numtracks%" -T "COMMENT=%comment%" %source% -o %dest%

TOC of the extracted CD

Track | Start | Length | Start sector | End sector --------------------------------------------------------- 1 | 0:00.00 | 3:23.44 | 0 | 15268 2 | 3:23.44 | 2:15.31 | 15269 | 25424 3 | 5:39.00 | 1:34.72 | 25425 | 32546 4 | 7:13.72 | 1:04.14 | 32547 | 37360 5 | 8:18.11 | 4:04.69 | 37361 | 55729 6 | 12:23.05 | 1:54.56 | 55730 | 64335 7 | 14:17.61 | 1:10.35 | 64336 | 69620 8 | 15:28.21 | 6:55.55 | 69621 | 100800 9 | 22:24.01 | 2:49.18 | 100801 | 113493 10 | 25:13.19 | 2:44.07 | 113494 | 125800 11 | 27:57.26 | 2:37.74 | 125801 | 137649 12 | 30:35.25 | 3:17.43 | 137650 | 152467 13 | 33:52.68 | 2:11.64 | 152468 | 162356 14 | 36:04.57 | 1:53.06 | 162357 | 170837 15 | 37:57.63 | 1:24.44 | 170838 | 177181 16 | 39:22.32 | 2:45.48 | 177182 | 189604 17 | 42:08.05 | 2:13.69 | 189605 | 199648 18 | 44:21.74 | 5:30.45 | 199649 | 224443 19 | 49:52.44 | 3:02.40 | 224444 | 238133 20 | 52:55.09 | 2:31.51 | 238134 | 249509 21 | 55:26.60 | 2:37.68 | 249510 | 261352 22 | 58:04.53 | 1:22.03 | 261353 | 267505 23 | 59:26.56 | 1:36.48 | 267506 | 274753 24 | 61:03.29 | 2:31.58 | 274754 | 286136 25 | 63:35.12 | 1:03.12 | 286137 | 290873 26 | 64:38.24 | 1:41.30 | 290874 | 298478 27 | 66:19.54 | 2:00.00 | 298479 | 307478 28 | 68:19.54 | 1:41.39 | 307479 | 315092 29 | 70:01.18 | 1:42.44 | 315093 | 322786 30 | 71:43.62 | 5:02.25 | 322787 | 345461

Track 1

Filename C:\Users\chris\Desktop\Rips\Spartacus - War Of The Damned - 2013\01 - Rebel Army.wav

Pre-gap length 0:00:02.00

Peak level 100.0 % Extraction speed 1.2 X Track quality 100.0 % Test CRC 6D046DB5 Copy CRC 6D046DB5 Track not present in AccurateRip database Copy OK

Track 2

Filename C:\Users\chris\Desktop\Rips\Spartacus - War Of The Damned - 2013\02 - Trapped Animals.wav

Peak level 99.3 % Extraction speed 1.0 X Track quality 99.9 % Test CRC FB2F432D Copy CRC FB2F432D Track not present in AccurateRip database Copy OK

Track 3

Filename C:\Users\chris\Desktop\Rips\Spartacus - War Of The Damned - 2013\03 - Getaway.wav

Peak level 100.0 % Extraction speed 0.9 X Track quality 99.8 % Test CRC DACF199D Copy CRC DACF199D Track not present in AccurateRip database Copy OK

Track 4

Filename C:\Users\chris\Desktop\Rips\Spartacus - War Of The Damned - 2013\04 - Shelter From The Storm.wav

Peak level 41.0 % Extraction speed 1.0 X Track quality 100.0 % Test CRC FD9F1A26 Copy CRC FD9F1A26 Track not present in AccurateRip database Copy OK

Track 5

Filename C:\Users\chris\Desktop\Rips\Spartacus - War Of The Damned - 2013\05 - Crassus V. Spartacus , Agron Rescue.wav

Peak level 100.0 % Extraction speed 1.5 X Track quality 100.0 % Test CRC 988E8E36 Copy CRC 988E8E36 Track not present in AccurateRip database Copy OK

Track 6

Filename C:\Users\chris\Desktop\Rips\Spartacus - War Of The Damned - 2013\06 - Gannicus V. Caesar.wav

Peak level 100.0 % Extraction speed 1.3 X Track quality 100.0 % Test CRC A6DE36C7 Copy CRC A6DE36C7 Track not present in AccurateRip database Copy OK

Track 7

Filename C:\Users\chris\Desktop\Rips\Spartacus - War Of The Damned - 2013\07 - Final Glory.wav

Peak level 99.3 % Extraction speed 1.2 X Track quality 100.0 % Test CRC 5D7FBC96 Copy CRC 5D7FBC96 Track not present in AccurateRip database Copy OK

Track 8

Filename C:\Users\chris\Desktop\Rips\Spartacus - War Of The Damned - 2013\08 - A Free Man , Final Credits.wav

Peak level 99.3 % Extraction speed 1.8 X Track quality 100.0 % Test CRC 6B4E79E6 Copy CRC 6B4E79E6 Track not present in AccurateRip database Copy OK

Track 9

Filename C:\Users\chris\Desktop\Rips\Spartacus - War Of The Damned - 2013\09 - Tribute Games.wav

Peak level 98.8 % Extraction speed 1.7 X Track quality 100.0 % Test CRC FC7C89B0 Copy CRC FC7C89B0 Track not present in AccurateRip database Copy OK

Track 10

Filename C:\Users\chris\Desktop\Rips\Spartacus - War Of The Damned - 2013\10 - Ad Roma.wav

Peak level 99.7 % Extraction speed 1.8 X Track quality 100.0 % Test CRC 1A2D8DB2 Copy CRC 1A2D8DB2 Track not present in AccurateRip database Copy OK

Track 11

Filename C:\Users\chris\Desktop\Rips\Spartacus - War Of The Damned - 2013\11 - Crassus’ Army.wav

Peak level 98.8 % Extraction speed 1.8 X Track quality 100.0 % Test CRC E5581BF8 Copy CRC E5581BF8 Track not present in AccurateRip database Copy OK

Track 12

Filename C:\Users\chris\Desktop\Rips\Spartacus - War Of The Damned - 2013\12 - Sending Message , Crixus’ Fate.wav

Peak level 98.8 % Extraction speed 1.9 X Track quality 100.0 % Test CRC 1328BFF4 Copy CRC 1328BFF4 Track not present in AccurateRip database Copy OK

Track 13

Filename C:\Users\chris\Desktop\Rips\Spartacus - War Of The Damned - 2013\13 - Young Offering.wav

Peak level 98.8 % Extraction speed 1.8 X Track quality 100.0 % Test CRC 0F3E73E2 Copy CRC 0F3E73E2 Track not present in AccurateRip database Copy OK

Track 14

Filename C:\Users\chris\Desktop\Rips\Spartacus - War Of The Damned - 2013\14 - Caesar Tested.wav

Peak level 99.1 % Extraction speed 1.8 X Track quality 100.0 % Test CRC 4629E9D7 Copy CRC 4629E9D7 Track not present in AccurateRip database Copy OK

Track 15

Filename C:\Users\chris\Desktop\Rips\Spartacus - War Of The Damned - 2013\15 - Stoning.wav

Peak level 99.1 % Extraction speed 1.7 X Track quality 100.0 % Test CRC 37A0CC59 Copy CRC 37A0CC59 Track not present in AccurateRip database Copy OK

Track 16

Filename C:\Users\chris\Desktop\Rips\Spartacus - War Of The Damned - 2013\16 - Crassus’ Scheme , Sole Command.wav

Peak level 100.0 % Extraction speed 1.7 X Track quality 99.9 % Test CRC 4D321E8B Copy CRC 4D321E8B Track not present in AccurateRip database Copy OK

Track 17

Filename C:\Users\chris\Desktop\Rips\Spartacus - War Of The Damned - 2013\17 - Soaring Heights.wav

Peak level 98.5 % Extraction speed 1.9 X Track quality 100.0 % Test CRC 3969B095 Copy CRC 3969B095 Track not present in AccurateRip database Copy OK

Track 18

Filename C:\Users\chris\Desktop\Rips\Spartacus - War Of The Damned - 2013\18 - Decimation , Death Surrounds.wav

Peak level 98.9 % Extraction speed 2.3 X Track quality 100.0 % Test CRC 3778150E Copy CRC 3778150E Track not present in AccurateRip database Copy OK

Track 19

Filename C:\Users\chris\Desktop\Rips\Spartacus - War Of The Damned - 2013\19 - Wolf’s Bite , Huff And Puff.wav

Peak level 100.0 % Extraction speed 2.2 X Track quality 100.0 % Test CRC 18DF1AD3 Copy CRC 18DF1AD3 Track not present in AccurateRip database Copy OK

Track 20

Filename C:\Users\chris\Desktop\Rips\Spartacus - War Of The Damned - 2013\20 - Spartans In Flight.wav

Peak level 99.1 % Extraction speed 2.2 X Track quality 100.0 % Test CRC DFB415AA Copy CRC DFB415AA Track not present in AccurateRip database Copy OK

Track 21

Filename C:\Users\chris\Desktop\Rips\Spartacus - War Of The Damned - 2013\21 - Roar On.wav

Peak level 100.0 % Extraction speed 2.3 X Track quality 100.0 % Test CRC FCF16AAD Copy CRC FCF16AAD Track not present in AccurateRip database Copy OK

Track 22

Filename C:\Users\chris\Desktop\Rips\Spartacus - War Of The Damned - 2013\22 - Titans Crash , Leaving City.wav

Peak level 100.0 % Extraction speed 1.9 X Track quality 100.0 % Test CRC 3D12643A Copy CRC 3D12643A Track not present in AccurateRip database Copy OK

Track 23

Filename C:\Users\chris\Desktop\Rips\Spartacus - War Of The Damned - 2013\23 - Returns A Hero.wav

Peak level 57.8 % Extraction speed 2.0 X Track quality 100.0 % Test CRC 44653081 Copy CRC 44653081 Track not present in AccurateRip database Copy OK

Track 24

Filename C:\Users\chris\Desktop\Rips\Spartacus - War Of The Damned - 2013\24 - Crixus’ Heart , Alpha Fight.wav

Peak level 100.0 % Extraction speed 2.3 X Track quality 100.0 % Test CRC 2C000CEA Copy CRC 2C000CEA Track not present in AccurateRip database Copy OK

Track 25

Filename C:\Users\chris\Desktop\Rips\Spartacus - War Of The Damned - 2013\25 - Everything Is Clear.wav

Peak level 94.4 % Extraction speed 1.8 X Track quality 100.0 % Test CRC D4FF92EC Copy CRC D4FF92EC Track not present in AccurateRip database Copy OK

Track 26

Filename C:\Users\chris\Desktop\Rips\Spartacus - War Of The Damned - 2013\26 - Agron Crucified.wav

Peak level 99.6 % Extraction speed 2.1 X Track quality 100.0 % Test CRC 604C79A4 Copy CRC 604C79A4 Track not present in AccurateRip database Copy OK

Track 27

Filename C:\Users\chris\Desktop\Rips\Spartacus - War Of The Damned - 2013\27 - Gratitude.wav

Peak level 53.6 % Extraction speed 2.3 X Track quality 100.0 % Test CRC 86953136 Copy CRC 86953136 Track not present in AccurateRip database Copy OK

Track 28

Filename C:\Users\chris\Desktop\Rips\Spartacus - War Of The Damned - 2013\28 - Cry Of Freedom.wav

Peak level 99.8 % Extraction speed 2.2 X Track quality 100.0 % Test CRC CBA44831 Copy CRC CBA44831 Track not present in AccurateRip database Copy OK

Track 29

Filename C:\Users\chris\Desktop\Rips\Spartacus - War Of The Damned - 2013\29 - Gannicus Crucified.wav

Peak level 98.8 % Extraction speed 1.7 X Track quality 99.8 % Test CRC CBBA609E Copy CRC CBBA609E Track not present in AccurateRip database Copy OK

Track 30

Filename C:\Users\chris\Desktop\Rips\Spartacus - War Of The Damned - 2013\30 - Remembrance , Honor The Fallen.wav

Peak level 98.8 % Extraction speed 2.8 X Track quality 100.0 % Test CRC 6DEDDD28 Copy CRC 6DEDDD28 Track not present in AccurateRip database Copy OK

None of the tracks are present in the AccurateRip database

No errors occurred

End of status report

==== Log checksum F1536B2EAA8AD71E4225AD4D004BE58C5804BEC27E4EDB4919EE442591DA4B28 ====
REM GENRE SoundtrackREM DATE 2013REM DISCID BE11FE1EREM COMMENT "ExactAudioCopy v1.0b3"PERFORMER "Joseph LoDuca"TITLE "Spartacus: War Of The Damned"FILE "01 - Rebel Army.wav" WAVE TRACK 01 AUDIO TITLE "Rebel Army" PERFORMER "Joseph LoDuca" INDEX 01 00:00:00FILE "02 - Trapped Animals.wav" WAVE TRACK 02 AUDIO TITLE "Trapped Animals" PERFORMER "Joseph LoDuca" INDEX 01 00:00:00FILE "03 - Getaway.wav" WAVE TRACK 03 AUDIO TITLE "Getaway" PERFORMER "Joseph LoDuca" INDEX 01 00:00:00FILE "04 - Shelter From The Storm.wav" WAVE TRACK 04 AUDIO TITLE "Shelter From The Storm" PERFORMER "Joseph LoDuca" INDEX 01 00:00:00FILE "05 - Crassus V. Spartacus , Agron Rescue.wav" WAVE TRACK 05 AUDIO TITLE "Crassus V. Spartacus / Agron Rescue" PERFORMER "Joseph LoDuca" INDEX 01 00:00:00FILE "06 - Gannicus V. Caesar.wav" WAVE TRACK 06 AUDIO TITLE "Gannicus V. Caesar" PERFORMER "Joseph LoDuca" INDEX 01 00:00:00FILE "07 - Final Glory.wav" WAVE TRACK 07 AUDIO TITLE "Final Glory" PERFORMER "Joseph LoDuca" INDEX 01 00:00:00FILE "08 - A Free Man , Final Credits.wav" WAVE TRACK 08 AUDIO TITLE "A Free Man / Final Credits" PERFORMER "Joseph LoDuca" INDEX 01 00:00:00FILE "09 - Tribute Games.wav" WAVE TRACK 09 AUDIO TITLE "Tribute Games" PERFORMER "Joseph LoDuca" INDEX 01 00:00:00FILE "10 - Ad Roma.wav" WAVE TRACK 10 AUDIO TITLE "Ad Roma" PERFORMER "Joseph LoDuca" INDEX 01 00:00:00FILE "11 - Crassus’ Army.wav" WAVE TRACK 11 AUDIO TITLE "Crassus’ Army" PERFORMER "Joseph LoDuca" INDEX 01 00:00:00FILE "12 - Sending Message , Crixus’ Fate.wav" WAVE TRACK 12 AUDIO TITLE "Sending Message / Crixus’ Fate" PERFORMER "Joseph LoDuca" INDEX 01 00:00:00FILE "13 - Young Offering.wav" WAVE TRACK 13 AUDIO TITLE "Young Offering" PERFORMER "Joseph LoDuca" INDEX 01 00:00:00FILE "14 - Caesar Tested.wav" WAVE TRACK 14 AUDIO TITLE "Caesar Tested" PERFORMER "Joseph LoDuca" INDEX 01 00:00:00FILE "15 - Stoning.wav" WAVE TRACK 15 AUDIO TITLE "Stoning" PERFORMER "Joseph LoDuca" INDEX 01 00:00:00FILE "16 - Crassus’ Scheme , Sole Command.wav" WAVE TRACK 16 AUDIO TITLE "Crassus’ Scheme / Sole Command" PERFORMER "Joseph LoDuca" INDEX 01 00:00:00FILE "17 - Soaring Heights.wav" WAVE TRACK 17 AUDIO TITLE "Soaring Heights" PERFORMER "Joseph LoDuca" INDEX 01 00:00:00FILE "18 - Decimation , Death Surrounds.wav" WAVE TRACK 18 AUDIO TITLE "Decimation / Death Surrounds" PERFORMER "Joseph LoDuca" INDEX 01 00:00:00FILE "19 - Wolf’s Bite , Huff And Puff.wav" WAVE TRACK 19 AUDIO TITLE "Wolf’s Bite / Huff And Puff" PERFORMER "Joseph LoDuca" INDEX 01 00:00:00FILE "20 - Spartans In Flight.wav" WAVE TRACK 20 AUDIO TITLE "Spartans In Flight" PERFORMER "Joseph LoDuca" INDEX 01 00:00:00FILE "21 - Roar On.wav" WAVE TRACK 21 AUDIO TITLE "Roar On" PERFORMER "Joseph LoDuca" INDEX 01 00:00:00FILE "22 - Titans Crash , Leaving City.wav" WAVE TRACK 22 AUDIO TITLE "Titans Crash / Leaving City" PERFORMER "Joseph LoDuca" INDEX 01 00:00:00FILE "23 - Returns A Hero.wav" WAVE TRACK 23 AUDIO TITLE "Returns A Hero" PERFORMER "Joseph LoDuca" INDEX 01 00:00:00FILE "24 - Crixus’ Heart , Alpha Fight.wav" WAVE TRACK 24 AUDIO TITLE "Crixus’ Heart / Alpha Fight" PERFORMER "Joseph LoDuca" INDEX 01 00:00:00FILE "25 - Everything Is Clear.wav" WAVE TRACK 25 AUDIO TITLE "Everything Is Clear" PERFORMER "Joseph LoDuca" INDEX 01 00:00:00FILE "26 - Agron Crucified.wav" WAVE TRACK 26 AUDIO TITLE "Agron Crucified" PERFORMER "Joseph LoDuca" INDEX 01 00:00:00FILE "27 - Gratitude.wav" WAVE TRACK 27 AUDIO TITLE "Gratitude" PERFORMER "Joseph LoDuca" INDEX 01 00:00:00FILE "28 - Cry Of Freedom.wav" WAVE TRACK 28 AUDIO TITLE "Cry Of Freedom" PERFORMER "Joseph LoDuca" INDEX 01 00:00:00FILE "29 - Gannicus Crucified.wav" WAVE TRACK 29 AUDIO TITLE "Gannicus Crucified" PERFORMER "Joseph LoDuca" INDEX 01 00:00:00FILE "30 - Remembrance , Honor The Fallen.wav" WAVE TRACK 30 AUDIO TITLE "Remembrance / Honor The Fallen" PERFORMER "Joseph LoDuca" INDEX 01 00:00:00


Трекер:  [ 12-Июн-2013 16:30 ]

  

Скачать .torrent

Размер .torrent файла 17 KB


Размер: 380 MB
Хэш (hash) релиза: 9fcc341c0aeea3edd282d090e375de40c95042c9

Торренты, похожие на Спартак: Кровь и Песок скачать торрент

Форум Название Автор Размер S L Добавлен
Саундтреки к фильмам и мультфильмам (mp3) ·· (Score) Спартак: Кровь и Песок (Война проклятых) / Spartacus: Blood And Sand (War Of The Damned) (by Joseph LoDuca) - 2013, MP3, 320 kbps Galfimbul 184396238176 MB 0 0 1369235244

18:07

22-Май-13

Саундтреки ·· (Score) Спартак: Кровь и Песок (Месть) / Spartacus: Blood And Sand (Vengeance) (by Joseph LoDuca) - 2012, FLAC (tracks+.cue), lossless Galfimbul 699611766667 MB 0 0 1337193780

21:43

16-Май-12

Саундтреки ·· (Score) Спартак: Кровь и Песок (Месть) / Spartacus: Blood And Sand (Vengeance) (by Joseph LoDuca) [2CD] - 2012, MP3 (tracks), 320 kbps Umakiro 343019833327 MB 1 1 1337006160

17:36

14-Май-12

Саундтреки к фильмам и мультфильмам (lossless) ·· (Score) Спартак: Кровь и Песок / Spartacus: Blood And Sand (by Joseph LoDuca) - 2010, FLAC (tracks+.cue), lossless Galfimbul 386737876369 MB 0 0 1292268901

22:35

13-Дек-10

Саундтреки к фильмам и мультфильмам (mp3) ·· (Score) Спартак: Кровь и Песок / Spartacus: Blood And Sand (by Joseph LoDuca) - 2010, MP3 (tracks), 320 kbps Солнышко 200180947191 MB 0 0 1292265711

21:41

13-Дек-10

bot

Топик был перенесен в форум Саундтреки к фильмам и мультфильмам (lossless)

Перенес Galfimbul

Хотите добавить комментарий к записи скачать торрент Спартак: Кровь и Песок

!Обратная связь