Скачать через торрент музыку Стартрек: Возмездие Star Trek: Into Darkness бесплатно без регистрации torrent

Если у вас наблюдаются проблемы со скриншотами, переходом по ссылками, скачиванием торрентов - проблемы в блокировщике рекламы AdBlock. #хорошегоДня!


Статистика раздачи
Размер:  271 MB   |    Зарегистрирован:  4 года 6 месяцев   |    .torrent скачан:  37 раз   |   
Раздают:  1  
   
Загрузка...
 
Автор Сообщение

Galfimbul

avatar Galfimbul


СТАРТРЕК: ВОЗМЕЗДИЕ / STAR TREK INTO DARKNESS
Жанр: Score
Композитор: Michael Giacchino
Год выпуска диска: 2013
Страна-производитель диска: US
Издатель (лейбл): Varese Sarabande
Номер по каталогу: 302 067 198 2
Аудиокодек: FLAC (*.flac)
Тип рипа: tracks+.cue
Битрейт аудио: lossless
Продолжительность: 44:26
Источник: what.cd

Треклист:
01. Logos / Pranking The Natives (3:02)
02. Spock Drops, Kirk Jumps (1:45)
03. Sub Prime Directive (2:25)
04. London Calling (2:11)
05. Meld-Merized (2:41)
06. The Kronos Wartet (5:27)
07. Brigadoom (3:42)
08. Ship To Ship (2:52)
09. Earthbound And Down (2:39)
10. Warp Core Values (2:57)
11. Buying The Space Farm (3:18)
12. The San Fran Hustle (5:01)
13. Kirk Enterprises (3:01)
14. Star Trek Main Theme (3:26)
Exact Audio Copy V1.0 beta 3 from 29. August 2011

EAC extraction logfile from 24. May 2013, 18:12

Michael Giacchino / Star Trek Into Darkness

Used drive : HL-DT-STBD-RE BH10LS38 Adapter: 1 ID: 0

Read mode : SecureUtilize accurate stream : YesDefeat audio cache : YesMake use of C2 pointers : No

Read offset correction : 667Overread into Lead-In and Lead-Out : NoFill up missing offset samples with silence : YesDelete leading and trailing silent blocks : NoNull samples used in CRC calculations : YesUsed interface : Native Win32 interface for Win NT & 2000Gap handling : Appended to previous track

Used output format : User Defined EncoderSelected bitrate : 768 kBit/sQuality : HighAdd ID3 tag : NoCommand line compressor : C:\Program Files (x86)\Exact Audio Copy\FLAC\FLAC.EXEAdditional command line options : -8 -V -T "ARTIST=%artist%" -T "TITLE=%title%" -T "ALBUM=%albumtitle%" -T "DATE=%year%" -T "TRACKNUMBER=%tracknr%" -T "GENRE=%genre%" -T "PERFORMER=%albuminterpret%" -T "COMPOSER=%composer%" %haslyrics%--tag-from-file=LYRICS="%lyricsfile%"%haslyrics% -T "ALBUMARTIST=%albumartist%" -T "ALBUM ARTIST=%albumartist%" -T "DISCNUMBER=%cdnumber%" -T "TOTALDISCS=%totalcds%" -T "TOTALTRACKS=%numtracks%" -T "COMMENT=%comment%" %source% -o %dest%

TOC of the extracted CD

Track | Start | Length | Start sector | End sector --------------------------------------------------------- 1 | 0:00.00 | 3:02.01 | 0 | 13650 2 | 3:02.01 | 1:44.74 | 13651 | 21524 3 | 4:47.00 | 2:24.54 | 21525 | 32378 4 | 7:11.54 | 2:10.46 | 32379 | 42174 5 | 9:22.25 | 2:41.26 | 42175 | 54275 6 | 12:03.51 | 5:26.66 | 54276 | 78791 7 | 17:30.42 | 3:42.11 | 78792 | 95452 8 | 21:12.53 | 2:51.48 | 95453 | 108325 9 | 24:04.26 | 2:38.59 | 108326 | 120234 10 | 26:43.10 | 2:57.13 | 120235 | 133522 11 | 29:40.23 | 3:18.27 | 133523 | 148399 12 | 32:58.50 | 5:01.23 | 148400 | 170997 13 | 37:59.73 | 3:01.04 | 170998 | 184576 14 | 41:01.02 | 3:25.43 | 184577 | 199994

Track 1

Filename C:\Users\chris\Desktop\Rips\01 - Logos , Pranking The Natives.wav

Pre-gap length 0:00:02.00

Peak level 95.6 % Extraction speed 1.2 X Track quality 100.0 % Test CRC FE953EB1 Copy CRC FE953EB1 Track not present in AccurateRip database Copy OK

Track 2

Filename C:\Users\chris\Desktop\Rips\02 - Spock Drops, Kirk Jumps.wav

Pre-gap length 0:00:01.00

Peak level 97.1 % Extraction speed 1.1 X Track quality 100.0 % Test CRC 377F84D2 Copy CRC 377F84D2 Track not present in AccurateRip database Copy OK

Track 3

Filename C:\Users\chris\Desktop\Rips\03 - Sub Prime Directive.wav

Pre-gap length 0:00:01.00

Peak level 94.4 % Extraction speed 1.1 X Track quality 99.9 % Test CRC 559DBA71 Copy CRC 559DBA71 Track not present in AccurateRip database Copy OK

Track 4

Filename C:\Users\chris\Desktop\Rips\04 - London Calling.wav

Pre-gap length 0:00:00.74

Peak level 100.0 % Extraction speed 1.3 X Track quality 100.0 % Test CRC 59A55B0D Copy CRC 59A55B0D Track not present in AccurateRip database Copy OK

Track 5

Filename C:\Users\chris\Desktop\Rips\05 - Meld-Merized.wav

Pre-gap length 0:00:01.00

Peak level 96.6 % Extraction speed 1.2 X Track quality 99.9 % Test CRC B95F33C4 Copy CRC B95F33C4 Track not present in AccurateRip database Copy OK

Track 6

Filename C:\Users\chris\Desktop\Rips\06 - The Kronos Wartet.wav

Pre-gap length 0:00:01.00

Peak level 94.4 % Extraction speed 1.7 X Track quality 100.0 % Test CRC 6C4A39EE Copy CRC 6C4A39EE Track not present in AccurateRip database Copy OK

Track 7

Filename C:\Users\chris\Desktop\Rips\07 - Brigadoom.wav

Pre-gap length 0:00:00.74

Peak level 96.3 % Extraction speed 1.8 X Track quality 100.0 % Test CRC 4929AB74 Copy CRC 4929AB74 Track not present in AccurateRip database Copy OK

Track 8

Filename C:\Users\chris\Desktop\Rips\08 - Ship To Ship.wav

Pre-gap length 0:00:00.74

Peak level 95.5 % Extraction speed 1.5 X Track quality 99.9 % Test CRC 1B19869E Copy CRC 1B19869E Track not present in AccurateRip database Copy OK

Track 9

Filename C:\Users\chris\Desktop\Rips\09 - Earthbound And Down.wav

Pre-gap length 0:00:00.74

Peak level 94.4 % Extraction speed 1.8 X Track quality 100.0 % Test CRC 1B6D0F58 Copy CRC 1B6D0F58 Track not present in AccurateRip database Copy OK

Track 10

Filename C:\Users\chris\Desktop\Rips\10 - Warp Core Values.wav

Pre-gap length 0:00:01.00

Peak level 94.4 % Extraction speed 1.9 X Track quality 100.0 % Test CRC EE466285 Copy CRC EE466285 Track not present in AccurateRip database Copy OK

Track 11

Filename C:\Users\chris\Desktop\Rips\11 - Buying The Space Farm.wav

Pre-gap length 0:00:01.00

Peak level 94.4 % Extraction speed 2.0 X Track quality 100.0 % Test CRC E392EFE9 Copy CRC E392EFE9 Track not present in AccurateRip database Copy OK

Track 12

Filename C:\Users\chris\Desktop\Rips\12 - The San Fran Hustle.wav

Pre-gap length 0:00:01.06

Peak level 94.6 % Extraction speed 2.2 X Track quality 100.0 % Test CRC 7CF29D08 Copy CRC 7CF29D08 Track not present in AccurateRip database Copy OK

Track 13

Filename C:\Users\chris\Desktop\Rips\13 - Kirk Enterprises.wav

Pre-gap length 0:00:00.74

Peak level 94.4 % Extraction speed 2.2 X Track quality 100.0 % Test CRC 02912C2E Copy CRC 02912C2E Track not present in AccurateRip database Copy OK

Track 14

Filename C:\Users\chris\Desktop\Rips\14 - Star Trek Main Theme.wav

Pre-gap length 0:00:00.74

Peak level 94.4 % Extraction speed 2.3 X Track quality 100.0 % Test CRC 6CEF650B Copy CRC 6CEF650B Track not present in AccurateRip database Copy OK

None of the tracks are present in the AccurateRip database

No errors occurred

End of status report

==== Log checksum A1418AD454741B3D5E2E0072AAB3D62097BBA609EE5E28538CFD6D2F4DD0EC5A ====
REM GENRE SoundtrackREM DATE 2013REM DISCID BA0A6A0EREM COMMENT "ExactAudioCopy v1.0b3"PERFORMER "Michael Giacchino"TITLE "Star Trek Into Darkness"FILE "01 - Logos , Pranking The Natives.wav" WAVE TRACK 01 AUDIO TITLE "Logos / Pranking The Natives" PERFORMER "Michael Giacchino" INDEX 01 00:00:00 TRACK 02 AUDIO TITLE "Spock Drops, Kirk Jumps" PERFORMER "Michael Giacchino" INDEX 00 03:01:01FILE "02 - Spock Drops, Kirk Jumps.wav" WAVE INDEX 01 00:00:00 TRACK 03 AUDIO TITLE "Sub Prime Directive" PERFORMER "Michael Giacchino" INDEX 00 01:43:74FILE "03 - Sub Prime Directive.wav" WAVE INDEX 01 00:00:00 TRACK 04 AUDIO TITLE "London Calling" PERFORMER "Michael Giacchino" INDEX 00 02:23:55FILE "04 - London Calling.wav" WAVE INDEX 01 00:00:00 TRACK 05 AUDIO TITLE "Meld-Merized" PERFORMER "Michael Giacchino" INDEX 00 02:09:46FILE "05 - Meld-Merized.wav" WAVE INDEX 01 00:00:00 TRACK 06 AUDIO TITLE "The Kronos Wartet" PERFORMER "Michael Giacchino" INDEX 00 02:40:26FILE "06 - The Kronos Wartet.wav" WAVE INDEX 01 00:00:00 TRACK 07 AUDIO TITLE "Brigadoom" PERFORMER "Michael Giacchino" INDEX 00 05:25:67FILE "07 - Brigadoom.wav" WAVE INDEX 01 00:00:00 TRACK 08 AUDIO TITLE "Ship To Ship" PERFORMER "Michael Giacchino" INDEX 00 03:41:12FILE "08 - Ship To Ship.wav" WAVE INDEX 01 00:00:00 TRACK 09 AUDIO TITLE "Earthbound And Down" PERFORMER "Michael Giacchino" INDEX 00 02:50:49FILE "09 - Earthbound And Down.wav" WAVE INDEX 01 00:00:00 TRACK 10 AUDIO TITLE "Warp Core Values" PERFORMER "Michael Giacchino" INDEX 00 02:37:59FILE "10 - Warp Core Values.wav" WAVE INDEX 01 00:00:00 TRACK 11 AUDIO TITLE "Buying The Space Farm" PERFORMER "Michael Giacchino" INDEX 00 02:56:13FILE "11 - Buying The Space Farm.wav" WAVE INDEX 01 00:00:00 TRACK 12 AUDIO TITLE "The San Fran Hustle" PERFORMER "Michael Giacchino" INDEX 00 03:17:21FILE "12 - The San Fran Hustle.wav" WAVE INDEX 01 00:00:00 TRACK 13 AUDIO TITLE "Kirk Enterprises" PERFORMER "Michael Giacchino" INDEX 00 05:00:24FILE "13 - Kirk Enterprises.wav" WAVE INDEX 01 00:00:00 TRACK 14 AUDIO TITLE "Star Trek Main Theme" PERFORMER "Michael Giacchino" INDEX 00 03:00:05FILE "14 - Star Trek Main Theme.wav" WAVE INDEX 01 00:00:00


Трекер:  [ 12-Июн-2013 16:30 ]

  

Скачать .torrent

Размер .torrent файла 12 KB


Размер: 271 MB
Хэш (hash) релиза: 2456620f64400e6822b5ac16a978815e9d27765c

bot

Топик был перенесен в форум Саундтреки к фильмам и мультфильмам (lossless)

Перенес Galfimbul

Хотите добавить комментарий к записи скачать торрент Стартрек: Возмездие Star Trek: Into Darkness

!Обратная связь