Скачать через торрент музыку Египтянин The Egyptian бесплатно без регистрации torrent

Если у вас наблюдаются проблемы со скриншотами, переходом по ссылками, скачиванием торрентов - проблемы в блокировщике рекламы AdBlock. #хорошегоДня!


Статистика раздачи
Размер:  560 MB   |    Зарегистрирован:  4 года 6 месяцев   |    .torrent скачан:  29 раз   |   
Раздают:  1  
   
Загрузка...
 
Автор Сообщение

Galfimbul

avatar Galfimbul


Египтянин / The Egyptian [Deluxe Edition]
Жанр: Score
Композиторы: Alfred Newman & Bernard Herrmann
Год выпуска диска: 2011
Год выпуска фильма: 1954
Производитель диска: USA
Издатель (лейбл): Varese Sarabande
Номер по катологу: VCL 0711 1123

Аудиокодек: FLAC (*.flac)
Тип рипа: image+.cue
Битрейт аудио: lossless
Продолжительность: 01:56:55 (58:10; 59:20)
Источник: собственный рип
Наличие сканов в содержимом раздачи: да (600 dpi)

Треклист
01. Prelude* [01:42.49]
02. The Ruins* [00:52.30]
03. The Red Sea And Childhood* [02:49.71]
04. The Nile And The Temple* [01:13.70]
05. Crocodile Inn / Thebes† [01:24.73]
06. Her Name Was Merit† [01:12.43]
07. Death Of Pharaoh† [00:58.03]
08. Chant For Dead Pharaoh† [01:47.13]
09. The Chariot Ride / Pursuit* [01:50.71]
10. Akhnaton (The One Deity)† [01:42.36]
11. Put Them In Chains / The Throne Room† [02:00.12]
12. The Throne Room Part 2† [01:57.69]
13. Taia* [01:07.14]
14. Nubian Drums† [01:54.60]
15. Party''s End* [01:03.44]
16. Nefer Nefer Nefer* [05:27.24]
17. Kaptah''s Dilemma / The Garden† [03:56.20]
18. The Offering* [02:16.62]
19. The Harp Player* [00:47.15]
20. The Bracelet And The Helmet* [01:26.24]
21. The Rebuke* [03:24.14]
22. The Deed* [02:07.61]
23. The Harp And Couch* [01:17.52]
24. The Perfection Of Love* [01:17.12]
25. Violence* [02:15.39]
26. The House Of The Dead* [01:26.12]
27. The Burial* [01:26.11]
28. Valley Of The Kings (Sinuhe)† [05:35.55]
29. Valley Of The Kings Part 2† [01:45.34]

† - composed & conducted by Alfred Newman
* - composed & conducted by Bernard Herrmann
Exact Audio Copy V1.0 beta 3 from 29. August 2011

EAC extraction logfile from 25. March 2013, 21:14

Alfred Newman & Bernard Herrmann / The Egyptian (Disc 1)

Used drive : TSSTcorpCDDVDW SH-S202H Adapter: 0 ID: 0

Read mode : SecureUtilize accurate stream : YesDefeat audio cache : YesMake use of C2 pointers : No

Read offset correction : 6Overread into Lead-In and Lead-Out : NoFill up missing offset samples with silence : YesDelete leading and trailing silent blocks : NoNull samples used in CRC calculations : YesUsed interface : Native Win32 interface for Win NT & 2000

Used output format : Internal WAV RoutinesSample format : 44.100 Hz; 16 Bit; Stereo

TOC of the extracted CD

Track | Start | Length | Start sector | End sector --------------------------------------------------------- 1 | 0:00.00 | 1:42.49 | 0 | 7698 2 | 1:42.49 | 0:52.30 | 7699 | 11628 3 | 2:35.04 | 2:49.71 | 11629 | 24374 4 | 5:25.00 | 1:13.70 | 24375 | 29919 5 | 6:38.70 | 1:24.73 | 29920 | 36292 6 | 8:03.68 | 1:12.43 | 36293 | 41735 7 | 9:16.36 | 0:58.03 | 41736 | 46088 8 | 10:14.39 | 1:47.13 | 46089 | 54126 9 | 12:01.52 | 1:50.71 | 54127 | 62447 10 | 13:52.48 | 1:42.36 | 62448 | 70133 11 | 15:35.09 | 2:00.12 | 70134 | 79145 12 | 17:35.21 | 1:57.69 | 79146 | 87989 13 | 19:33.15 | 1:07.14 | 87990 | 93028 14 | 20:40.29 | 1:54.60 | 93029 | 101638 15 | 22:35.14 | 1:03.44 | 101639 | 106407 16 | 23:38.58 | 5:27.24 | 106408 | 130956 17 | 29:06.07 | 3:56.20 | 130957 | 148676 18 | 33:02.27 | 2:16.62 | 148677 | 158938 19 | 35:19.14 | 0:47.15 | 158939 | 162478 20 | 36:06.29 | 1:26.24 | 162479 | 168952 21 | 37:32.53 | 3:24.14 | 168953 | 184266 22 | 40:56.67 | 2:07.61 | 184267 | 193852 23 | 43:04.53 | 1:17.52 | 193853 | 199679 24 | 44:22.30 | 1:17.12 | 199680 | 205466 25 | 45:39.42 | 2:15.39 | 205467 | 215630 26 | 47:55.06 | 1:26.12 | 215631 | 222092 27 | 49:21.18 | 1:26.11 | 222093 | 228553 28 | 50:47.29 | 5:35.55 | 228554 | 253733 29 | 56:23.09 | 1:45.34 | 253734 | 261642

Range status and errors

Selected range

Filename D:\Alfred Newman & Bernard Herrmann - The Egyptian\Alfred Newman & Bernard Herrmann - The Egyptian (Disc 1).wav

Peak level 98.8 % Extraction speed 7.5 X Range quality 100.0 % Test CRC 668A83E6 Copy CRC 668A83E6 Copy OK

No errors occurred

AccurateRip summary

Track 1 accurately ripped (confidence 3) [D517094C] (AR v2)Track 2 accurately ripped (confidence 3) [7E29BE60] (AR v2)Track 3 accurately ripped (confidence 3) [BDD1C845] (AR v2)Track 4 accurately ripped (confidence 3) [693D133D] (AR v2)Track 5 accurately ripped (confidence 3) [DEF623E4] (AR v2)Track 6 accurately ripped (confidence 3) [F6DABD8C] (AR v2)Track 7 accurately ripped (confidence 3) [AD3F08FC] (AR v2)Track 8 accurately ripped (confidence 3) [CFC5BC17] (AR v2)Track 9 accurately ripped (confidence 3) [1ACB3CD5] (AR v2)Track 10 accurately ripped (confidence 3) [B3E6F6D4] (AR v2)Track 11 accurately ripped (confidence 3) [219A2BB8] (AR v2)Track 12 accurately ripped (confidence 3) [67706BDA] (AR v2)Track 13 accurately ripped (confidence 3) [9ECC318E] (AR v2)Track 14 accurately ripped (confidence 3) [E7443A41] (AR v2)Track 15 accurately ripped (confidence 3) [CD99382B] (AR v2)Track 16 accurately ripped (confidence 3) [1A8C62D0] (AR v2)Track 17 accurately ripped (confidence 3) [ED3B283F] (AR v2)Track 18 accurately ripped (confidence 3) [E5D7B0E3] (AR v2)Track 19 accurately ripped (confidence 3) [F39353E3] (AR v2)Track 20 accurately ripped (confidence 3) [080C31B1] (AR v2)Track 21 accurately ripped (confidence 3) [EBCAF8C5] (AR v2)Track 22 accurately ripped (confidence 3) [DA223C4F] (AR v2)Track 23 accurately ripped (confidence 3) [AC18203C] (AR v2)Track 24 accurately ripped (confidence 3) [E0283F09] (AR v2)Track 25 accurately ripped (confidence 3) [E7FA3804] (AR v2)Track 26 accurately ripped (confidence 3) [6FD8E3F9] (AR v2)Track 27 accurately ripped (confidence 3) [76C9BA67] (AR v2)Track 28 accurately ripped (confidence 3) [E9FE9DA4] (AR v2)Track 29 accurately ripped (confidence 3) [5CB72E56] (AR v2)

All tracks accurately ripped

End of status report

==== Log checksum 5947DDD6C2CE07FEEE8F4546CA750924E8C8D99CFF6824A181B97B358138FD43 ====
01. The Homecoming* [01:23.47]
02. Hymn To Aton† [05:06.30]
03. Nefer''s Return† [01:46.54]
04. Nefer''s Farewell* [02:43.47]
05. Sights, Sounds And Smells† [00:49.10]
06. You''ve Been In My Prayers / Kaptah† [03:27.49]
07. Live For Our Son† [01:46.50]
08. Am I Mad?† [03:23.68]
09. The Princess* [00:55.01]
10. The True Pharaoh* [01:31.45]
11. The Tomb* [02:36.35]
12. The Proof / The Holy War* [01:34.06]
13. Danse Macabre* [01:32.22]
14. The Death Of Merit† [04:21.59]
15. The Death Potion* [02:21.08]
16. Death Of Akhnaton† [04:57.02]
17. I Am Pharaoh / Horemheb''s Victorious Entrance† [01:39.18]
18. The New Pharaoh† [00:48.73]
19. Exile And Death† [01:47.74]

Bonus Tracks
20. The Nile And The Temple (Alternate)* [01:27.73]
21. The Garden (Alternate)† [02:48.39]
22. The Bracelet And The Helmet (Alternate)* [01:28.14]
23. Danse Macabre (Alternate)* [01:54.49]
24. The Death Of Merit (Alternate)† [04:52.71]
25. Exile And Death (Alternate)† [02:02.39]

† - composed & conducted by Alfred Newman
* - composed & conducted by Bernard Herrmann
Exact Audio Copy V1.0 beta 3 from 29. August 2011

EAC extraction logfile from 25. March 2013, 21:38

Alfred Newman & Bernard Herrmann / The Egyptian (Disc 2)

Used drive : TSSTcorpCDDVDW SH-S202H Adapter: 0 ID: 0

Read mode : SecureUtilize accurate stream : YesDefeat audio cache : YesMake use of C2 pointers : No

Read offset correction : 6Overread into Lead-In and Lead-Out : NoFill up missing offset samples with silence : YesDelete leading and trailing silent blocks : NoNull samples used in CRC calculations : YesUsed interface : Native Win32 interface for Win NT & 2000

Used output format : Internal WAV RoutinesSample format : 44.100 Hz; 16 Bit; Stereo

TOC of the extracted CD

Track | Start | Length | Start sector | End sector --------------------------------------------------------- 1 | 0:00.00 | 1:23.47 | 0 | 6271 2 | 1:23.47 | 5:06.30 | 6272 | 29251 3 | 6:30.02 | 1:46.54 | 29252 | 37255 4 | 8:16.56 | 2:43.47 | 37256 | 49527 5 | 11:00.28 | 0:49.10 | 49528 | 53212 6 | 11:49.38 | 3:27.49 | 53213 | 68786 7 | 15:17.12 | 1:46.50 | 68787 | 76786 8 | 17:03.62 | 3:23.68 | 76787 | 92079 9 | 20:27.55 | 0:55.01 | 92080 | 96205 10 | 21:22.56 | 1:31.45 | 96206 | 103075 11 | 22:54.26 | 2:36.35 | 103076 | 114810 12 | 25:30.61 | 1:34.06 | 114811 | 121866 13 | 27:04.67 | 1:32.22 | 121867 | 128788 14 | 28:37.14 | 4:21.59 | 128789 | 148422 15 | 32:58.73 | 2:21.08 | 148423 | 159005 16 | 35:20.06 | 4:57.02 | 159006 | 181282 17 | 40:17.08 | 1:39.18 | 181283 | 188725 18 | 41:56.26 | 0:48.73 | 188726 | 192398 19 | 42:45.24 | 1:47.74 | 192399 | 200497 20 | 44:33.23 | 1:27.73 | 200498 | 207095 21 | 46:01.21 | 2:48.39 | 207096 | 219734 22 | 48:49.60 | 1:28.14 | 219735 | 226348 23 | 50:17.74 | 1:54.49 | 226349 | 234947 24 | 52:12.48 | 4:52.71 | 234948 | 256918 25 | 57:05.44 | 2:02.39 | 256919 | 266107

Range status and errors

Selected range

Filename D:\Alfred Newman & Bernard Herrmann - The Egyptian\Alfred Newman & Bernard Herrmann - The Egyptian (Disc 2).wav

Peak level 98.8 % Extraction speed 7.3 X Range quality 99.9 % Test CRC 535DB9F1 Copy CRC 535DB9F1 Copy OK

No errors occurred

AccurateRip summary

Track 1 accurately ripped (confidence 3) [293EEE41] (AR v2)Track 2 accurately ripped (confidence 3) [DEC92C6C] (AR v2)Track 3 accurately ripped (confidence 3) [E177A274] (AR v2)Track 4 accurately ripped (confidence 3) [DFA233B2] (AR v2)Track 5 accurately ripped (confidence 3) [4D87882C] (AR v2)Track 6 accurately ripped (confidence 3) [94AFBA08] (AR v2)Track 7 accurately ripped (confidence 3) [B556EC4D] (AR v2)Track 8 accurately ripped (confidence 3) [FD93DD13] (AR v2)Track 9 accurately ripped (confidence 3) [57323757] (AR v2)Track 10 accurately ripped (confidence 3) [24C3A65D] (AR v2)Track 11 accurately ripped (confidence 3) [89FA678E] (AR v2)Track 12 accurately ripped (confidence 3) [045CAFA9] (AR v2)Track 13 accurately ripped (confidence 3) [8FFCC3C2] (AR v2)Track 14 accurately ripped (confidence 3) [D8904256] (AR v2)Track 15 accurately ripped (confidence 3) [2F78E3A5] (AR v2)Track 16 accurately ripped (confidence 3) [78BFC161] (AR v2)Track 17 accurately ripped (confidence 3) [4C0C3274] (AR v2)Track 18 accurately ripped (confidence 3) [FAF922BE] (AR v2)Track 19 accurately ripped (confidence 3) [9FD23652] (AR v2)Track 20 accurately ripped (confidence 3) [6C710228] (AR v2)Track 21 accurately ripped (confidence 3) [42C7DD62] (AR v2)Track 22 accurately ripped (confidence 3) [C06B652B] (AR v2)Track 23 accurately ripped (confidence 3) [F794CFA6] (AR v2)Track 24 accurately ripped (confidence 3) [37EA01E3] (AR v2)Track 25 accurately ripped (confidence 3) [267DE699] (AR v2)

All tracks accurately ripped

End of status report

==== Log checksum 6F35DF0E361CCC90F48BC975BEE6951CDA5CBB904A99CAB6B957815FF9CCBC97 ====
Итак, что мы имеем? На дворе начало 50-х, в моде - исторические картины.
Есть шикарный сюжет "из жизни" древних египтян. Есть творческая группа, большую часть которой мы "перехватили" из успешной картины Плащаница.
Пропустим все перипетии процесса съемок - там и актеры должны были быть другие, и с деньгами (как это обычно бывает) были накладки... Перейдем к процессу пост-продакшена - написанию музыки.
Композитором был выбран глава музыкального отдела студии Фокс, легендарный Альфред Ньюмен. Однако из-за ограниченности сроков, композитор заявил, что он не в состоянии написать более 100 минут музыки за отведенный срок в одиночку. И из всех предложенных ему кандидатов (Хью Фрейдхофер, Ли Харлайн, Франц Ваксман, Алекс Норт!!!) он остановил свой выбор на Бернарде Херрманне.
Выбор был невероятен - Херрманн никогда не работал с кем-либо в паре, но из уважения к Ньюмену согласился работать над картиной.
Каждый самостоятельно дирижировал своими фрагментами, зачастую они были перемешаны, но в этом-то и прелесть этого саундтрека - музыка настолько целостна, что без специальных знаний о том, кто написал конкретный фрагмент, трудно установить автора "на слух".
Ну и на закуску - автора при прослушивании действительно установить сложно еще и потому, что "Египтянин" стал первым крупнобюджетным фильмом о том периоде - по сути, именно Ньюмен и Херрманн изобрели "египетские" мотивы, которые затем не раз использовали другие композиторы...
Итак, Вашему вниманию представляется полная версия музыки к легендарному фильму, которой стало почти в 2-3 раза больше, по сравнению с предыдущими альбомами (старые пластинки, бесчисленное число перезаписей другими оркестрами, альбом FSM).



Трекер:  [ 12-Июн-2013 16:30 ]

  

Скачать .torrent

Размер .torrent файла 12 KB


Размер: 560 MB
Хэш (hash) релиза: d564badc037f245686f93fb0e0cf87494d5cb742

Торренты, похожие на Египтянин The Egyptian скачать торрент

Форум Название Автор Размер S L Добавлен
Саундтреки ·· (Score) The Egyptian / Египтянин (by Alfred Newman & Bernard Herrmann) - 1999 (1954), MP3, 320 kbps Galfimbul 179160128171 MB 0 0 1356867840

14:44

30-Дек-12

bot

Топик был перенесен в форум Саундтреки к фильмам и мультфильмам (lossless)

Перенес Galfimbul

Хотите добавить комментарий к записи скачать торрент Египтянин The Egyptian

!Обратная связь