Скачать через торрент музыку Маленькая принцесса A Little Princess бесплатно без регистрации torrent

Если у вас наблюдаются проблемы со скриншотами, переходом по ссылками, скачиванием торрентов - проблемы в блокировщике рекламы AdBlock. #хорошегоДня!


Статистика раздачи
Размер:  285 MB   |    Зарегистрирован:  4 года 6 месяцев   |    .torrent скачан:  29 раз   |   
Раздают:  1  
   
Загрузка...
 
Автор Сообщение

Galfimbul

avatar Galfimbul


Маленькая принцесса | A Little Princess

Жанр: Score
Композитор: Patrick Doyle
Год выпуска : 1995
Страна-производитель диска: Germany
Издатель (лейбл): Colosseum
Номер по каталогу: VSD (CVS) 5628
Аудио кодек: FLAC (*.flac)
Тип рипа: tracks+.cue
Битрейт аудио: lossless
Продолжительность: 00:49:24
Источник: Собственный рип
Наличие сканов в содержимом раздачи: да
1 Ramayana: A Morning Raga 2:02
2 Children Running 0:53
3 Cristina Elisa Waltz 3:02
4 The Miss Minchin School For Girls 1:38
5 Knowing You By Heart 2:33
6 Breakfast 0:56
7 Letter To Papa 1:38
8 Angel Wings 1:06
9 False Hope 1:57
10 The Trenches 1:02
11 Crewe And The Soldier 1:22
12 Alone 1:20
13 The Attic 2:00
14 On Another''s Sorrow 1:16
15 The Shawl 0:55
16 Tyger Tyger 0:32
17 Compassion 0:36
18 For The Princess 1:36
19 Kindle My Heart 3:00
20 The Locket Hunt 3:00
21 Midnight Tiptoe 1:11
22 I Am A Princess 1:13
23 Just Make Believe 1:33
24 Touched By An Angel 1:41
25 Emilia Elopes 1:36
26 The Escape 2:59
27 Papa! 2:29
28 The Goodbye 4:18
Exact Audio Copy V1.0 beta 3 from 29. August 2011

EAC extraction logfile from 25. May 2013, 0:50

Patrick Doyle / A Little Princess

Used drive : PLEXTOR DVDR PX-L890SA Adapter: 1 ID: 0

Read mode : SecureUtilize accurate stream : YesDefeat audio cache : YesMake use of C2 pointers : No

Read offset correction : 6Overread into Lead-In and Lead-Out : NoFill up missing offset samples with silence : YesDelete leading and trailing silent blocks : NoNull samples used in CRC calculations : YesUsed interface : Installed external ASPI interfaceGap handling : Appended to previous track

Used output format : User Defined EncoderSelected bitrate : 1024 kBit/sQuality : HighAdd ID3 tag : NoCommand line compressor : C:\Program Files\Exact Audio Copy\Flac\flac.exeAdditional command line options : -V -8 -T "Genre=%genre%" -T "Artist=%artist%" -T "Title=%title%" -T "Album=%albumtitle%" -T "Date=%year%" -T "Tracknumber=%tracknr%" -T "Comment=%comment%" %source%

TOC of the extracted CD

Track | Start | Length | Start sector | End sector --------------------------------------------------------- 1 | 0:00.00 | 2:02.60 | 0 | 9209 2 | 2:02.60 | 0:54.32 | 9210 | 13291 3 | 2:57.17 | 3:02.05 | 13292 | 26946 4 | 5:59.22 | 1:40.25 | 26947 | 34471 5 | 7:39.47 | 2:32.68 | 34472 | 45939 6 | 10:12.40 | 0:55.17 | 45940 | 50081 7 | 11:07.57 | 1:38.20 | 50082 | 57451 8 | 12:46.02 | 1:06.65 | 57452 | 62466 9 | 13:52.67 | 2:05.03 | 62467 | 71844 10 | 15:57.70 | 1:00.57 | 71845 | 76401 11 | 16:58.52 | 1:22.13 | 76402 | 82564 12 | 18:20.65 | 1:19.07 | 82565 | 88496 13 | 19:39.72 | 2:00.45 | 88497 | 97541 14 | 21:40.42 | 1:16.10 | 97542 | 103251 15 | 22:56.52 | 0:54.50 | 103252 | 107351 16 | 23:51.27 | 0:31.70 | 107352 | 109746 17 | 24:23.22 | 0:36.73 | 109747 | 112519 18 | 25:00.20 | 1:38.02 | 112520 | 119871 19 | 26:38.22 | 3:00.38 | 119872 | 133409 20 | 29:38.60 | 3:02.15 | 133410 | 147074 21 | 32:41.00 | 1:13.55 | 147075 | 152604 22 | 33:54.55 | 1:14.45 | 152605 | 158199 23 | 35:09.25 | 1:33.65 | 158200 | 165239 24 | 36:43.15 | 1:43.52 | 165240 | 173016 25 | 38:26.67 | 1:38.70 | 173017 | 180436 26 | 40:05.62 | 2:58.43 | 180437 | 193829 27 | 43:04.30 | 2:32.45 | 193830 | 205274 28 | 45:37.00 | 4:20.32 | 205275 | 224806

Track 1

Filename F:\torrent\A Little Princess_Patrick Doyle\score\01 Ramayana- A Morning Raga.wav

Pre-gap length 0:00:02.00

Peak level 58.0 % Extraction speed 3.6 X Track quality 99.9 % Test CRC A6891C14 Copy CRC A6891C14 Cannot be verified as accurate (confidence 2) [F71D14A1], AccurateRip returned [59463450] (AR v2) Copy OK

Track 2

Filename F:\torrent\A Little Princess_Patrick Doyle\score\02 Children Running.wav

Peak level 44.0 % Extraction speed 2.5 X Track quality 99.8 % Test CRC 683225E9 Copy CRC 683225E9 Cannot be verified as accurate (confidence 2) [858BC273], AccurateRip returned [203FADEE] (AR v2) Copy OK

Track 3

Filename F:\torrent\A Little Princess_Patrick Doyle\score\03 Christina Elisa Waltz.wav

Peak level 71.0 % Extraction speed 5.3 X Track quality 100.0 % Test CRC E9046367 Copy CRC E9046367 Cannot be verified as accurate (confidence 2) [DFE45616], AccurateRip returned [442CE82B] (AR v2) Copy OK

Track 4

Filename F:\torrent\A Little Princess_Patrick Doyle\score\04 The Miss Minchin School For Girls.wav

Pre-gap length 0:00:01.25

Peak level 12.8 % Extraction speed 4.8 X Track quality 100.0 % Test CRC 15ABF960 Copy CRC 15ABF960 Cannot be verified as accurate (confidence 2) [24413863], AccurateRip returned [6D6840F2] (AR v2) Copy OK

Track 5

Filename F:\torrent\A Little Princess_Patrick Doyle\score\05 Knowing You By Heart.wav

Pre-gap length 0:00:01.30

Peak level 16.7 % Extraction speed 5.6 X Track quality 100.0 % Test CRC 4FEB44ED Copy CRC 4FEB44ED Cannot be verified as accurate (confidence 2) [5406930B], AccurateRip returned [10D09751] (AR v2) Copy OK

Track 6

Filename F:\torrent\A Little Princess_Patrick Doyle\score\06 Breakfast.wav

Peak level 18.9 % Extraction speed 4.2 X Track quality 100.0 % Test CRC 37218FC3 Copy CRC 37218FC3 Cannot be verified as accurate (confidence 2) [947DA67E], AccurateRip returned [AA78137C] (AR v2) Copy OK

Track 7

Filename F:\torrent\A Little Princess_Patrick Doyle\score\07 Letter To Papa.wav

Peak level 14.1 % Extraction speed 4.2 X Track quality 99.8 % Test CRC 5E577597 Copy CRC 5E577597 Cannot be verified as accurate (confidence 2) [C06363E7], AccurateRip returned [29F5237B] (AR v2) Copy OK

Track 8

Filename F:\torrent\A Little Princess_Patrick Doyle\score\08 Angel Wings.wav

Peak level 14.9 % Extraction speed 4.7 X Track quality 100.0 % Test CRC CFEB60CA Copy CRC CFEB60CA Cannot be verified as accurate (confidence 2) [8C545550], AccurateRip returned [5B274D2B] (AR v2) Copy OK

Track 9

Filename F:\torrent\A Little Princess_Patrick Doyle\score\09 False Hope.wav

Peak level 14.6 % Extraction speed 5.9 X Track quality 100.0 % Test CRC 22E6705D Copy CRC 22E6705D Cannot be verified as accurate (confidence 2) [0967685A], AccurateRip returned [BD0387FD] (AR v2) Copy OK

Track 10

Filename F:\torrent\A Little Princess_Patrick Doyle\score\10 The Trenches.wav

Peak level 9.2 % Extraction speed 3.5 X Track quality 99.8 % Test CRC 58F1B7CC Copy CRC 58F1B7CC Cannot be verified as accurate (confidence 2) [25D96071], AccurateRip returned [5F159198] (AR v2) Copy OK

Track 11

Filename F:\torrent\A Little Princess_Patrick Doyle\score\11 Crewe And The Soldier.wav

Peak level 97.7 % Extraction speed 5.4 X Track quality 100.0 % Test CRC 81157FC5 Copy CRC 81157FC5 Cannot be verified as accurate (confidence 2) [D701A0FD], AccurateRip returned [8C641CFC] (AR v2) Copy OK

Track 12

Filename F:\torrent\A Little Princess_Patrick Doyle\score\12 Alone.wav

Peak level 34.3 % Extraction speed 5.5 X Track quality 100.0 % Test CRC FBCE8683 Copy CRC FBCE8683 Cannot be verified as accurate (confidence 2) [05D5C659], AccurateRip returned [ACA44967] (AR v2) Copy OK

Track 13

Filename F:\torrent\A Little Princess_Patrick Doyle\score\13 The Attic.wav

Peak level 43.0 % Extraction speed 6.3 X Track quality 100.0 % Test CRC B5A01E54 Copy CRC B5A01E54 Cannot be verified as accurate (confidence 2) [5CED266D], AccurateRip returned [E5945730] (AR v2) Copy OK

Track 14

Filename F:\torrent\A Little Princess_Patrick Doyle\score\14 On Anothers Sorrow.wav

Peak level 19.9 % Extraction speed 5.6 X Track quality 100.0 % Test CRC D1BB7BF7 Copy CRC D1BB7BF7 Cannot be verified as accurate (confidence 2) [F800B39B], AccurateRip returned [C2292D7A] (AR v2) Copy OK

Track 15

Filename F:\torrent\A Little Princess_Patrick Doyle\score\15 The Shawl.wav

Peak level 25.2 % Extraction speed 4.9 X Track quality 100.0 % Test CRC DEF35D08 Copy CRC DEF35D08 Cannot be verified as accurate (confidence 2) [D9C26042], AccurateRip returned [0F55D836] (AR v2) Copy OK

Track 16

Filename F:\torrent\A Little Princess_Patrick Doyle\score\16 Tyger Tyger.wav

Peak level 64.1 % Extraction speed 4.0 X Track quality 100.0 % Test CRC 2BDEF994 Copy CRC 2BDEF994 Cannot be verified as accurate (confidence 2) [F0708856], AccurateRip returned [7CF4234C] (AR v2) Copy OK

Track 17

Filename F:\torrent\A Little Princess_Patrick Doyle\score\17 Compassion.wav

Peak level 74.3 % Extraction speed 4.3 X Track quality 100.0 % Test CRC F9D2172C Copy CRC F9D2172C Cannot be verified as accurate (confidence 2) [4D7D49C0], AccurateRip returned [B624E767] (AR v2) Copy OK

Track 18

Filename F:\torrent\A Little Princess_Patrick Doyle\score\18 For The Princess.wav

Peak level 30.6 % Extraction speed 6.3 X Track quality 100.0 % Test CRC 3FE79159 Copy CRC 3FE79159 Cannot be verified as accurate (confidence 2) [DF7C5AE7], AccurateRip returned [D795A73E] (AR v2) Copy OK

Track 19

Filename F:\torrent\A Little Princess_Patrick Doyle\score\19 Kindle My Heart.wav

Pre-gap length 0:00:01.16

Peak level 51.0 % Extraction speed 7.4 X Track quality 100.0 % Test CRC 3504A3C6 Copy CRC 3504A3C6 Cannot be verified as accurate (confidence 2) [AF3FA248], AccurateRip returned [B63928CD] (AR v2) Copy OK

Track 20

Filename F:\torrent\A Little Princess_Patrick Doyle\score\20 The Locket Hunt.wav

Peak level 95.8 % Extraction speed 7.7 X Track quality 100.0 % Test CRC DBAA6AC9 Copy CRC DBAA6AC9 Cannot be verified as accurate (confidence 2) [8A5D7A77], AccurateRip returned [1E804096] (AR v2) Copy OK

Track 21

Filename F:\torrent\A Little Princess_Patrick Doyle\score\21 Midnight Tiptoe.wav

Pre-gap length 0:00:01.09

Peak level 34.8 % Extraction speed 6.2 X Track quality 100.0 % Test CRC C24938EB Copy CRC C24938EB Cannot be verified as accurate (confidence 2) [AE14B4BB], AccurateRip returned [F0F8EB45] (AR v2) Copy OK

Track 22

Filename F:\torrent\A Little Princess_Patrick Doyle\score\22 I Am A Princess.wav

Pre-gap length 0:00:01.33

Peak level 64.4 % Extraction speed 6.3 X Track quality 100.0 % Test CRC 6EE8DDE9 Copy CRC 6EE8DDE9 Cannot be verified as accurate (confidence 2) [3ADDF88C], AccurateRip returned [2C767CAA] (AR v2) Copy OK

Track 23

Filename F:\torrent\A Little Princess_Patrick Doyle\score\23 Just Make Believe.wav

Peak level 52.6 % Extraction speed 6.8 X Track quality 100.0 % Test CRC EBBED8F4 Copy CRC EBBED8F4 Cannot be verified as accurate (confidence 2) [0B2CBC44], AccurateRip returned [5E11752F] (AR v2) Copy OK

Track 24

Filename F:\torrent\A Little Princess_Patrick Doyle\score\24 Touched By An Angel.wav

Peak level 65.6 % Extraction speed 7.2 X Track quality 100.0 % Test CRC 55B53EC8 Copy CRC 55B53EC8 Cannot be verified as accurate (confidence 2) [3CDFD332], AccurateRip returned [5EDA07BF] (AR v2) Copy OK

Track 25

Filename F:\torrent\A Little Princess_Patrick Doyle\score\25 Emilia Elopes.wav

Pre-gap length 0:00:01.47

Peak level 97.7 % Extraction speed 5.7 X Track quality 99.8 % Test CRC F0305148 Copy CRC F0305148 Cannot be verified as accurate (confidence 2) [907D2829], AccurateRip returned [9CA2A392] (AR v2) Copy OK

Track 26

Filename F:\torrent\A Little Princess_Patrick Doyle\score\26 The Escape.wav

Peak level 97.7 % Extraction speed 8.4 X Track quality 100.0 % Test CRC D82AA2FE Copy CRC D82AA2FE Cannot be verified as accurate (confidence 2) [EA841C3F], AccurateRip returned [C4912874] (AR v2) Copy OK

Track 27

Filename F:\torrent\A Little Princess_Patrick Doyle\score\27 Papa!.wav

Peak level 97.7 % Extraction speed 8.3 X Track quality 100.0 % Test CRC 7027D0FA Copy CRC 7027D0FA Cannot be verified as accurate (confidence 2) [604289D0], AccurateRip returned [4950D04F] (AR v2) Copy OK

Track 28

Filename F:\torrent\A Little Princess_Patrick Doyle\score\28 The Goodbye.wav

Peak level 61.5 % Extraction speed 9.2 X Track quality 100.0 % Test CRC A051A723 Copy CRC A051A723 Cannot be verified as accurate (confidence 2) [00FF718E], AccurateRip returned [3920853D] (AR v2) Copy OK

No tracks could be verified as accurateYou may have a different pressing from the one(s) in the database

No errors occurred

End of status report

==== Log checksum F6957596B15EB2E557867BFFA25DD5C58EFF35220F60FE403E8D3F3B1F3E2C3E ====
REM GENRE SoundtrackREM DATE 1995REM DISCID 600BB51CREM COMMENT "ExactAudioCopy v1.0b3"CATALOG 0000000000000PERFORMER "Patrick Doyle"TITLE "A Little Princess"FILE "01 Ramayana- A Morning Raga.wav" WAVE TRACK 01 AUDIO TITLE "Ramayana: A Morning Raga" PERFORMER "Patrick Doyle" INDEX 01 00:00:00FILE "02 Children Running.wav" WAVE TRACK 02 AUDIO TITLE "Children Running" PERFORMER "Patrick Doyle" INDEX 01 00:00:00FILE "03 Christina Elisa Waltz.wav" WAVE TRACK 03 AUDIO TITLE "Christina Elisa Waltz" PERFORMER "Patrick Doyle" INDEX 01 00:00:00 TRACK 04 AUDIO TITLE "The Miss Minchin School For Girls" PERFORMER "Patrick Doyle" INDEX 00 03:00:55FILE "04 The Miss Minchin School For Girls.wav" WAVE INDEX 01 00:00:00 TRACK 05 AUDIO TITLE "Knowing You By Heart" PERFORMER "Patrick Doyle" INDEX 00 01:38:70FILE "05 Knowing You By Heart.wav" WAVE INDEX 01 00:00:00FILE "06 Breakfast.wav" WAVE TRACK 06 AUDIO TITLE "Breakfast" PERFORMER "Patrick Doyle" INDEX 01 00:00:00FILE "07 Letter To Papa.wav" WAVE TRACK 07 AUDIO TITLE "Letter To Papa" PERFORMER "Patrick Doyle" INDEX 01 00:00:00FILE "08 Angel Wings.wav" WAVE TRACK 08 AUDIO TITLE "Angel Wings" PERFORMER "Patrick Doyle" INDEX 01 00:00:00FILE "09 False Hope.wav" WAVE TRACK 09 AUDIO TITLE "False Hope" PERFORMER "Patrick Doyle" INDEX 01 00:00:00FILE "10 The Trenches.wav" WAVE TRACK 10 AUDIO TITLE "The Trenches" PERFORMER "Patrick Doyle" INDEX 01 00:00:00FILE "11 Crewe And The Soldier.wav" WAVE TRACK 11 AUDIO TITLE "Crewe And The Soldier" PERFORMER "Patrick Doyle" INDEX 01 00:00:00FILE "12 Alone.wav" WAVE TRACK 12 AUDIO TITLE "Alone" PERFORMER "Patrick Doyle" INDEX 01 00:00:00FILE "13 The Attic.wav" WAVE TRACK 13 AUDIO TITLE "The Attic" PERFORMER "Patrick Doyle" INDEX 01 00:00:00FILE "14 On Anothers Sorrow.wav" WAVE TRACK 14 AUDIO TITLE "On Anothers Sorrow" PERFORMER "Patrick Doyle" INDEX 01 00:00:00FILE "15 The Shawl.wav" WAVE TRACK 15 AUDIO TITLE "The Shawl" PERFORMER "Patrick Doyle" INDEX 01 00:00:00FILE "16 Tyger Tyger.wav" WAVE TRACK 16 AUDIO TITLE "Tyger Tyger" PERFORMER "Patrick Doyle" INDEX 01 00:00:00FILE "17 Compassion.wav" WAVE TRACK 17 AUDIO TITLE "Compassion" PERFORMER "Patrick Doyle" INDEX 01 00:00:00FILE "18 For The Princess.wav" WAVE TRACK 18 AUDIO TITLE "For The Princess" PERFORMER "Patrick Doyle" INDEX 01 00:00:00 TRACK 19 AUDIO TITLE "Kindle My Heart" PERFORMER "Patrick Doyle" INDEX 00 01:36:61FILE "19 Kindle My Heart.wav" WAVE INDEX 01 00:00:00FILE "20 The Locket Hunt.wav" WAVE TRACK 20 AUDIO TITLE "The Locket Hunt" PERFORMER "Patrick Doyle" INDEX 01 00:00:00 TRACK 21 AUDIO TITLE "Midnight Tiptoe" PERFORMER "Patrick Doyle" INDEX 00 03:01:06FILE "21 Midnight Tiptoe.wav" WAVE INDEX 01 00:00:00 TRACK 22 AUDIO TITLE "I Am A Princess" PERFORMER "Patrick Doyle" INDEX 00 01:12:22FILE "22 I Am A Princess.wav" WAVE INDEX 01 00:00:00FILE "23 Just Make Believe.wav" WAVE TRACK 23 AUDIO TITLE "Just Make Believe" PERFORMER "Patrick Doyle" INDEX 01 00:00:00FILE "24 Touched By An Angel.wav" WAVE TRACK 24 AUDIO TITLE "Touched By An Angel" PERFORMER "Patrick Doyle" INDEX 01 00:00:00 TRACK 25 AUDIO TITLE "Emilia Elopes" PERFORMER "Patrick Doyle" INDEX 00 01:42:05FILE "25 Emilia Elopes.wav" WAVE INDEX 01 00:00:00FILE "26 The Escape.wav" WAVE TRACK 26 AUDIO TITLE "The Escape" PERFORMER "Patrick Doyle" INDEX 01 00:00:00FILE "27 Papa!.wav" WAVE TRACK 27 AUDIO TITLE "Papa!" PERFORMER "Patrick Doyle" INDEX 01 00:00:00FILE "28 The Goodbye.wav" WAVE TRACK 28 AUDIO TITLE "The Goodbye" PERFORMER "Patrick Doyle" INDEX 01 00:00:00
AUDIOCHECKER v2.0 beta (build 457) - by Dester - opdester@freemail.hu~~~~~~~~~~~~~~~~~~~~~~~~~~~~~~~~~~-=== НЕ РЕДАКТИРУЙТЕ ЭТОТ ФАЙЛ! ===-

Путь: ...\score

01 -=- 01 Ramayana- A Morning Raga.flac -=- CDDA (86%)02 -=- 02 Children Running.flac -=- CDDA (99%)03 -=- 03 Christina Elisa Waltz.flac -=- CDDA (100%)04 -=- 04 The Miss Minchin School For Girls.flac -=- CDDA (100%)05 -=- 05 Knowing You By Heart.flac -=- CDDA (100%)06 -=- 06 Breakfast.flac -=- CDDA (100%)07 -=- 07 Letter To Papa.flac -=- CDDA (100%)08 -=- 08 Angel Wings.flac -=- CDDA (100%)09 -=- 09 False Hope.flac -=- CDDA (100%)10 -=- 10 The Trenches.flac -=- CDDA (100%)11 -=- 11 Crewe And The Soldier.flac -=- CDDA (100%)12 -=- 12 Alone.flac -=- CDDA (100%)13 -=- 13 The Attic.flac -=- CDDA (100%)14 -=- 14 On Anothers Sorrow.flac -=- CDDA (100%)15 -=- 15 The Shawl.flac -=- CDDA (100%)16 -=- 16 Tyger Tyger.flac -=- CDDA (99%)17 -=- 17 Compassion.flac -=- CDDA (94%)18 -=- 18 For The Princess.flac -=- CDDA (100%)19 -=- 19 Kindle My Heart.flac -=- CDDA (99%)20 -=- 20 The Locket Hunt.flac -=- CDDA (100%)21 -=- 21 Midnight Tiptoe.flac -=- CDDA (100%)22 -=- 22 I Am A Princess.flac -=- CDDA (100%)23 -=- 23 Just Make Believe.flac -=- CDDA (99%)24 -=- 24 Touched By An Angel.flac -=- CDDA (100%)25 -=- 25 Emilia Elopes.flac -=- CDDA (100%)26 -=- 26 The Escape.flac -=- CDDA (100%)27 -=- 27 Papa!.flac -=- CDDA (100%)28 -=- 28 The Goodbye.flac -=- CDDA (100%)

Сводка 99,14% CDDA

63840116


Трекер:  [ 12-Июн-2013 16:30 ]

  

Скачать .torrent

Размер .torrent файла 13 KB


Размер: 285 MB
Хэш (hash) релиза: 88c6936e4ab6796c578310c02146bbb5c212a077

bot

Топик был перенесен в форум Саундтреки к фильмам и мультфильмам (lossless)

Перенес Galfimbul

Хотите добавить комментарий к записи скачать торрент Маленькая принцесса A Little Princess

!Обратная связь