Скачать через торрент музыку Человек из стали Man Of Steel бесплатно без регистрации torrent

Если у вас наблюдаются проблемы со скриншотами, переходом по ссылками, скачиванием торрентов - проблемы в блокировщике рекламы AdBlock. #хорошегоДня!


Статистика раздачи
Размер:  531 MB   |    Зарегистрирован:  4 года 5 месяцев   |    .torrent скачан:  60 раз   |   
Раздают:  1  
   
Загрузка...
 
Автор Сообщение

L


Человек из стали | Man Of Steel
Deluxe Edition
Жанр: Score
Композитор: Hans Zimmer
Страна: USA
Год выпуска диска: 2013
Аудиокодек: FLAC (*flac)
Тип рипа: tracks+.cue
Битрейт аудио: lossless
Продолжительность: 01:55:08
Источник: what.cd
Наличие сканов: да + booklet
Disc 1:
1. Look to the Stars (2:54)
2. Oil Rig (1:31)
3. Sent Here for a Reason (3:46)
4. DNA (3:18)
5. Goodbye My Son (1:57)
6. If You Love These People (3:03)
7. Krypton''''s Last (1:58)
8. Terraforming (9:46)
9. Tornado (2:47)
10. You Die or I Do (3:04)
11. Launch (2:29)
12. Ignition (1:12)
13. I Will Find Him (2:47)
14. This Is Clark Kent (3:36)
15. I Have So Many Questions (3:21)
16. Flight (4:09)
17. What Are You Going to Do When You Are Not Saving the World? (5:26)
Disc 2:
1. Man of Steel (Hans'''' original Sketchbook) (28:11)
2. Are You Listening, Clark? (2:39)
3. General Zod (7:07)
4. You Led Us Here (2:51)
5. This Is Madness! (3:38)
6. Earth (6:13)
7. Arcade (7:25)
Exact Audio Copy V1.0 beta 3 from 29. August 2011

EAC extraction logfile from 14. June 2013, 19:35

Hanz Zimmer / Man of Steel: Deluxe Edition (CD1)

Used drive : HL-DT-STBD-RE BH10LS38 Adapter: 2 ID: 0

Read mode : SecureUtilize accurate stream : YesDefeat audio cache : YesMake use of C2 pointers : No

Read offset correction : 667Overread into Lead-In and Lead-Out : NoFill up missing offset samples with silence : YesDelete leading and trailing silent blocks : NoNull samples used in CRC calculations : YesUsed interface : Native Win32 interface for Win NT & 2000Gap handling : Appended to previous track

Used output format : User Defined EncoderSelected bitrate : 768 kBit/sQuality : HighAdd ID3 tag : NoCommand line compressor : C:\Program Files (x86)\Exact Audio Copy\FLAC\FLAC.EXEAdditional command line options : -8 -V -T "ARTIST=%artist%" -T "TITLE=%title%" -T "ALBUM=%albumtitle%" -T "DATE=%year%" -T "TRACKNUMBER=%tracknr%" -T "GENRE=%genre%" -T "PERFORMER=%albuminterpret%" -T "COMPOSER=%composer%" %haslyrics%--tag-from-file=LYRICS="%lyricsfile%"%haslyrics% -T "ALBUMARTIST=%albumartist%" -T "ALBUM ARTIST=%albumartist%" -T "DISCNUMBER=%cdnumber%" -T "TOTALDISCS=%totalcds%" -T "TOTALTRACKS=%numtracks%" -T "COMMENT=%comment%" %source% -o %dest%

TOC of the extracted CD

Track | Start | Length | Start sector | End sector --------------------------------------------------------- 1 | 0:00.00 | 2:53.60 | 0 | 13034 2 | 2:53.60 | 1:31.36 | 13035 | 19895 3 | 4:25.21 | 3:45.44 | 19896 | 36814 4 | 8:10.65 | 3:18.34 | 36815 | 51698 5 | 11:29.24 | 1:56.56 | 51699 | 60454 6 | 13:26.05 | 3:02.38 | 60455 | 74142 7 | 16:28.43 | 1:58.33 | 74143 | 83025 8 | 18:27.01 | 9:45.38 | 83026 | 126938 9 | 28:12.39 | 2:46.42 | 126939 | 139430 10 | 30:59.06 | 3:03.38 | 139431 | 153193 11 | 34:02.44 | 2:29.35 | 153194 | 164403 12 | 36:32.04 | 1:12.37 | 164404 | 169840 13 | 37:44.41 | 2:47.13 | 169841 | 182378 14 | 40:31.54 | 3:36.32 | 182379 | 198610 15 | 44:08.11 | 3:21.37 | 198611 | 213722 16 | 47:29.48 | 4:08.45 | 213723 | 232367 17 | 51:38.18 | 5:26.00 | 232368 | 256817

Track 1

Filename C:\Users\chris\Desktop\Rips\01 - Look to the Stars.wav

Pre-gap length 0:00:02.00

Peak level 89.1 % Extraction speed 1.0 X Track quality 100.0 % Test CRC F290164C Copy CRC F290164C Track not present in AccurateRip database Copy OK

Track 2

Filename C:\Users\chris\Desktop\Rips\02 - Oil Rig.wav

Peak level 89.1 % Extraction speed 0.9 X Track quality 100.0 % Test CRC 0E203F70 Copy CRC 0E203F70 Track not present in AccurateRip database Copy OK

Track 3

Filename C:\Users\chris\Desktop\Rips\03 - Sent Here for a Reason.wav

Peak level 51.0 % Extraction speed 1.2 X Track quality 100.0 % Test CRC AEF188C2 Copy CRC AEF188C2 Track not present in AccurateRip database Copy OK

Track 4

Filename C:\Users\chris\Desktop\Rips\04 - DNA.wav

Peak level 89.1 % Extraction speed 1.3 X Track quality 100.0 % Test CRC ED24DFD6 Copy CRC ED24DFD6 Track not present in AccurateRip database Copy OK

Track 5

Filename C:\Users\chris\Desktop\Rips\05 - Goodbye My Son.wav

Peak level 86.4 % Extraction speed 1.2 X Track quality 100.0 % Test CRC 932EB63F Copy CRC 932EB63F Track not present in AccurateRip database Copy OK

Track 6

Filename C:\Users\chris\Desktop\Rips\06 - If You Love These People.wav

Peak level 89.1 % Extraction speed 1.4 X Track quality 100.0 % Test CRC F29470B1 Copy CRC F29470B1 Track not present in AccurateRip database Copy OK

Track 7

Filename C:\Users\chris\Desktop\Rips\07 - Krypton''''s Last.wav

Peak level 89.1 % Extraction speed 1.3 X Track quality 100.0 % Test CRC 2B237534 Copy CRC 2B237534 Track not present in AccurateRip database Copy OK

Track 8

Filename C:\Users\chris\Desktop\Rips\08 - Terraforming.wav

Peak level 89.1 % Extraction speed 1.8 X Track quality 100.0 % Test CRC BC9AC285 Copy CRC BC9AC285 Track not present in AccurateRip database Copy OK

Track 9

Filename C:\Users\chris\Desktop\Rips\09 - Tornado.wav

Peak level 89.1 % Extraction speed 1.7 X Track quality 100.0 % Test CRC 015C15A5 Copy CRC 015C15A5 Track not present in AccurateRip database Copy OK

Track 10

Filename C:\Users\chris\Desktop\Rips\10 - You Die or I Do.wav

Peak level 89.1 % Extraction speed 1.8 X Track quality 100.0 % Test CRC BA0B6125 Copy CRC BA0B6125 Track not present in AccurateRip database Copy OK

Track 11

Filename C:\Users\chris\Desktop\Rips\11 - Launch.wav

Peak level 89.1 % Extraction speed 1.7 X Track quality 100.0 % Test CRC 31F5A89D Copy CRC 31F5A89D Track not present in AccurateRip database Copy OK

Track 12

Filename C:\Users\chris\Desktop\Rips\12 - Ignition.wav

Peak level 89.1 % Extraction speed 1.5 X Track quality 100.0 % Test CRC C6027B40 Copy CRC C6027B40 Track not present in AccurateRip database Copy OK

Track 13

Filename C:\Users\chris\Desktop\Rips\13 - I Will Find Him.wav

Peak level 89.1 % Extraction speed 1.8 X Track quality 100.0 % Test CRC CD95FEB2 Copy CRC CD95FEB2 Track not present in AccurateRip database Copy OK

Track 14

Filename C:\Users\chris\Desktop\Rips\14 - This is Clark Kent.wav

Peak level 81.4 % Extraction speed 1.7 X Track quality 99.9 % Test CRC 35311CDB Copy CRC 35311CDB Track not present in AccurateRip database Copy OK

Track 15

Filename C:\Users\chris\Desktop\Rips\15 - I Have So Many Questions.wav

Peak level 89.1 % Extraction speed 1.8 X Track quality 99.9 % Test CRC 957B0280 Copy CRC 957B0280 Track not present in AccurateRip database Copy OK

Track 16

Filename C:\Users\chris\Desktop\Rips\16 - Flight.wav

Peak level 89.1 % Extraction speed 2.2 X Track quality 100.0 % Test CRC CD5F1061 Copy CRC CD5F1061 Track not present in AccurateRip database Copy OK

Track 17

Filename C:\Users\chris\Desktop\Rips\17 - What Are You Going to Do When You Are Not Saving the World.wav

Peak level 89.1 % Extraction speed 2.1 X Track quality 99.9 % Test CRC C6253544 Copy CRC C6253544 Track not present in AccurateRip database Copy OK

None of the tracks are present in the AccurateRip database

No errors occurred

End of status report

==== Log checksum D76D5212B7E647D4DC1EC1BCC9FFE1109EB57D026A37CAB6B926F379D76A7ADA ====
Exact Audio Copy V1.0 beta 3 from 29. August 2011

EAC extraction logfile from 14. June 2013, 20:47

Hans Zimmer / Man of Steel: Deluxe Edition (CD2)

Used drive : HL-DT-STBD-RE BH10LS38 Adapter: 2 ID: 0

Read mode : SecureUtilize accurate stream : YesDefeat audio cache : YesMake use of C2 pointers : No

Read offset correction : 667Overread into Lead-In and Lead-Out : NoFill up missing offset samples with silence : YesDelete leading and trailing silent blocks : NoNull samples used in CRC calculations : YesUsed interface : Native Win32 interface for Win NT & 2000Gap handling : Appended to previous track

Used output format : User Defined EncoderSelected bitrate : 768 kBit/sQuality : HighAdd ID3 tag : NoCommand line compressor : C:\Program Files (x86)\Exact Audio Copy\FLAC\FLAC.EXEAdditional command line options : -8 -V -T "ARTIST=%artist%" -T "TITLE=%title%" -T "ALBUM=%albumtitle%" -T "DATE=%year%" -T "TRACKNUMBER=%tracknr%" -T "GENRE=%genre%" -T "PERFORMER=%albuminterpret%" -T "COMPOSER=%composer%" %haslyrics%--tag-from-file=LYRICS="%lyricsfile%"%haslyrics% -T "ALBUMARTIST=%albumartist%" -T "ALBUM ARTIST=%albumartist%" -T "DISCNUMBER=%cdnumber%" -T "TOTALDISCS=%totalcds%" -T "TOTALTRACKS=%numtracks%" -T "COMMENT=%comment%" %source% -o %dest%

TOC of the extracted CD

Track | Start | Length | Start sector | End sector --------------------------------------------------------- 1 | 0:00.00 | 28:11.24 | 0 | 126848 2 | 28:11.24 | 2:39.03 | 126849 | 138776 3 | 30:50.27 | 7:06.42 | 138777 | 170768 4 | 37:56.69 | 2:51.03 | 170769 | 183596 5 | 40:47.72 | 3:38.20 | 183597 | 199966 6 | 44:26.17 | 6:12.52 | 199967 | 227918 7 | 50:38.69 | 7:24.66 | 227919 | 261284

Track 1

Filename C:\Users\chris\Desktop\Rips\01 - Man of Steel (Hans'''' Original Sketchbook).wav

Pre-gap length 0:00:02.00

Peak level 89.1 % Extraction speed 1.6 X Track quality 100.0 % Test CRC DC4E0DA2 Copy CRC DC4E0DA2 Track not present in AccurateRip database Copy OK

Track 2

Filename C:\Users\chris\Desktop\Rips\02 - Are You Listening, Clark.wav

Peak level 89.1 % Extraction speed 1.4 X Track quality 99.9 % Test CRC E935378B Copy CRC E935378B Track not present in AccurateRip database Copy OK

Track 3

Filename C:\Users\chris\Desktop\Rips\03 - General Zod.wav

Peak level 89.1 % Extraction speed 2.0 X Track quality 100.0 % Test CRC BF5C2A07 Copy CRC BF5C2A07 Track not present in AccurateRip database Copy OK

Track 4

Filename C:\Users\chris\Desktop\Rips\04 - You Led Us Here.wav

Peak level 89.1 % Extraction speed 1.9 X Track quality 100.0 % Test CRC A8D910D5 Copy CRC A8D910D5 Track not present in AccurateRip database Copy OK

Track 5

Filename C:\Users\chris\Desktop\Rips\05 - This is Madness!.wav

Peak level 89.1 % Extraction speed 2.0 X Track quality 100.0 % Test CRC 21C737DE Copy CRC 21C737DE Track not present in AccurateRip database Copy OK

Track 6

Filename C:\Users\chris\Desktop\Rips\06 - Earth.wav

Peak level 51.2 % Extraction speed 2.2 X Track quality 100.0 % Test CRC 8C3D81EA Copy CRC 8C3D81EA Track not present in AccurateRip database Copy OK

Track 7

Filename C:\Users\chris\Desktop\Rips\07 - Arcade.wav

Peak level 89.1 % Extraction speed 2.2 X Track quality 99.9 % Test CRC A6001424 Copy CRC A6001424 Track not present in AccurateRip database Copy OK

None of the tracks are present in the AccurateRip database

No errors occurred

End of status report

==== Log checksum 43C4333546E9C255134E9D4D8EA0C98B279DC7F7737C18BD85251ABF6B99C976 ====
REM GENRE SoundtrackREM DATE 2013REM DISCID E50D6011REM COMMENT ExactAudioCopy v1.0b3PERFORMER "Hans Zimmer"TITLE "Man of Steel"FILE "01 - Look to the Stars.wav" WAVE TRACK 01 AUDIO INDEX 01 00:00:00FILE "02 - Oil Rig.wav" WAVE TRACK 02 AUDIO INDEX 01 00:00:00FILE "03 - Sent Here for a Reason.wav" WAVE TRACK 03 AUDIO INDEX 01 00:00:00FILE "04 - DNA.wav" WAVE TRACK 04 AUDIO INDEX 01 00:00:00FILE "05 - Goodbye My Son.wav" WAVE TRACK 05 AUDIO INDEX 01 00:00:00FILE "06 - If You Love These People.wav" WAVE TRACK 06 AUDIO INDEX 01 00:00:00FILE "07 - Krypton''''s Last.wav" WAVE TRACK 07 AUDIO INDEX 01 00:00:00FILE "08 - Terraforming.wav" WAVE TRACK 08 AUDIO INDEX 01 00:00:00FILE "09 - Tornado.wav" WAVE TRACK 09 AUDIO INDEX 01 00:00:00FILE "10 - You Die or I Do.wav" WAVE TRACK 10 AUDIO INDEX 01 00:00:00FILE "11 - Launch.wav" WAVE TRACK 11 AUDIO INDEX 01 00:00:00FILE "12 - Ignition.wav" WAVE TRACK 12 AUDIO INDEX 01 00:00:00FILE "13 - I Will Find Him.wav" WAVE TRACK 13 AUDIO INDEX 01 00:00:00FILE "14 - This is Clark Kent.wav" WAVE TRACK 14 AUDIO INDEX 01 00:00:00FILE "15 - I Have So Many Questions.wav" WAVE TRACK 15 AUDIO INDEX 01 00:00:00FILE "16 - Flight.wav" WAVE TRACK 16 AUDIO INDEX 01 00:00:00FILE "17 - What Are You Going to Do When You Are Not Saving the World.wav" WAVE TRACK 17 AUDIO INDEX 01 00:00:00
REM GENRE SoundtrackREM DATE 2013REM DISCID 680D9B07REM COMMENT ExactAudioCopy v1.0b3PERFORMER "Hans Zimmer"TITLE "Man of Steel"FILE "01 - Man of Steel (Hans'''' Original Sketchbook).wav" WAVE TRACK 01 AUDIO INDEX 01 00:00:00FILE "02 - Are You Listening, Clark.wav" WAVE TRACK 02 AUDIO INDEX 01 00:00:00FILE "03 - General Zod.wav" WAVE TRACK 03 AUDIO INDEX 01 00:00:00FILE "04 - You Led Us Here.wav" WAVE TRACK 04 AUDIO INDEX 01 00:00:00FILE "05 - This is Madness!.wav" WAVE TRACK 05 AUDIO INDEX 01 00:00:00FILE "06 - Earth.wav" WAVE TRACK 06 AUDIO INDEX 01 00:00:00FILE "07 - Arcade.wav" WAVE TRACK 07 AUDIO INDEX 01 00:00:00


Трекер:  [ 21-Июн-2013 08:50 ]

  

Скачать .torrent

Размер .torrent файла 14 KB


Размер: 531 MB
Хэш (hash) релиза: a6d0dd923c0ad40289841a724000ca2a721f09be

Торренты, похожие на Человек из стали Man Of Steel скачать торрент

Форум Название Автор Размер S L Добавлен
Саундтреки к фильмам и мультфильмам (mp3) ·· (Score) Человек Из Стали / Man Of Steel (Deluxe Edition) (2CD) (by Hans Zimmer) - 2013, MP3, 320 kbps L 342503090327 MB 2 0 1371793864

08:51

21-Июн-13

Еще никто не оставлял запись к записи скачать торрент Человек из стали Man Of Steel . Будь первым!

!Обратная связь