Скачать через торрент Современная магия для чайников Yoku Wakaru Gendai Mahou бесплатно Аниме Все серии на русском torrent

Если у вас наблюдаются проблемы со скриншотами, переходом по ссылками, скачиванием торрентов - проблемы в блокировщике рекламы AdBlock. #хорошегоДня!


Статистика раздачи
Размер:  7.52 GB   |    Зарегистрирован:  4 года 5 месяцев   |    .torrent скачан:  41 раз   |   
Раздают:  1  
   
Загрузка...
 
Автор Сообщение

Polarnik

avatar Polarnik



Год выпуска: 2009
Страна: Япония
Жанр: комедия, махо-сёдзё, этти
Продолжительность: 12 эп. по 24 мин.
Перевод:

русские субтитры
переводчики: Hakushin, Zmaxachz, редактор: Farankovsky, перевод песен: Sora_P3_Heaven
Режиссер: Курода Ясухиро
Студия: Nomad
Описание:
В этом мире магия похожа на квантовую физику, а заклинания – на компьютерные программы, да и зовутся они так же – Коды. Как и с квантовой физикой, магия – удел немногих, причем врожденный дар надо тщательно развивать с помощью обучения и тренировок. Адепты делятся на классических магов, которые творят Код интуитивно, и магов современных, которые пользуются компьютерами и компиляторами. Настоящие мастера высоко ценятся, ведь они могут почти все – от заклинаний коммерческого успеха до путешествий во времени.

Сериал повествует о буднях небольшой, но известной магической школы Анэхара, которой управляет 25-летняя обаятельная Миса – одна из лучших современных магов. Ее несчастный младший братишка Сосиро тащит на себе все хозяйство, а вечная подруга-соперница, классический маг Юмико-Кристина Итиносэ никому не дает скучать. Учениц же в школе всего две – старательная Кахо и «тихий ужас» Коёми, обладающая уникальным даром – любую, сколь угодно сильную чужую магию преобразовывать в… тазики! Отсюда и главный вопрос сюжета - приведут хоть к чему-либо педагогические старания Мисы, Юмико и остальных героев, или сериал так и накроется большим медным тазом?
© Hollow, World Art
Информационные ссылки: AniDB || World Art || MAL
Качество: BDRip
Энкод: Winter - RG Pantheon
Тип видео: без хардсаба
Формат: mkv
Видео: x264 (Hi10p), 1280x720, ~2400 Kbps, 23.976 fps
Аудио JAP: Vorbis, 48000Hz, ~256 Kbps, 2ch
Аудио RUS 1-3: AC3, 48000Hz, ~192 Kbps, 2ch (внешними файлами)
одноголосая (жен.) от Persona99 (GetSmart)
одноголосая (муж.) от Ancord (AniDub)

трехголосая от Анталия, Sergos, Medea (SeM)
01. Hello World
02. Wizardry
03. Deus In Machina
04. Genie
05. Jump off into Never-Neverland
06. Ghostscript
07. Voodoo Programming
08. Scratch Monkey
09. Open Deathtrap
10. Quick and Dirty
11. Dragon Book
12. TMTOWTDI
Общее
Уникальный идентификатор : 192219444297309921237997198869278272671 (0x909C1E4D457367279BE10597F7F4AC9F)
Полное имя : W:\ANIMATION\720p\Yoku Wakaru Gendai Mahou [BD] [720p]\[Winter] Yoku Wakaru Gendai Mahou 01 [BDrip 1280x720 x264 Vorbis].mkv
Формат : Matroska
Версия формата : Version 2
Размер файла : 513 Мбайт
Продолжительность : 24 м.
Режим общего битрейта : Переменный
Общий поток : 2987 Кбит/сек
Дата кодирования : UTC 2013-05-25 16:04:54
Программа кодирования : mkvmerge v2.9.8 (''C''est le bon'') built on Aug 13 2009 12:49:06
Библиотека кодирования : libebml v0.7.7 + libmatroska v0.8.1

Видео
Идентификатор : 1
Формат : AVC
Формат/Информация : Advanced Video Codec
Профиль формата : High 10@L4.1
Параметр CABAC формата : Да
Параметр ReFrames формата : 9 кадров
Идентификатор кодека : V_MPEG4/ISO/AVC
Продолжительность : 24 м.
Битрейт : 2672 Кбит/сек
Ширина : 1280 пикселей
Высота : 720 пикселей
Соотношение сторон : 16:9
Режим частоты кадров : Постоянный
Частота кадров : 23,976 кадра/сек
Цветовое пространство : YUV
Субдискретизация насыщенности : 4:2:0
Битовая глубина : 10 бит
Тип развёртки : Прогрессивная
Бит/(Пиксели*Кадры) : 0.121
Размер потока : 459 Мбайт (89%)
Библиотека кодирования : x264 core 125 r2200 999b753
Настройки программы : cabac=1 / ref=9 / deblock=1:-2:-2 / analyse=0x3:0x133 / me=umh / subme=9 / psy=1 / psy_rd=0.90:0.00 / mixed_ref=1 / me_range=24 / chroma_me=1 / trellis=2 / 8x8dct=1 / cqm=0 / deadzone=21,11 / fast_pskip=1 / chroma_qp_offset=-2 / threads=6 / lookahead_threads=1 / sliced_threads=0 / nr=0 / decimate=0 / interlaced=0 / bluray_compat=0 / constrained_intra=0 / bframes=8 / b_pyramid=2 / b_adapt=2 / b_bias=0 / direct=1 / weightb=1 / open_gop=0 / weightp=2 / keyint=250 / keyint_min=23 / scenecut=40 / intra_refresh=0 / rc=crf / mbtree=0 / crf=15.8 / qcomp=0.70 / qpmin=9 / qpmax=40 / qpstep=4 / ip_ratio=1.40 / pb_ratio=1.30 / aq=1:0.90
Default : Нет
Forced : Нет

Аудио
Идентификатор : 2
Формат : Vorbis
Параметр Floor формата : 1
Идентификатор кодека : A_VORBIS
Продолжительность : 24 м.
Вид битрейта : Переменный
Битрейт : 256 Кбит/сек
Каналы : 2 канала
Частота : 48,0 КГц
Метод сжатия : С потерями
Размер потока : 44,0 Мбайт (9%)
Библиотека кодирования : libVorbis (Omnipresent) (20120203 (Omnipresent))
Язык : Japanese
Default : Да
Forced : Нет


Данный релиз предназначен для просмотра на ПК. Воспроизведение на иных проигрывателях не гарантируется. Для просмотра рекомендуется Media Player Classic с установленным пакетом кодеков K-Lite.

Данный релиз содержит 10-битное видео (Hi10p). Для корректного воспроизведения обязательно используйте кодеки, поддерживающие 10-битное видео.

Данный релиз предназначен для просмотра с внешними субтитрами и внешними звуковыми дорожками.

Для просмотра с внешней звуковой дорожкой нужно:
перекинуть файлы .mka из папки "RUS Sound [<автор(ы) озвучки>]" в одну папку с видео и переключить звуковую дорожку в плеере при просмотре. Как это сделать в разных плеерах подробно описано здесь.
Для просмотра с субтитрами нужно:
перекинуть файлы .ass из папки "RUS Subtitles [<автор(ы) перевода>]" в одну папку с видео - плеер подгрузит их автоматически при открытии видео.


Трекер:  [ 03-Июл-2013 19:19 ]

  

Скачать .torrent

Размер .torrent файла 45 KB


Размер: 7.52 GB
Хэш (hash) релиза: 61fb77931f22e12bbeed2d99d21657578e1f481f
Подписка на обновления:

Торренты, похожие на Современная магия для чайников Yoku Wakaru Gendai Mahou скачать торрент

Форум Название Автор Размер S L Добавлен
Аниме | Blu-Ray и BDRemux ·· Современная магия для чайников / Yoku Wakaru Gendai Mahou (Курода Ясухиро) [TV] [без хардсаба] [12 из 12] [JAP+SUB] [2009 г., комедия, махо-сёдзё, этти, BDRemux] [1080p] _N_ 7441774381869.31 GB 0 0 1331458020

12:27

11-Мар-12

Еще никто не оставлял запись к записи скачать торрент Современная магия для чайников Yoku Wakaru Gendai Mahou . Будь первым!

!Обратная связь