Скачать через торрент Берсерк: Золотой век Berserk: Ougon Jidai Hen бесплатно Аниме Все серии на русском torrent

Если у вас наблюдаются проблемы со скриншотами, переходом по ссылками, скачиванием торрентов - проблемы в блокировщике рекламы AdBlock. #хорошегоДня!


Статистика раздачи
Размер:  9.87 GB   |    Зарегистрирован:  4 года 5 месяцев   |    .torrent скачан:  134 раза   |   
Раздают:  1  
   
Загрузка...
 
Автор Сообщение

Polarnik

avatar Polarnik


Берсерк: Золотой век | Berserk: The Golden Age Arc
Год выпуска: 2012
Страна: Япония
Жанр: приключения, фэнтези, драма
Продолжительность: 01:16:50 [1] + 01:32:45 [2] + 01:52:40 [3]
Перевод:

русские субтитры от Reanimedia [1]
русские субтитры от Greyman [2]
русские субтитры от Keilex [3]
английские субтитры от Commie
Озвучка:

полное дублирование от Reanimedia [1]
одноголосая (муж.) от JAM (AniMedia) [1-2]
Режиссер: Кубока Тосиюки
Студия:
Описание:
Жизнь знаменитого своей силой и жестокостью наемника Гатса меняется после встречи с Гриффитсом, харизматичным вожаком легендарного отряда Соколов — банды, ни разу не терпевшей поражения в бою. Желая оправдать доверие Гриффитса, Гатс проявляет невиданную доблесть и завоевывает уважение соратников, в том числе Каски, единственной в отряде девушки-мечника. Поддержанные Гатсом успехи Гриффитса преследуют некую цель, однако каких жертв будет стоить достижение этой цели, пока неведомо никому из наших героев.
Нынешний цикл полнометражных фильмов — второй подход японских аниматоров к произведению (первым был ТВ-сериал 1997 года); на сей раз крупнобюджетная экранизация охватит, по меньшей мере, всю сюжетную арку «Золотой век». Известная множеством непохожих друг на друга, но всегда раздвигающих рамки анимационного искусства работ («Воспоминания о будущем», «Железобетон», «Первый отряд: момент истины»), Studio 4°C выбрала для фильма технологию, сочетающую компьютерную и рисованную анимацию. Вкупе с мастерством художников и темпераментом режиссера это позволило воплотить на экране уникальные по хореографии массовые сцены битв и близкую борьбу непростых характеров, созданных одним из самых уважаемых японских авторов, работающих в жанре фэнтези — Кэнтаро Миурой.
Манга (графическая новелла) «Берсерк», вышедшая (и продолжающая выходить) многомиллионными тиражами по всему миру, по праву считается новой классикой фэнтези; у себя на родине она знаменита не меньше, чем «Властелин колец». В России мангу выпускает издательство «Эксмо» (в продаже уже 6 томов).
Информационные ссылки: AniDB || World Art || MAL
Качество: BDRip
Энкод: THORAnime [1]
Энкод: Hotaka-Raws [2]
Энкод: Commie [3]
Тип видео: без хардсаба
Формат: mkv
Видео: H.264 (Hi10p), 1920x816, 5661 Kbps, 23.976 fps [1]
Видео: H.264 (Hi10p), 1920x816, 3302 Kbps, 23.976 fps [2]
Видео: H.264 (Hi10p), 1920x816, 3263 Kbps, 23.976 fps [3]
Аудио RUS(ext) 1: AC3, 48000Hz, 640 Kbps, 6ch |Reanimedia| [1]
Аудио RUS(ext) 2: AAC, 48000Hz, 192 Kbps, 2ch |AniMedia| [1]
Аудио RUS(ext) 2: AAC, 48000Hz, 320 Kbps, 2ch |AniMedia| [2]
Аудио ENG: AC3, 48000Hz, 640 Kbps, 6ch |VIZ Media| [1]
Аудио JAP: AC3, 48000Hz, 640 Kbps, 6ch [1-2]
Аудио JAP: AAC, 48000Hz, 463 Kbps, 6ch [3]
За предоставление BD Реанимедии огромная благодарность
01. The Egg of the King
02. The Battle for Doldrey
03. Descent
General
Unique ID : 226891850722200170475281372811589238866 (0xAAB1C7EBF7BFA6D2B15A08F4D906C052)
Complete name : E:\Berserk Golden Age Arc [BDRip 1080p]\Berserk.Golden.Age.Arc.m01.The.Egg.of.the.King.mkv
Format : Matroska
Format version : Version 4 / Version 2
File size : 3.38 GiB
Duration : 1h 16mn
Overall bit rate : 6 303 Kbps
Encoded date : UTC 2013-03-05 12:19:08
Writing application : mkvmerge v6.1.0 (''Old Devil'') built on Mar 2 2013 14:32:37
Writing library : libebml v1.3.0 + libmatroska v1.4.0

Video
ID : 1
Format : AVC
Format/Info : Advanced Video Codec
Format profile : High 10@L4.1
Format settings, CABAC : Yes
Format settings, ReFrames : 3 frames
Muxing mode : Container profile=Unknown@0.0
Codec ID : V_MPEG4/ISO/AVC
Duration : 1h 16mn
Bit rate : 5 538 Kbps
Width : 1 920 pixels
Height : 816 pixels
Display aspect ratio : 2.35:1
Frame rate mode : Constant
Frame rate : 23.976 fps
Color space : YUV
Chroma subsampling : 4:2:0
Bit depth : 10 bits
Scan type : Progressive
Bits/(Pixel*Frame) : 0.147
Stream size : 2.97 GiB (88%)
Writing library : x264 core
Default : No
Forced : No

Audio
ID : 2
Format : AC-3
Format/Info : Audio Coding 3
Mode extension : CM (complete main)
Format settings, Endianness : Big
Codec ID : A_AC3
Duration : 1h 16mn
Bit rate mode : Constant
Bit rate : 640 Kbps
Channel(s) : 6 channels
Channel positions : Front: L C R, Side: L R, LFE
Sampling rate : 48.0 KHz
Bit depth : 16 bits
Compression mode : Lossy
Stream size : 352 MiB (10%)
Default : Yes
Forced : No
General
Unique ID : 251747793172781074464217479768212257302 (0xBD64DC80279DF7B69427F4E276A03A16)
Complete name : E:\Berserk Golden Age Arc [BDRip 1080p]\Berserk.Golden.Age.Arc.m02.The.Battle.for.Doldrey.mkv
Format : Matroska
Format version : Version 4 / Version 2
File size : 2.55 GiB
Duration : 1h 32mn
Overall bit rate : 3 940 Kbps
Encoded date : UTC 2013-03-05 21:02:40
Writing application : mkvmerge v6.1.0 (''Old Devil'') built on Mar 2 2013 14:32:37
Writing library : libebml v1.3.0 + libmatroska v1.4.0

Video
ID : 1
Format : AVC
Format/Info : Advanced Video Codec
Format profile : High 10@L4.1
Format settings, CABAC : Yes
Format settings, ReFrames : 5 frames
Muxing mode : Container profile=Unknown@0.0
Codec ID : V_MPEG4/ISO/AVC
Duration : 1h 32mn
Bit rate : 3 222 Kbps
Width : 1 920 pixels
Height : 816 pixels
Display aspect ratio : 2.35:1
Frame rate mode : Constant
Frame rate : 23.976 fps
Color space : YUV
Chroma subsampling : 4:2:0
Bit depth : 10 bits
Scan type : Progressive
Bits/(Pixel*Frame) : 0.086
Stream size : 2.09 GiB (82%)
Writing library : x264 core 129 r2230 1cffe9f
Encoding settings : cabac=1 / ref=5 / deblock=1:0:0 / analyse=0x3:0x113 / me=umh / subme=11 / psy=1 / psy_rd=1.00:0.00 / mixed_ref=1 / me_range=32 / chroma_me=1 / trellis=2 / 8x8dct=1 / cqm=0 / deadzone=21,11 / fast_pskip=0 / chroma_qp_offset=1 / threads=18 / lookahead_threads=3 / sliced_threads=0 / slices=4 / nr=0 / decimate=1 / interlaced=0 / bluray_compat=0 / constrained_intra=0 / bframes=16 / b_pyramid=2 / b_adapt=2 / b_bias=0 / direct=3 / weightb=1 / open_gop=1 / weightp=2 / keyint=250 / keyint_min=23 / scenecut=40 / intra_refresh=0 / rc_lookahead=100 / rc=crf / mbtree=1 / crf=16.0 / qcomp=0.60 / qpmin=0 / qpmax=81 / qpstep=4 / ip_ratio=1.40 / aq=2:1.00
Default : No
Forced : No
Color primaries : BT.709
Transfer characteristics : BT.709
Matrix coefficients : BT.709

Audio
ID : 2
Format : AC-3
Format/Info : Audio Coding 3
Mode extension : CM (complete main)
Format settings, Endianness : Big
Codec ID : A_AC3
Duration : 1h 32mn
Bit rate mode : Constant
Bit rate : 640 Kbps
Channel(s) : 6 channels
Channel positions : Front: L C R, Side: L R, LFE
Sampling rate : 48.0 KHz
Bit depth : 16 bits
Compression mode : Lossy
Stream size : 425 MiB (16%)
Default : Yes
Forced : No
General
Unique ID : 172088422942351536952251012313043554210 (0x817706519B12D8708D303D01F315CFA2)
Complete name : E:\Berserk Golden Age Arc [BDRip 1080p]\Berserk.Golden.Age.Arc.m03.Descent.mkv
Format : Matroska
Format version : Version 4 / Version 2
File size : 2.93 GiB
Duration : 1h 52mn
Overall bit rate : 3 725 Kbps
Encoded date : UTC 2013-07-01 15:19:18
Writing application : mkvmerge v6.3.0 (''You can''t stop me!'') built on Jun 27 2013 22:06:07
Writing library : libebml v1.3.0 + libmatroska v1.4.0

Video
ID : 1
Format : AVC
Format/Info : Advanced Video Codec
Format profile : High 10@L5.0
Format settings, CABAC : Yes
Format settings, ReFrames : 16 frames
Codec ID : V_MPEG4/ISO/AVC
Duration : 1h 52mn
Width : 1 916 pixels
Height : 816 pixels
Display aspect ratio : 2.35:1
Frame rate mode : Constant
Frame rate : 23.976 fps
Color space : YUV
Chroma subsampling : 4:2:0
Bit depth : 10 bits
Scan type : Progressive
Writing library : x264 core 129 r2245+729M 1a52e03
Encoding settings : cabac=1 / ref=16 / deblock=1:-1:-1 / analyse=0x3:0x133 / me=umh / subme=10 / psy=1 / fade_compensate=0.72 / psy_rd=0.70:0.15 / mixed_ref=1 / me_range=24 / chroma_me=1 / trellis=2 / 8x8dct=1 / cqm=0 / deadzone=21,11 / fast_pskip=1 / chroma_qp_offset=-3 / threads=12 / lookahead_threads=3 / sliced_threads=0 / nr=0 / decimate=1 / interlaced=0 / bluray_compat=0 / constrained_intra=0 / fgo=0 / bframes=16 / b_pyramid=2 / b_adapt=2 / b_bias=0 / direct=3 / weightb=1 / open_gop=0 / weightp=2 / keyint=250 / keyint_min=23 / scenecut=40 / intra_refresh=0 / rc_lookahead=60 / rc=crf / mbtree=1 / crf=17.0 / qcomp=0.72 / qpmin=0 / qpmax=81 / qpstep=4 / ip_ratio=1.40 / aq=3:0.80
Language : English
Default : Yes
Forced : No

Audio
ID : 2
Format : AAC
Format/Info : Advanced Audio Codec
Format profile : LC
Codec ID : A_AAC
Duration : 1h 52mn
Channel(s) : 6 channels
Channel positions : Front: L C R, Side: L R, LFE
Sampling rate : 48.0 KHz
Compression mode : Lossy
Delay relative to video : 9ms
Title : Commie
Language : Japanese
Default : Yes
Forced : No

Menu
00:00:00.033 : en:Intro
00:05:36.440 : en:OP
00:07:09.610 : en:Movie
01:42:15.400 : en:ED 1
01:46:46.460 : en:Epilogue
01:47:46.350 : en:ED 2


Трекер:  [ 03-Июл-2013 19:15 ]

  

Скачать .torrent

Размер .torrent файла 27 KB


Размер: 9.87 GB
Хэш (hash) релиза: 087c74b95fdce4e777ac07f356c9a75d107abf41
Подписка на обновления:

Торренты, похожие на Берсерк: Золотой век Berserk: Ougon Jidai Hen скачать торрент

Форум Название Автор Размер S L Добавлен
Аниме | Rips ·· Берсерк: Золотой век / Berserk: Ougon Jidai Hen / Berserk: The Golden Age Arc [Movie] [3 из 3] [Без хардсаба] [RUS(int), JAP+SUB] [2012, приключения, фэнтези, драма, BDRip] [HWP] Galfimbul 35920117933.35 GB 0 0 1488980591

16:43

8-Мар-17

Аниме | Rips ·· Берсерк: Золотой век / Berserk: Ougon Jidai Hen / Berserk: The Golden Age Arc [Movie] [03 из 03] [Без хардсаба] [RUS(int), JAP+SUB] [2012 г., приключения, фэнтези, драма, BDRip] [720p] [HD] Galfimbul 1427810136913.3 GB 0 0 1413464871

16:07

16-Окт-14

Аниме | HD Rips ·· Берсерк: Золотой век / Berserk: Ougon Jidai Hen / Berserk: The Golden Age Arc [Movie] [03 из 03] [Без хардсаба] [RUS(int), JAP+SUB] [2012 г., приключения, фэнтези, драма, BDRemux] [1080p] Galfimbul 8187047752476.25 GB 0 0 1413462938

15:35

16-Окт-14

Аниме | HD Rips ·· Берсерк: Золотой век / Berserk: Ougon Jidai Hen / Berserk: The Golden Age Arc (Кубока Тосиюки) [Movie] [без хардсаба] [3 из 3] [JAP+SUB] & [1-2 из 3] [RUS(ext)] & [1 из 3] [ENG] [2012 г., приключения, фэнтези, драма, BDRemux] [1080p] Polarnik 7971275982074.24 GB 0 0 1372711881

23:51

1-Июл-13

Еще никто не оставлял запись к записи скачать торрент Берсерк: Золотой век Berserk: Ougon Jidai Hen . Будь первым!

!Обратная связь