Скачать через торрент Игровое гиперпространство Нептунии Choujigen Game Neptune The Animation бесплатно Аниме Все серии на русском torrent

Если у вас наблюдаются проблемы со скриншотами, переходом по ссылками, скачиванием торрентов - проблемы в блокировщике рекламы AdBlock. #хорошегоДня!


Статистика раздачи
Размер:  599 MB   |    Зарегистрирован:  4 года 4 месяца   |    .torrent скачан:  3 раза   |   
Раздают:  1  
   
Загрузка...
 
Автор Сообщение

Polarnik

avatar Polarnik


Игровое гиперпространство Нептунии / Choujigen Game Neptune The Animation
Страна: Япония
Год выпуска: 2013 г.
Жанр: Приключения
Продолжительность: 25 мин
Субтитры: [FRT Sora]

Режиссер: Кусакава Кейзо

Студия:

Описание: Энергия обмена" - это энергия веры и молитв людей, что верят в своих богов, она - основа всего вездесущего в мире ГеймИндустрии.
Многие года четыре богини сражаются за энергию обмена, что дает им и их странам силу и процветание, однако теперь войне пришел конец. Подписан мирный договор и все четыре страны живут в мире. Но все ли довольны мирным договором, и как долго он продлится? Или же пройдет время и богини вновь скрестят свои клинки в битве за столь желанный приз?

Равка: ohys
Качество: HDTVRip
Формат видео: MP4
Видео: AVC, 1280x720 (16:9), 3317kbps, 23.976fps, 8 bits
Аудио:
1. JAP AAC, 2ch, ~164kbps, 48.0 KHz
01. Planeptune`s Goddess (Neptune)
General
Complete name : C:\[ohys] Choujigen Game Neptune The Animation\[ohys] Choujigen Game Neptune The Animation - 01v2 (ANIMAX 1280x720 x264 AAC).mp4
Format : MPEG-4
Format profile : Base Media
Codec ID : isom
File size : 599 MiB
Duration : 24mn 0s
Overall bit rate mode : Variable
Overall bit rate : 3 487 Kbps
Encoded date : UTC 2013-07-12 14:06:40
Tagged date : UTC 2013-07-12 14:06:40

Video
ID : 1
Format : AVC
Format/Info : Advanced Video Codec
Format profile : High@L4.1
Format settings, CABAC : Yes
Format settings, ReFrames : 6 frames
Codec ID : avc1
Codec ID/Info : Advanced Video Coding
Duration : 24mn 0s
Bit rate : 3 317 Kbps
Maximum bit rate : 24.7 Mbps
Width : 1 280 pixels
Height : 720 pixels
Display aspect ratio : 16:9
Frame rate mode : Variable
Frame rate : 23.976 fps
Minimum frame rate : 14.085 fps
Maximum frame rate : 24.390 fps
Color space : YUV
Chroma subsampling : 4:2:0
Bit depth : 8 bits
Scan type : Progressive
Bits/(Pixel*Frame) : 0.150
Stream size : 569 MiB (95%)
Writing library : x264 core 133 r2334 a3ac64b
Encoding settings : cabac=1 / ref=6 / deblock=1:1:1 / analyse=0x3:0x113 / me=hex / subme=7 / psy=1 / psy_rd=0.40:0.00 / mixed_ref=1 / me_range=16 / chroma_me=1 / trellis=1 / 8x8dct=1 / cqm=0 / deadzone=21,11 / fast_pskip=1 / chroma_qp_offset=-2 / threads=12 / lookahead_threads=2 / sliced_threads=0 / nr=0 / decimate=1 / interlaced=0 / bluray_compat=0 / constrained_intra=0 / bframes=5 / b_pyramid=2 / b_adapt=1 / b_bias=0 / direct=1 / weightb=1 / open_gop=0 / weightp=2 / keyint=240 / keyint_min=23 / scenecut=40 / intra_refresh=0 / rc_lookahead=40 / rc=crf / mbtree=1 / crf=19.5 / qcomp=0.60 / qpmin=0 / qpmax=69 / qpstep=4 / ip_ratio=1.40 / aq=1:0.60
Encoded date : UTC 2013-07-12 14:06:26
Tagged date : UTC 2013-07-12 14:06:47
Color primaries : BT.709
Transfer characteristics : BT.709
Matrix coefficients : BT.709

Audio
ID : 2
Format : AAC
Format/Info : Advanced Audio Codec
Format profile : LC
Codec ID : 40
Duration : 24mn 0s
Bit rate mode : Variable
Bit rate : 164 Kbps
Maximum bit rate : 209 Kbps
Channel(s) : 2 channels
Channel positions : Front: L R
Sampling rate : 48.0 KHz
Compression mode : Lossy
Delay relative to video : 83ms
Stream size : 28.2 MiB (5%)
Language : Japanese
Encoded date : UTC 2013-07-12 14:06:26
Tagged date : UTC 2013-07-12 14:06:47


Трекер:  [ 21-Июл-2013 16:59 ]

  

Скачать .torrent

Размер .torrent файла 12 KB


Размер: 599 MB
Хэш (hash) релиза: 5d68d118a99cbcd046936aef64606c005ab17643
Подписка на обновления:

Еще никто не оставлял запись к записи скачать торрент Игровое гиперпространство Нептунии Choujigen Game Neptune The Animation . Будь первым!

!Обратная связь