Скачать через торрент музыку Заклятие The Conjuring бесплатно без регистрации torrent

Если у вас наблюдаются проблемы со скриншотами, переходом по ссылками, скачиванием торрентов - проблемы в блокировщике рекламы AdBlock. #хорошегоДня!


Статистика раздачи
Размер:  223 MB   |    Зарегистрирован:  4 года 2 месяца   |    .torrent скачан:  23 раза   |   
Раздают:  1  
   
Загрузка...
 
Автор Сообщение

Polarnik

avatar Polarnik


Заклятие / The Conjuring


Жанр: Score || Композитор: Joseph Bishara || Год выпуска диска: 2013 || Страна-производитель диска: США || Аудио кодек: FLAC (*.flac) || Тип рипа: tracks+.cue || Битрейт аудио: lossless || Продолжительность: 00:46:22 || Источник: What.cd (nazgul68) || Наличие сканов в содержимом раздачи: да
Треклист:
01. The Conjuring [00:59]
02. Dead Birds [00:33]
03. Clap Game [05:22]
04. Witch Perch [02:30]
05. Maurice [00:57]
06. Touring Haunted Planes [01:36]
07. Taped Occurrences [01:58]
08. Black Bile [01:04]
09. She Saw Something [01:09]
10. Look What She Made Me Do [00:35]
11. Sleepwalker [01:34]
12. Wall Searching [00:27]
13. Hanging Drop [02:15]
14. Water Corpse Vision [01:44]
15. You Look Very Pretty [01:49]
16. Souls Pulled In [01:47]
17. Witch Comes Through [01:28]
18. Birds Pulled In [01:15]
19. Murderous Offering [00:58]
20. The Soaring Entities [03:13]
21. Ritual Casting [03:26]
22. Cellar Tone [00:59]
23. Annabelle [03:26]
24. Doll Box [00:47]
25. Mark Isham - Family Theme [04:29]
Exact Audio Copy V1.0 beta 3 from 29. August 2011

EAC extraction logfile from 30. July 2013, 13:16

Joseph Bishara / The Conjuring

Used drive : HL-DT-STBD-RE BH10LS38 Adapter: 2 ID: 0

Read mode : SecureUtilize accurate stream : YesDefeat audio cache : YesMake use of C2 pointers : No

Read offset correction : 667Overread into Lead-In and Lead-Out : NoFill up missing offset samples with silence : YesDelete leading and trailing silent blocks : NoNull samples used in CRC calculations : YesUsed interface : Native Win32 interface for Win NT & 2000Gap handling : Appended to previous track

Used output format : User Defined EncoderSelected bitrate : 768 kBit/sQuality : HighAdd ID3 tag : NoCommand line compressor : C:\Program Files (x86)\Exact Audio Copy\FLAC\FLAC.EXEAdditional command line options : -8 -V -T "ARTIST=%artist%" -T "TITLE=%title%" -T "ALBUM=%albumtitle%" -T "DATE=%year%" -T "TRACKNUMBER=%tracknr%" -T "GENRE=%genre%" -T "PERFORMER=%albuminterpret%" -T "COMPOSER=%composer%" %haslyrics%--tag-from-file=LYRICS="%lyricsfile%"%haslyrics% -T "ALBUMARTIST=%albumartist%" -T "ALBUM ARTIST=%albumartist%" -T "DISCNUMBER=%cdnumber%" -T "TOTALDISCS=%totalcds%" -T "TOTALTRACKS=%numtracks%" -T "COMMENT=%comment%" %source% -o %dest%

TOC of the extracted CD

Track | Start | Length | Start sector | End sector --------------------------------------------------------- 1 | 0:00.00 | 0:59.35 | 0 | 4459 2 | 0:59.35 | 0:33.16 | 4460 | 6950 3 | 1:32.51 | 5:21.69 | 6951 | 31094 4 | 6:54.45 | 2:30.08 | 31095 | 42352 5 | 9:24.53 | 0:56.69 | 42353 | 46621 6 | 10:21.47 | 1:36.28 | 46622 | 53849 7 | 11:58.00 | 1:58.01 | 53850 | 62700 8 | 13:56.01 | 1:04.22 | 62701 | 67522 9 | 15:00.23 | 1:09.36 | 67523 | 72733 10 | 16:09.59 | 0:34.70 | 72734 | 75353 11 | 16:44.54 | 1:33.54 | 75354 | 82382 12 | 18:18.33 | 0:27.36 | 82383 | 84443 13 | 18:45.69 | 2:15.02 | 84444 | 94570 14 | 21:00.71 | 1:43.72 | 94571 | 102367 15 | 22:44.68 | 1:48.64 | 102368 | 110531 16 | 24:33.57 | 1:46.57 | 110532 | 118538 17 | 26:20.39 | 1:28.25 | 118539 | 125163 18 | 27:48.64 | 1:15.14 | 125164 | 130802 19 | 29:04.03 | 0:58.16 | 130803 | 135168 20 | 30:02.19 | 3:13.33 | 135169 | 149676 21 | 33:15.52 | 3:25.66 | 149677 | 165117 22 | 36:41.43 | 0:58.59 | 165118 | 169526 23 | 37:40.27 | 3:26.26 | 169527 | 185002 24 | 41:06.53 | 0:46.45 | 185003 | 188497 25 | 41:53.23 | 4:29.30 | 188498 | 208702

Track 1

Filename C:\Users\chris\Desktop\Rips\01 - Joseph Bishara - The Conjuring.wav

Pre-gap length 0:00:02.00

Peak level 96.6 % Extraction speed 0.7 X Track quality 100.0 % Test CRC FE88B48D Copy CRC FE88B48D Track not present in AccurateRip database Copy OK

Track 2

Filename C:\Users\chris\Desktop\Rips\02 - Joseph Bishara - Dead Birds.wav

Peak level 96.4 % Extraction speed 0.3 X Track quality 99.6 % Test CRC E851FE02 Copy CRC E851FE02 Track not present in AccurateRip database Copy OK

Track 3

Filename C:\Users\chris\Desktop\Rips\03 - Joseph Bishara - Clap Game.wav

Peak level 97.7 % Extraction speed 1.2 X Track quality 100.0 % Test CRC BE3BAA5E Copy CRC BE3BAA5E Track not present in AccurateRip database Copy OK

Track 4

Filename C:\Users\chris\Desktop\Rips\04 - Joseph Bishara - Witch Perch.wav

Peak level 98.2 % Extraction speed 1.1 X Track quality 100.0 % Test CRC F4F60BCA Copy CRC F4F60BCA Track not present in AccurateRip database Copy OK

Track 5

Filename C:\Users\chris\Desktop\Rips\05 - Joseph Bishara - Maurice.wav

Peak level 96.4 % Extraction speed 0.9 X Track quality 100.0 % Test CRC 8F37A0CD Copy CRC 8F37A0CD Track not present in AccurateRip database Copy OK

Track 6

Filename C:\Users\chris\Desktop\Rips\06 - Joseph Bishara - Touring Haunted Planes.wav

Peak level 96.4 % Extraction speed 1.1 X Track quality 100.0 % Test CRC 73D577CE Copy CRC 73D577CE Track not present in AccurateRip database Copy OK

Track 7

Filename C:\Users\chris\Desktop\Rips\07 - Joseph Bishara - Taped Occurrences.wav

Peak level 96.5 % Extraction speed 1.2 X Track quality 100.0 % Test CRC FBC96FE4 Copy CRC FBC96FE4 Track not present in AccurateRip database Copy OK

Track 8

Filename C:\Users\chris\Desktop\Rips\08 - Joseph Bishara - Black Bile.wav

Peak level 97.4 % Extraction speed 1.0 X Track quality 100.0 % Test CRC EC27B4F5 Copy CRC EC27B4F5 Track not present in AccurateRip database Copy OK

Track 9

Filename C:\Users\chris\Desktop\Rips\09 - Joseph Bishara - She Saw Something.wav

Peak level 96.7 % Extraction speed 1.1 X Track quality 100.0 % Test CRC 773E5233 Copy CRC 773E5233 Track not present in AccurateRip database Copy OK

Track 10

Filename C:\Users\chris\Desktop\Rips\10 - Joseph Bishara - Look What She Made Me Do.wav

Peak level 100.0 % Extraction speed 0.8 X Track quality 100.0 % Test CRC 7EA7FD55 Copy CRC 7EA7FD55 Track not present in AccurateRip database Copy OK

Track 11

Filename C:\Users\chris\Desktop\Rips\11 - Joseph Bishara - Sleepwalker.wav

Peak level 96.4 % Extraction speed 1.2 X Track quality 100.0 % Test CRC 74A79F49 Copy CRC 74A79F49 Track not present in AccurateRip database Copy OK

Track 12

Filename C:\Users\chris\Desktop\Rips\12 - Joseph Bishara - Wall Searching.wav

Peak level 96.5 % Extraction speed 0.7 X Track quality 100.0 % Test CRC 23348B6B Copy CRC 23348B6B Track not present in AccurateRip database Copy OK

Track 13

Filename C:\Users\chris\Desktop\Rips\13 - Joseph Bishara - Hanging Drop.wav

Peak level 98.0 % Extraction speed 1.4 X Track quality 100.0 % Test CRC DD009CDD Copy CRC DD009CDD Track not present in AccurateRip database Copy OK

Track 14

Filename C:\Users\chris\Desktop\Rips\14 - Joseph Bishara - Water Corpse Vision.wav

Peak level 96.6 % Extraction speed 1.3 X Track quality 100.0 % Test CRC 86DC7E6B Copy CRC 86DC7E6B Track not present in AccurateRip database Copy OK

Track 15

Filename C:\Users\chris\Desktop\Rips\15 - Joseph Bishara - You Look Very Pretty.wav

Peak level 96.9 % Extraction speed 1.1 X Track quality 99.9 % Test CRC 6F0BC584 Copy CRC 6F0BC584 Track not present in AccurateRip database Copy OK

Track 16

Filename C:\Users\chris\Desktop\Rips\16 - Joseph Bishara - Souls Pulled In.wav

Peak level 97.5 % Extraction speed 1.4 X Track quality 100.0 % Test CRC B8E250AE Copy CRC B8E250AE Track not present in AccurateRip database Copy OK

Track 17

Filename C:\Users\chris\Desktop\Rips\17 - Joseph Bishara - Witch Comes Through.wav

Peak level 96.6 % Extraction speed 1.3 X Track quality 100.0 % Test CRC 19A780BB Copy CRC 19A780BB Track not present in AccurateRip database Copy OK

Track 18

Filename C:\Users\chris\Desktop\Rips\18 - Joseph Bishara - Birds Pulled In.wav

Peak level 96.5 % Extraction speed 1.3 X Track quality 100.0 % Test CRC BBE9E2CB Copy CRC BBE9E2CB Track not present in AccurateRip database Copy OK

Track 19

Filename C:\Users\chris\Desktop\Rips\19 - Joseph Bishara - Murderous Offering.wav

Peak level 96.8 % Extraction speed 1.2 X Track quality 100.0 % Test CRC 77C90BCF Copy CRC 77C90BCF Track not present in AccurateRip database Copy OK

Track 20

Filename C:\Users\chris\Desktop\Rips\20 - Joseph Bishara - The Soaring Entities.wav

Peak level 96.6 % Extraction speed 1.7 X Track quality 100.0 % Test CRC E8868823 Copy CRC E8868823 Track not present in AccurateRip database Copy OK

Track 21

Filename C:\Users\chris\Desktop\Rips\21 - Joseph Bishara - Ritual Casting.wav

Peak level 74.2 % Extraction speed 1.8 X Track quality 100.0 % Test CRC 4CE56A5D Copy CRC 4CE56A5D Track not present in AccurateRip database Copy OK

Track 22

Filename C:\Users\chris\Desktop\Rips\22 - Joseph Bishara - Cellar Tone.wav

Peak level 82.9 % Extraction speed 0.9 X Track quality 99.8 % Test CRC F74F134C Copy CRC F74F134C Track not present in AccurateRip database Copy OK

Track 23

Filename C:\Users\chris\Desktop\Rips\23 - Joseph Bishara - Annabelle.wav

Peak level 96.7 % Extraction speed 1.9 X Track quality 100.0 % Test CRC 67CC4CAA Copy CRC 67CC4CAA Track not present in AccurateRip database Copy OK

Track 24

Filename C:\Users\chris\Desktop\Rips\24 - Joseph Bishara - Doll Box.wav

Peak level 90.4 % Extraction speed 1.2 X Track quality 100.0 % Test CRC 0C51E7D0 Copy CRC 0C51E7D0 Track not present in AccurateRip database Copy OK

Track 25

Filename C:\Users\chris\Desktop\Rips\25 - Mark Isham - Family Theme.wav

Peak level 96.5 % Extraction speed 2.0 X Track quality 100.0 % Test CRC 1B1669B2 Copy CRC 1B1669B2 Track not present in AccurateRip database Copy OK

None of the tracks are present in the AccurateRip database

No errors occurred

End of status report

==== Log checksum FBE40E18B4D014D7D36A8949D5A59296C21D6D4A0B9989E0D7DE653059C95192 ====
REM GENRE SoundtrackREM DATE 2013REM DISCID 410ADE19REM COMMENT "ExactAudioCopy v1.0b3"FILE "01 - Joseph Bishara - The Conjuring.wav" WAVE TRACK 01 AUDIO INDEX 01 00:00:00FILE "02 - Joseph Bishara - Dead Birds.wav" WAVE TRACK 02 AUDIO INDEX 01 00:00:00FILE "03 - Joseph Bishara - Clap Game.wav" WAVE TRACK 03 AUDIO INDEX 01 00:00:00FILE "04 - Joseph Bishara - Witch Perch.wav" WAVE TRACK 04 AUDIO INDEX 01 00:00:00FILE "05 - Joseph Bishara - Maurice.wav" WAVE TRACK 05 AUDIO INDEX 01 00:00:00FILE "06 - Joseph Bishara - Touring Haunted Planes.wav" WAVE TRACK 06 AUDIO INDEX 01 00:00:00FILE "07 - Joseph Bishara - Taped Occurrences.wav" WAVE TRACK 07 AUDIO INDEX 01 00:00:00FILE "08 - Joseph Bishara - Black Bile.wav" WAVE TRACK 08 AUDIO INDEX 01 00:00:00FILE "09 - Joseph Bishara - She Saw Something.wav" WAVE TRACK 09 AUDIO INDEX 01 00:00:00FILE "10 - Joseph Bishara - Look What She Made Me Do.wav" WAVE TRACK 10 AUDIO INDEX 01 00:00:00FILE "11 - Joseph Bishara - Sleepwalker.wav" WAVE TRACK 11 AUDIO INDEX 01 00:00:00FILE "12 - Joseph Bishara - Wall Searching.wav" WAVE TRACK 12 AUDIO INDEX 01 00:00:00FILE "13 - Joseph Bishara - Hanging Drop.wav" WAVE TRACK 13 AUDIO INDEX 01 00:00:00FILE "14 - Joseph Bishara - Water Corpse Vision.wav" WAVE TRACK 14 AUDIO INDEX 01 00:00:00FILE "15 - Joseph Bishara - You Look Very Pretty.wav" WAVE TRACK 15 AUDIO INDEX 01 00:00:00FILE "16 - Joseph Bishara - Souls Pulled In.wav" WAVE TRACK 16 AUDIO INDEX 01 00:00:00FILE "17 - Joseph Bishara - Witch Comes Through.wav" WAVE TRACK 17 AUDIO INDEX 01 00:00:00FILE "18 - Joseph Bishara - Birds Pulled In.wav" WAVE TRACK 18 AUDIO INDEX 01 00:00:00FILE "19 - Joseph Bishara - Murderous Offering.wav" WAVE TRACK 19 AUDIO INDEX 01 00:00:00FILE "20 - Joseph Bishara - The Soaring Entities.wav" WAVE TRACK 20 AUDIO INDEX 01 00:00:00FILE "21 - Joseph Bishara - Ritual Casting.wav" WAVE TRACK 21 AUDIO INDEX 01 00:00:00FILE "22 - Joseph Bishara - Cellar Tone.wav" WAVE TRACK 22 AUDIO INDEX 01 00:00:00FILE "23 - Joseph Bishara - Annabelle.wav" WAVE TRACK 23 AUDIO INDEX 01 00:00:00FILE "24 - Joseph Bishara - Doll Box.wav" WAVE TRACK 24 AUDIO INDEX 01 00:00:00FILE "25 - Mark Isham - Family Theme.wav" WAVE TRACK 25 AUDIO INDEX 01 00:00:00


Трекер:  [ 25-Сен-2013 08:41 ]

  

Скачать .torrent

Размер .torrent файла 20 KB


Размер: 223 MB
Хэш (hash) релиза: 7d845cd3e8cca25598792f0a77bf076018636d81

Торренты, похожие на Заклятие The Conjuring скачать торрент

Форум Название Автор Размер S L Добавлен
Саундтреки к фильмам и мультфильмам (mp3) ·· (Score) Заклятие / The Conjuring (by Joseph Bishara) - 2013, MP3, 320 kbps Galfimbul 150030153143 MB 0 0 1375367498

17:31

1-Авг-13

Саундтреки к фильмам и мультфильмам (lossless) ·· (Score) Заклятие / The Conjuring (by Joseph Bishara, Mark Isham) - 2013, FLAC (tracks+.cue), lossless Polarnik 233757909223 MB 0 0 1375216482

23:34

30-Июл-13

Саундтреки к фильмам и мультфильмам (mp3) ·· (Score) Заклятие 2 / The Conjuring 2 (Joseph Bishara) - 2016, MP3, 320 kbps Galfimbul 131304776125 MB 0 0 1465710041

08:40

12-Июн-16

Еще никто не оставлял запись к записи скачать торрент Заклятие The Conjuring . Будь первым!

!Обратная связь