Скачать через торрент музыку Хэллоуин 3: Сезон ведьм Halloween 3: Season Of The Witch бесплатно без регистрации torrent

Если у вас наблюдаются проблемы со скриншотами, переходом по ссылками, скачиванием торрентов - проблемы в блокировщике рекламы AdBlock. #хорошегоДня!


Статистика раздачи
Размер:  185 MB   |    Зарегистрирован:  4 года 2 месяца   |    .torrent скачан:  29 раз   |   
Раздают:  1  
   
Загрузка...
 
Автор Сообщение

Polarnik

avatar Polarnik


Хэллоуин 3: Сезон ведьм / Halloween 3: Season Of The Witch

Жанр: Score
Композитор: John Carpenter & Alan Howarth
Год выпуска диска: 1994
Год выпуска фильма: 1982
Страна-производитель диска: США
Издатель (лейбл): Varese Sarabande
Номер по каталогу: VSD-5243

Аудиокодек: FLAC (*.flac)
Тип рипа: tracks+.cue
Битрейт аудио: lossless
Продолжительность: 36:52

Источник: what.cd
Наличие сканов в содержимом раздачи: нет

Треклист:
01 Main Title (2:48)
02 Chariots Of Pumpkins (3:33)
03 Drive To Santa Mira (2:33)
04 Starker And Marge (1:55)
05 First Chase (3:12)
06 Robots At The Factory (2:04)
07 Halloween Montage (1:39)
08 Hello Grandma (4:49)
09 The Rock (3:27)
10 Challis Escapes (3:36)
11 South Corridor (3:01)
12 Goodbye Ellie (4:15)

Доп. информация: Оригинальное издание саундтрека Джона Карпентера и Алана Ховарта к 3-ему "Хэллоуину" 1982 года режиссёра Томми Ли Уоллеса.
Первое издание на CD без кучи бонус-треков.
Естественно, ярым поклонникам электронного саунда Карпентера выгоднее брать в коллекцию расширенное ремастеренное издание 2007 года, но и этот CD лишним на трекере не будет. Треклист соответствует оригинальному винилу 1982 года! Ничего лишнего.
X Lossless Decoder version 20130407 (143.0)

XLD extraction logfile from 2013-04-23 21:14:41 +0200

John Carpenter and Alan Howarth / Halloween III: Season of the Witch

Used drive : PLEXTOR BD-ROM PX-B120U (revision 1.06)Media type : Pressed CD

Ripper mode : XLD Secure RipperDisable audio cache : OK for the drive with a cache less than 1375KiBMake use of C2 pointers : NORead offset correction : 696Max retry count : 100Gap status : Analyzed, Appended (except HTOA)

TOC of the extracted CD Track | Start | Length | Start sector | End sector --------------------------------------------------------- 1 | 00:00:37 | 02:48:05 | 37 | 12641 2 | 02:48:42 | 03:32:63 | 12642 | 28604 3 | 06:21:30 | 02:32:70 | 28605 | 40074 4 | 08:54:25 | 01:55:37 | 40075 | 48736 5 | 10:49:62 | 03:11:53 | 48737 | 63114 6 | 14:01:40 | 02:04:00 | 63115 | 72414 7 | 16:05:40 | 01:39:10 | 72415 | 79849 8 | 17:44:50 | 04:49:17 | 79850 | 101541 9 | 22:33:67 | 03:27:20 | 101542 | 117086 10 | 26:01:12 | 03:35:53 | 117087 | 133264 11 | 29:36:65 | 03:00:47 | 133265 | 146811 12 | 32:37:37 | 04:15:18 | 146812 | 165954

List of alternate offset correction values # | Absolute | Relative | Confidence ------------------------------------------ 1 | -143 | -839 | 4 2 | 798 | 102 | 3

AccurateRip Summary (DiscID: 000f69d9-009119da-b008a40c) Track 01 : NG (total 7 submissions) Track 02 : OK (v1, confidence 4/7, with different offset) Track 03 : OK (v1, confidence 4/7, with different offset) Track 04 : OK (v1, confidence 4/7, with different offset) Track 05 : OK (v1, confidence 4/7, with different offset) Track 06 : OK (v1, confidence 4/7, with different offset) Track 07 : OK (v1, confidence 4/7, with different offset) Track 08 : OK (v1, confidence 4/7, with different offset) Track 09 : OK (v1, confidence 4/7, with different offset) Track 10 : OK (v1, confidence 4/7, with different offset) Track 11 : OK (v1, confidence 4/7, with different offset) Track 12 : OK (v1, confidence 4/7, with different offset) ->11 tracks accurately ripped, 1 track not

All Tracks Album gain : -0.60 dB Peak : 0.954987 Statistics Read error : 0 Jitter error (maybe fixed) : 0 Retry sector count : 0 Damaged sector count : 0

Track 01 Filename : /Users/User/Music/John Carpenter and Alan Howarth - Halloween III - Season of the Witch (1982) [FLAC]/01 Main Title.flac Pre-gap length : 00:02:37

Track gain : 3.83 dB Peak : 0.511963 CRC32 hash (test run) : 785774F8 CRC32 hash : 785774F8 CRC32 hash (skip zero) : 3D3E836B AccurateRip v1 signature : DAC7C44C AccurateRip v2 signature : 1F163623 ->Rip may not be accurate (total 7 submissions). Statistics Read error : 0 Jitter error (maybe fixed) : 0 Retry sector count : 0 Damaged sector count : 0

Track 02 Filename : /Users/User/Music/John Carpenter and Alan Howarth - Halloween III - Season of the Witch (1982) [FLAC]/02 Chariots of Pumpkins.flac

Track gain : -1.78 dB Peak : 0.920807 CRC32 hash (test run) : C6D36F07 CRC32 hash : C6D36F07 CRC32 hash (skip zero) : 7062A307 AccurateRip v1 signature : 60B6A944 (5234566D w/correction) AccurateRip v2 signature : 9059348A ->Accurately ripped with different offset (v1, confidence 4/7, offset -839) Statistics Read error : 0 Jitter error (maybe fixed) : 0 Retry sector count : 0 Damaged sector count : 0

Track 03 Filename : /Users/User/Music/John Carpenter and Alan Howarth - Halloween III - Season of the Witch (1982) [FLAC]/03 Drive to Santa Mira.flac

Track gain : 0.53 dB Peak : 0.840912 CRC32 hash (test run) : 7D56089D CRC32 hash : 7D56089D CRC32 hash (skip zero) : 205E3C73 AccurateRip v1 signature : BF8EFF56 (D54B81C9 w/correction) AccurateRip v2 signature : B6AD9E72 ->Accurately ripped with different offset (v1, confidence 4/7, offset -839) Statistics Read error : 0 Jitter error (maybe fixed) : 0 Retry sector count : 0 Damaged sector count : 0

Track 04 Filename : /Users/User/Music/John Carpenter and Alan Howarth - Halloween III - Season of the Witch (1982) [FLAC]/04 Starker and Marge.flac

Track gain : -0.20 dB Peak : 0.638458 CRC32 hash (test run) : C83CF7C2 CRC32 hash : C83CF7C2 CRC32 hash (skip zero) : 8365FDD7 AccurateRip v1 signature : C702CDB1 (51C224F7 w/correction) AccurateRip v2 signature : 622BE69D ->Accurately ripped with different offset (v1, confidence 4/7, offset -839) Statistics Read error : 0 Jitter error (maybe fixed) : 0 Retry sector count : 0 Damaged sector count : 0

Track 05 Filename : /Users/User/Music/John Carpenter and Alan Howarth - Halloween III - Season of the Witch (1982) [FLAC]/05 First Chase.flac

Track gain : -0.71 dB Peak : 0.954987 CRC32 hash (test run) : 71F5971D CRC32 hash : 71F5971D CRC32 hash (skip zero) : CFCA3865 AccurateRip v1 signature : AFDAA2AC (C7492B45 w/correction) AccurateRip v2 signature : 230D212E ->Accurately ripped with different offset (v1, confidence 4/7, offset -839) Statistics Read error : 0 Jitter error (maybe fixed) : 0 Retry sector count : 0 Damaged sector count : 0

Track 06 Filename : /Users/User/Music/John Carpenter and Alan Howarth - Halloween III - Season of the Witch (1982) [FLAC]/06 Robots at the Factory.flac

Track gain : 1.00 dB Peak : 0.659393 CRC32 hash (test run) : 98C8CEA4 CRC32 hash : 98C8CEA4 CRC32 hash (skip zero) : 7198851F AccurateRip v1 signature : DC705618 (F0BE2F2F w/correction) AccurateRip v2 signature : B21D6909 ->Accurately ripped with different offset (v1, confidence 4/7, offset -839) Statistics Read error : 0 Jitter error (maybe fixed) : 0 Retry sector count : 0 Damaged sector count : 0

Track 07 Filename : /Users/User/Music/John Carpenter and Alan Howarth - Halloween III - Season of the Witch (1982) [FLAC]/07 Halloween Montage.flac

Track gain : -3.26 dB Peak : 0.911987 CRC32 hash (test run) : 61B5644F CRC32 hash : 61B5644F CRC32 hash (skip zero) : C4DAF07B AccurateRip v1 signature : EF0B2148 (C1EAA56F w/correction) AccurateRip v2 signature : BD776CB1 ->Accurately ripped with different offset (v1, confidence 4/7, offset -839) Statistics Read error : 0 Jitter error (maybe fixed) : 0 Retry sector count : 0 Damaged sector count : 0

Track 08 Filename : /Users/User/Music/John Carpenter and Alan Howarth - Halloween III - Season of the Witch (1982) [FLAC]/08 Hello Grandma.flac

Track gain : -1.50 dB Peak : 0.932892 CRC32 hash (test run) : 22BE3941 CRC32 hash : 22BE3941 CRC32 hash (skip zero) : 9605D841 AccurateRip v1 signature : 462C3414 (DF892D5D w/correction) AccurateRip v2 signature : 27DBF0F9 ->Accurately ripped with different offset (v1, confidence 4/7, offset -839) Statistics Read error : 0 Jitter error (maybe fixed) : 0 Retry sector count : 0 Damaged sector count : 0

Track 09 Filename : /Users/User/Music/John Carpenter and Alan Howarth - Halloween III - Season of the Witch (1982) [FLAC]/09 The Rock.flac

Track gain : -0.78 dB Peak : 0.861755 CRC32 hash (test run) : 530CE29B CRC32 hash : 530CE29B CRC32 hash (skip zero) : 55AA9321 AccurateRip v1 signature : 4B027326 (EEAACF16 w/correction) AccurateRip v2 signature : DDF6E64A ->Accurately ripped with different offset (v1, confidence 4/7, offset -839) Statistics Read error : 0 Jitter error (maybe fixed) : 0 Retry sector count : 0 Damaged sector count : 0

Track 10 Filename : /Users/User/Music/John Carpenter and Alan Howarth - Halloween III - Season of the Witch (1982) [FLAC]/10 Challis Escapes.flac

Track gain : 5.79 dB Peak : 0.529358 CRC32 hash (test run) : 8C7AFD17 CRC32 hash : 8C7AFD17 CRC32 hash (skip zero) : 070FEEF0 AccurateRip v1 signature : 82B52C05 (FE27EE18 w/correction) AccurateRip v2 signature : 6C3D101A ->Accurately ripped with different offset (v1, confidence 4/7, offset -839) Statistics Read error : 0 Jitter error (maybe fixed) : 0 Retry sector count : 0 Damaged sector count : 0

Track 11 Filename : /Users/User/Music/John Carpenter and Alan Howarth - Halloween III - Season of the Witch (1982) [FLAC]/11 South Corridor.flac

Track gain : 4.27 dB Peak : 0.628693 CRC32 hash (test run) : 11D2DD03 CRC32 hash : 11D2DD03 CRC32 hash (skip zero) : 7ECD8346 AccurateRip v1 signature : 5C1F929C (07F47767 w/correction) AccurateRip v2 signature : 81F99582 ->Accurately ripped with different offset (v1, confidence 4/7, offset -839) Statistics Read error : 0 Jitter error (maybe fixed) : 0 Retry sector count : 0 Damaged sector count : 0

Track 12 Filename : /Users/User/Music/John Carpenter and Alan Howarth - Halloween III - Season of the Witch (1982) [FLAC]/12 Goodbye Ellie.flac

Track gain : -0.03 dB Peak : 0.878510 CRC32 hash (test run) : 57E09E54 CRC32 hash : 57E09E54 CRC32 hash (skip zero) : 9CB893C1 AccurateRip v1 signature : 4B7C409A (46B8D3E3 w/correction) AccurateRip v2 signature : FFEF6419 ->Accurately ripped with different offset (v1, confidence 4/7, offset -839) Statistics Read error : 0 Jitter error (maybe fixed) : 0 Retry sector count : 0 Damaged sector count : 0

No errors occurred

End of status report

-----BEGIN XLD SIGNATURE-----qRz78oQn9TbNF0Bi5lW9yFkWA.ibJYkZfmcuLhVKCT5wqKoQ8l7Qz4vi6U.gswlS5nHdGsG9iwYGnNfIJhYUlgvpa7Xz4GS8.y7GDbm-----END XLD SIGNATURE-----
TITLE "Halloween III - Season Of The Witch"PERFORMER "John Carpenter & Alan Howarth"REM GENRE "Soundtrack"REM DATE "1982"REM DISCID B008A40CREM REPLAYGAIN_ALBUM_GAIN -0.60 dBREM REPLAYGAIN_ALBUM_PEAK 0.954987FILE "01 Main Title.wav" WAVE TRACK 01 AUDIO TITLE "Main Title" PERFORMER "John Carpenter & Alan Howarth" REM REPLAYGAIN_TRACK_GAIN 3.83 dB REM REPLAYGAIN_TRACK_PEAK 0.511963 PREGAP 00:00:37 INDEX 01 00:00:00FILE "02 Chariots Of Pumpkins.wav" WAVE TRACK 02 AUDIO TITLE "Chariots Of Pumpkins" PERFORMER "John Carpenter & Alan Howarth" REM REPLAYGAIN_TRACK_GAIN -1.78 dB REM REPLAYGAIN_TRACK_PEAK 0.920807 INDEX 01 00:00:00FILE "03 Drive To Santa Mira.wav" WAVE TRACK 03 AUDIO TITLE "Drive To Santa Mira" PERFORMER "John Carpenter & Alan Howarth" REM REPLAYGAIN_TRACK_GAIN 0.53 dB REM REPLAYGAIN_TRACK_PEAK 0.840912 INDEX 01 00:00:00FILE "04 Starker And Marge.wav" WAVE TRACK 04 AUDIO TITLE "Starker And Marge" PERFORMER "John Carpenter & Alan Howarth" REM REPLAYGAIN_TRACK_GAIN -0.20 dB REM REPLAYGAIN_TRACK_PEAK 0.638458 INDEX 01 00:00:00FILE "05 First Chase.wav" WAVE TRACK 05 AUDIO TITLE "First Chase" PERFORMER "John Carpenter & Alan Howarth" REM REPLAYGAIN_TRACK_GAIN -0.71 dB REM REPLAYGAIN_TRACK_PEAK 0.954987 INDEX 01 00:00:00FILE "06 Robots At The Factory.wav" WAVE TRACK 06 AUDIO TITLE "Robots At The Factory" PERFORMER "John Carpenter & Alan Howarth" REM REPLAYGAIN_TRACK_GAIN 1.00 dB REM REPLAYGAIN_TRACK_PEAK 0.659393 INDEX 01 00:00:00FILE "07 Halloween Montage.wav" WAVE TRACK 07 AUDIO TITLE "Halloween Montage" PERFORMER "John Carpenter & Alan Howarth" REM REPLAYGAIN_TRACK_GAIN -3.26 dB REM REPLAYGAIN_TRACK_PEAK 0.911987 INDEX 01 00:00:00FILE "08 Hello Grandma.wav" WAVE TRACK 08 AUDIO TITLE "Hello Grandma" PERFORMER "John Carpenter & Alan Howarth" REM REPLAYGAIN_TRACK_GAIN -1.50 dB REM REPLAYGAIN_TRACK_PEAK 0.932892 INDEX 01 00:00:00FILE "09 The Rock.wav" WAVE TRACK 09 AUDIO TITLE "The Rock" PERFORMER "John Carpenter & Alan Howarth" REM REPLAYGAIN_TRACK_GAIN -0.78 dB REM REPLAYGAIN_TRACK_PEAK 0.861755 INDEX 01 00:00:00FILE "10 Challis Escapes.wav" WAVE TRACK 10 AUDIO TITLE "Challis Escapes" PERFORMER "John Carpenter & Alan Howarth" REM REPLAYGAIN_TRACK_GAIN 5.79 dB REM REPLAYGAIN_TRACK_PEAK 0.529358 INDEX 01 00:00:00FILE "11 South Corridor.wav" WAVE TRACK 11 AUDIO TITLE "South Corridor" PERFORMER "John Carpenter & Alan Howarth" REM REPLAYGAIN_TRACK_GAIN 4.27 dB REM REPLAYGAIN_TRACK_PEAK 0.628693 INDEX 01 00:00:00FILE "12 Goodbye Ellie.wav" WAVE TRACK 12 AUDIO TITLE "Goodbye Ellie" PERFORMER "John Carpenter & Alan Howarth" REM REPLAYGAIN_TRACK_GAIN -0.03 dB REM REPLAYGAIN_TRACK_PEAK 0.878510 INDEX 01 00:00:00


Трекер:  [ 25-Сен-2013 08:39 ]

  

Скачать .torrent

Размер .torrent файла 16 KB


Размер: 185 MB
Хэш (hash) релиза: 7f0699a646927b3ba42ac62adc1ac6072c5bcaf8

Еще никто не оставлял запись к записи скачать торрент Хэллоуин 3: Сезон ведьм Halloween 3: Season Of The Witch . Будь первым!

!Обратная связь