Скачать через торрент музыку Various Artists - The Songs of Almodovar - 1997, FLAC бесплатно без регистрации torrent

Если у вас наблюдаются проблемы со скриншотами, переходом по ссылками, скачиванием торрентов - проблемы в блокировщике рекламы AdBlock. #хорошегоДня!


Статистика раздачи
Размер:  418 MB   |    Зарегистрирован:  4 года 2 месяца   |    .torrent скачан:  19 раз   |   
Раздают:  1  
   
Загрузка...
 
Автор Сообщение

Polarnik

avatar Polarnik


Various Artists - The Songs of Almodovar

Жанр: Soundtrack
Год выпуска диска: 1997
Год выпуска фильма: 1980 - 1995
Страна-производитель диска: Spain
Издатель (лейбл): EMI Music (Spain)
Номер по каталогу: 7243 4 94674 2 2
Аудиокодек: FLAC (*.flac)
Тип рипа: tracks+.cue
Битрейт аудио: lossless
Продолжительность: 1:18:38
Источник: бескрайние просторы интернета
Наличие сканов в содержимом раздачи: да
Треклист:
01 Un Ano de Amor - Luz (from "High Heels") Pedro Almodóvar, Mogol
02 Piensa en Mi - Luz (from "High Heels") Pedro Almodóvar, Lara, A
03 Suck It to Me - Almodovar\McNamara (from "Labyrinth Of Passion") Pedro Almodóvar, Almodovar, Pedro
04 Gran Ganga - Almodovar\McNamara (from "Labyrinth Of Passion") Pedro Almodóvar, Almodovar, Pedro
05 Estaba Escrito - Monna Bell (from "Pepi, Luci, Bom Y Otras Chicas Del Monton") Pedro Almodóvar, Domingo
06 Encadenados - Lucho Gatica (from "Dark Habits") Pedro Almodóvar, Briz, C.A
07 Sali Por Que Sali - Cheo Feliciano (from "Dark Habits") Pedro Almodóvar, Alonso, Curet
08 Esperame en el Cielo - Mina (from "Matador") Pedro Almodóvar, Vidal, P. Lopez
09 Burn it Blue - Caetano Velose & Lila Downs ("Hable Con Ella") Pedro Almodóvar, Villa, J.J
10 La Bruia- Los Vega ("Hable Con Ella") Pedro Almodóvar, Jimenez, J.A
11 La Liorona- Lila Downs ("Hable Con Ella") Pedro Almodóvar, Romero, V
12 En el Último Trago - Chavela Vargas (from "The Flower Of My Secret") Pedro Almodóvar, Alonso, C. Curet
13 Ay Amor - Bola De Nieve (from "The Flower Of My Secret") Pedro Almodóvar, De La Calva, M
14 Puro Teatro - La Lupe (from "Women On The Verge Of A Nervous Breakdown") Pedro Almodóvar, Almodovar, Pedro
15 Soy Infeliz - Lola Beltran (from "Women On The Verge Of A Nervous Breakdown") Pedro Almodóvar, Almodovar, Pedro
16 Resistiré - Duo Dinamico (from "Tie Me Up, Tie Me Down") Pedro Almodóvar, Brel, J
17 Susan Get Down - Almodovar\McNamara (from "Law Of Desire") Pedro Almodóvar, Almodovar, Pedro
18 Ne Me Quitte Pas - Maysa Mataraso (from "Law Of Desire") Pedro Almodóvar, Navarro, Ch
19 Voy a Ser Mama - Almodovar\McNamara (from "Law Of Desire") Pedro Almodóvar, Marroquin, J. Sabre
20 Se Nos Rompio el Amor - F.Y.B De Utrera (from "Kika") Pedro Almodóvar, Popular
21 Luz de Luna - Chavela Vargas (from "Kika") Pedro Almodóvar, Carrillo, A
22 La Bien Paga - Miguel De Molina (from "What Have I Done To Deserve This") Pedro Almodóvar, Perello
23 Nur Nicht Aus Liebe Weinen - Zarah Leander (from "What Have I Done To Deserve This") Pedro Almodóvar, Mackeben, Theo
Exact Audio Copy V1.0 beta 3 from 29. August 2011

EAC extraction logfile from 18. May 2013, 14:53

Various Artists / Le Canzoni Dei Film Di Almodóvar

Used drive : TSSTcorpCDDVDW SH-224BB Adapter: 1 ID: 0

Read mode : SecureUtilize accurate stream : YesDefeat audio cache : YesMake use of C2 pointers : No

Read offset correction : 6Overread into Lead-In and Lead-Out : NoFill up missing offset samples with silence : YesDelete leading and trailing silent blocks : NoNull samples used in CRC calculations : YesUsed interface : Native Win32 interface for Win NT & 2000Gap handling : Appended to previous track

Used output format : User Defined EncoderSelected bitrate : 1024 kBit/sQuality : HighAdd ID3 tag : NoCommand line compressor : C:\Program Files\Exact Audio Copy\Flac\flac.exeAdditional command line options : -8 -V -T "ARTIST=%artist%" -T "TITLE=%title%" -T "ALBUM=%albumtitle%" -T "DATE=%year%" -T "TRACKNUMBER=%tracknr%" -T "GENRE=%genre%" -T "PERFORMER=%albuminterpret%" -T "COMPOSER=%composer%" %haslyrics%--tag-from-file=LYRICS="%lyricsfile%"%haslyrics% -T "ALBUMARTIST=%albumartist%" -T "DISCNUMBER=%cdnumber%" -T "TOTALDISCS=%totalcds%" -T "TOTALTRACKS=%numtracks%" -T "COMMENT=%comment%" %source% -o %dest%

TOC of the extracted CD

Track | Start | Length | Start sector | End sector --------------------------------------------------------- 1 | 0:00.00 | 3:21.37 | 0 | 15111 2 | 3:21.37 | 4:29.43 | 15112 | 35329 3 | 7:51.05 | 4:30.12 | 35330 | 55591 4 | 12:21.17 | 3:01.70 | 55592 | 69236 5 | 15:23.12 | 2:03.48 | 69237 | 78509 6 | 17:26.60 | 3:17.05 | 78510 | 93289 7 | 20:43.65 | 4:11.64 | 93290 | 112178 8 | 24:55.54 | 3:22.38 | 112179 | 127366 9 | 28:18.17 | 2:34.13 | 127367 | 138929 10 | 30:52.30 | 2:43.67 | 138930 | 151221 11 | 33:36.22 | 3:10.63 | 151222 | 165534 12 | 36:47.10 | 2:59.30 | 165535 | 178989 13 | 39:46.40 | 4:03.69 | 178990 | 197283 14 | 43:50.34 | 2:32.26 | 197284 | 208709 15 | 46:22.60 | 3:57.72 | 208710 | 226556 16 | 50:20.57 | 3:51.10 | 226557 | 243891 17 | 54:11.67 | 3:52.45 | 243892 | 261336 18 | 58:04.37 | 2:44.20 | 261337 | 273656 19 | 60:48.57 | 1:52.00 | 273657 | 282056 20 | 62:40.57 | 3:37.65 | 282057 | 298396 21 | 66:18.47 | 3:21.50 | 298397 | 313521 22 | 69:40.22 | 3:28.35 | 313522 | 329156 23 | 73:08.57 | 4:17.68 | 329157 | 348499

Track 1

Filename C:\EAC Rips\The Songs of Almodovar [FLAC] {EMI 7243 4946742 2}\01 - Luz Casal - Un año de amor .wav

Pre-gap length 0:00:02.00

Peak level 96.5 % Extraction speed 3.6 X Track quality 99.9 % Test CRC D71D51E4 Copy CRC D71D51E4 Accurately ripped (confidence 12) [8E65378A] (AR v1) Copy OK

Track 2

Filename C:\EAC Rips\The Songs of Almodovar [FLAC] {EMI 7243 4946742 2}\02 - Luz Casal - Piensa en mí .wav

Pre-gap length 0:00:03.04

Peak level 96.5 % Extraction speed 4.3 X Track quality 99.9 % Test CRC C63068BB Copy CRC C63068BB Accurately ripped (confidence 12) [BA81D963] (AR v1) Copy OK

Track 3

Filename C:\EAC Rips\The Songs of Almodovar [FLAC] {EMI 7243 4946742 2}\03 - Almodóvar & McNamara - Suck it to me .wav

Pre-gap length 0:00:02.90

Peak level 100.0 % Extraction speed 5.7 X Track quality 100.0 % Test CRC 06ABDF54 Copy CRC 06ABDF54 Accurately ripped (confidence 12) [E2811C93] (AR v1) Copy OK

Track 4

Filename C:\EAC Rips\The Songs of Almodovar [FLAC] {EMI 7243 4946742 2}\04 - Almodóvar & McNamara - Gran Ganga .wav

Pre-gap length 0:00:03.93

Peak level 95.2 % Extraction speed 4.3 X Track quality 99.9 % Test CRC BE596388 Copy CRC BE596388 Accurately ripped (confidence 12) [714A79CC] (AR v1) Copy OK

Track 5

Filename C:\EAC Rips\The Songs of Almodovar [FLAC] {EMI 7243 4946742 2}\05 - Monna Bell - Estaba escrito .wav

Pre-gap length 0:00:03.42

Peak level 98.0 % Extraction speed 5.4 X Track quality 100.0 % Test CRC 5FA2E910 Copy CRC 5FA2E910 Accurately ripped (confidence 12) [6BBFE349] (AR v1) Copy OK

Track 6

Filename C:\EAC Rips\The Songs of Almodovar [FLAC] {EMI 7243 4946742 2}\06 - Lucho Gatica - Encadenados .wav

Pre-gap length 0:00:03.50

Peak level 94.9 % Extraction speed 6.2 X Track quality 100.0 % Test CRC BF671100 Copy CRC BF671100 Accurately ripped (confidence 12) [BD4E2437] (AR v1) Copy OK

Track 7

Filename C:\EAC Rips\The Songs of Almodovar [FLAC] {EMI 7243 4946742 2}\07 - Cheo Feliciano - Salí porque salí .wav

Pre-gap length 0:00:03.10

Peak level 99.9 % Extraction speed 6.7 X Track quality 100.0 % Test CRC 716F3653 Copy CRC 716F3653 Accurately ripped (confidence 10) [34223B53] (AR v1) Copy OK

Track 8

Filename C:\EAC Rips\The Songs of Almodovar [FLAC] {EMI 7243 4946742 2}\08 - Mina - Espérame en el cielo .wav

Pre-gap length 0:00:03.45

Peak level 87.9 % Extraction speed 5.3 X Track quality 99.9 % Test CRC F7438BE8 Copy CRC F7438BE8 Accurately ripped (confidence 11) [5702B5F9] (AR v1) Copy OK

Track 9

Filename C:\EAC Rips\The Songs of Almodovar [FLAC] {EMI 7243 4946742 2}\09 - Bola de Nieve - Ay amor .wav

Pre-gap length 0:00:03.80

Peak level 99.9 % Extraction speed 6.6 X Track quality 100.0 % Test CRC 816EEC22 Copy CRC 816EEC22 Accurately ripped (confidence 11) [5F396AFA] (AR v1) Copy OK

Track 10

Filename C:\EAC Rips\The Songs of Almodovar [FLAC] {EMI 7243 4946742 2}\10 - Chavela Vargas - En el último trago .wav

Pre-gap length 0:00:03.33

Peak level 93.0 % Extraction speed 6.9 X Track quality 100.0 % Test CRC B3A40B1C Copy CRC B3A40B1C Accurately ripped (confidence 9) [EF370271] (AR v1) Copy OK

Track 11

Filename C:\EAC Rips\The Songs of Almodovar [FLAC] {EMI 7243 4946742 2}\11 - Lola Beltrán - Soy Infeliz .wav

Pre-gap length 0:00:03.33

Peak level 92.1 % Extraction speed 7.3 X Track quality 100.0 % Test CRC 23E33497 Copy CRC 23E33497 Accurately ripped (confidence 9) [1356F046] (AR v1) Copy OK

Track 12

Filename C:\EAC Rips\The Songs of Almodovar [FLAC] {EMI 7243 4946742 2}\12 - La Lupe - Puro teatro .wav

Pre-gap length 0:00:03.00

Peak level 92.2 % Extraction speed 7.4 X Track quality 100.0 % Test CRC 1431BFFD Copy CRC 1431BFFD Accurately ripped (confidence 9) [37FCFCBE] (AR v1) Copy OK

Track 13

Filename C:\EAC Rips\The Songs of Almodovar [FLAC] {EMI 7243 4946742 2}\13 - Dúo Dinámico - Resistiré .wav

Pre-gap length 0:00:03.10

Peak level 82.8 % Extraction speed 8.0 X Track quality 100.0 % Test CRC 629D5DE3 Copy CRC 629D5DE3 Accurately ripped (confidence 10) [D4B15EE4] (AR v1) Copy OK

Track 14

Filename C:\EAC Rips\The Songs of Almodovar [FLAC] {EMI 7243 4946742 2}\14 - Almodóvar & McNamara - Voy a ser mamá .wav

Pre-gap length 0:00:03.45

Peak level 89.1 % Extraction speed 7.5 X Track quality 100.0 % Test CRC F6239CD8 Copy CRC F6239CD8 Accurately ripped (confidence 10) [E7AB948B] (AR v1) Copy OK

Track 15

Filename C:\EAC Rips\The Songs of Almodovar [FLAC] {EMI 7243 4946742 2}\15 - Almodóvar & McNamara - Satanasa .wav

Pre-gap length 0:00:03.17

Peak level 100.0 % Extraction speed 8.3 X Track quality 100.0 % Test CRC 8B525F34 Copy CRC 8B525F34 Accurately ripped (confidence 10) [AD443B47] (AR v1) Copy OK

Track 16

Filename C:\EAC Rips\The Songs of Almodovar [FLAC] {EMI 7243 4946742 2}\16 - Maysa Mataraso - Ne me quitte pas .wav

Pre-gap length 0:00:03.73

Peak level 89.1 % Extraction speed 8.5 X Track quality 100.0 % Test CRC 2E87E39F Copy CRC 2E87E39F Accurately ripped (confidence 10) [ACEB8738] (AR v1) Copy OK

Track 17

Filename C:\EAC Rips\The Songs of Almodovar [FLAC] {EMI 7243 4946742 2}\17 - Almodóvar & McNamara - Susan get Down .wav

Pre-gap length 0:00:03.46

Peak level 92.6 % Extraction speed 8.7 X Track quality 100.0 % Test CRC 805ED302 Copy CRC 805ED302 Accurately ripped (confidence 10) [50667286] (AR v1) Copy OK

Track 18

Filename C:\EAC Rips\The Songs of Almodovar [FLAC] {EMI 7243 4946742 2}\18 - Los Panchos - Lo dudo .wav

Pre-gap length 0:00:03.20

Peak level 96.2 % Extraction speed 8.3 X Track quality 100.0 % Test CRC 20D1215C Copy CRC 20D1215C Accurately ripped (confidence 11) [D1640B3A] (AR v1) Copy OK

Track 19

Filename C:\EAC Rips\The Songs of Almodovar [FLAC] {EMI 7243 4946742 2}\19 - Bola de Nieve - Déjame recordar .wav

Pre-gap length 0:00:02.93

Peak level 100.0 % Extraction speed 7.7 X Track quality 100.0 % Test CRC 33970C59 Copy CRC 33970C59 Accurately ripped (confidence 10) [4803C8AF] (AR v1) Copy OK

Track 20

Filename C:\EAC Rips\The Songs of Almodovar [FLAC] {EMI 7243 4946742 2}\20 - Miguel de Molina - La bien pagá .wav

Pre-gap length 0:00:03.13

Peak level 100.0 % Extraction speed 9.0 X Track quality 100.0 % Test CRC B9917C2A Copy CRC B9917C2A Accurately ripped (confidence 10) [858C1ADB] (AR v1) Copy OK

Track 21

Filename C:\EAC Rips\The Songs of Almodovar [FLAC] {EMI 7243 4946742 2}\21 - Zarah Leander - Nur nicht aus Liebe weinen .wav

Pre-gap length 0:00:03.02

Peak level 92.2 % Extraction speed 9.1 X Track quality 100.0 % Test CRC 72A09842 Copy CRC 72A09842 Accurately ripped (confidence 10) [E22CABEE] (AR v1) Copy OK

Track 22

Filename C:\EAC Rips\The Songs of Almodovar [FLAC] {EMI 7243 4946742 2}\22 - Chavela Vargas - Luz de Luna .wav

Pre-gap length 0:00:02.93

Peak level 93.9 % Extraction speed 7.1 X Track quality 99.9 % Test CRC B727DA4D Copy CRC B727DA4D Accurately ripped (confidence 9) [4E108B46] (AR v1) Copy OK

Track 23

Filename C:\EAC Rips\The Songs of Almodovar [FLAC] {EMI 7243 4946742 2}\23 - Fernanda y Bernarda de Utrera - Se nos rompió el amor .wav

Pre-gap length 0:00:03.53

Peak level 97.9 % Extraction speed 9.8 X Track quality 100.0 % Test CRC 37633917 Copy CRC 37633917 Accurately ripped (confidence 10) [037E0C4F] (AR v1) Copy OK

All tracks accurately ripped

No errors occurred

End of status report

---- CUETools DB Plugin V2.1.3

[CTDB TOCID: ciEoWV5pmvXyyBZJi8TSbSYInpo-] found, Submit result: ciEoWV5pmvXyyBZJi8TSbSYInpo- has been confirmed[50fdcc3a] (1/3) No match[c8491d81] (2/3) Accurately ripped

==== Log checksum 80F49633F2C62BD4A7F2FF2BE0C813E2CE0900CF0CCA538A63D8A9669BE4A57F ====
REM GENRE SoundtrackREM DATE 1997REM DISCID 47122617REM COMMENT "ExactAudioCopy v1.0b3"CATALOG 0000000000000PERFORMER "Various Artists"TITLE "Le Canzoni Dei Film Di Almodóvar"FILE "01 - Luz Casal - Un año de amor.wav" WAVE TRACK 01 AUDIO TITLE "Un año de amor" PERFORMER "Luz Casal" INDEX 01 00:00:00 TRACK 02 AUDIO TITLE "Piensa en mí" PERFORMER "Luz Casal" INDEX 00 03:18:34FILE "02 - Luz Casal - Piensa en mí.wav" WAVE INDEX 01 00:00:00 TRACK 03 AUDIO TITLE "Suck it to me" PERFORMER "Almodóvar & McNamara" INDEX 00 04:26:50FILE "03 - Almodóvar & McNamara - Suck it to me.wav" WAVE INDEX 01 00:00:00 TRACK 04 AUDIO TITLE "Gran Ganga" PERFORMER "Almodóvar & McNamara" INDEX 00 04:26:17FILE "04 - Almodóvar & McNamara - Gran Ganga.wav" WAVE INDEX 01 00:00:00 TRACK 05 AUDIO TITLE "Estaba escrito" PERFORMER "Monna Bell" INDEX 00 02:58:38FILE "05 - Monna Bell - Estaba escrito.wav" WAVE INDEX 01 00:00:00 TRACK 06 AUDIO TITLE "Encadenados" PERFORMER "Lucho Gatica" INDEX 00 02:00:10FILE "06 - Lucho Gatica - Encadenados.wav" WAVE INDEX 01 00:00:00 TRACK 07 AUDIO TITLE "Salí porque salí" PERFORMER "Cheo Feliciano" INDEX 00 03:13:72FILE "07 - Cheo Feliciano - Salí porque salí.wav" WAVE INDEX 01 00:00:00 TRACK 08 AUDIO TITLE "Espérame en el cielo" PERFORMER "Mina" INDEX 00 04:08:30FILE "08 - Mina - Espérame en el cielo.wav" WAVE INDEX 01 00:00:00 TRACK 09 AUDIO TITLE "Ay amor" PERFORMER "Bola de Nieve" INDEX 00 03:18:53FILE "09 - Bola de Nieve - Ay amor.wav" WAVE INDEX 01 00:00:00 TRACK 10 AUDIO TITLE "En el último trago" PERFORMER "Chavela Vargas" INDEX 00 02:30:63FILE "10 - Chavela Vargas - En el último trago.wav" WAVE INDEX 01 00:00:00 TRACK 11 AUDIO TITLE "Soy Infeliz" PERFORMER "Lola Beltrán" INDEX 00 02:40:42FILE "11 - Lola Beltrán - Soy Infeliz.wav" WAVE INDEX 01 00:00:00 TRACK 12 AUDIO TITLE "Puro teatro" PERFORMER "La Lupe" INDEX 00 03:07:63FILE "12 - La Lupe - Puro teatro.wav" WAVE INDEX 01 00:00:00 TRACK 13 AUDIO TITLE "Resistiré" PERFORMER "Dúo Dinámico" INDEX 00 02:56:22FILE "13 - Dúo Dinámico - Resistiré.wav" WAVE INDEX 01 00:00:00 TRACK 14 AUDIO TITLE "Voy a ser mamá" PERFORMER "Almodóvar & McNamara" INDEX 00 04:00:35FILE "14 - Almodóvar & McNamara - Voy a ser mamá.wav" WAVE INDEX 01 00:00:00 TRACK 15 AUDIO TITLE "Satanasa" PERFORMER "Almodóvar & McNamara" INDEX 00 02:29:13FILE "15 - Almodóvar & McNamara - Satanasa.wav" WAVE INDEX 01 00:00:00 TRACK 16 AUDIO TITLE "Ne me quitte pas" PERFORMER "Maysa Mataraso" INDEX 00 03:54:17FILE "16 - Maysa Mataraso - Ne me quitte pas.wav" WAVE INDEX 01 00:00:00 TRACK 17 AUDIO TITLE "Susan get Down" PERFORMER "Almodóvar & McNamara" INDEX 00 03:47:50FILE "17 - Almodóvar & McNamara - Susan get Down.wav" WAVE INDEX 01 00:00:00 TRACK 18 AUDIO TITLE "Lo dudo" PERFORMER "Los Panchos" INDEX 00 03:49:30FILE "18 - Los Panchos - Lo dudo.wav" WAVE INDEX 01 00:00:00 TRACK 19 AUDIO TITLE "Déjame recordar" PERFORMER "Bola de Nieve" INDEX 00 02:41:25FILE "19 - Bola de Nieve - Déjame recordar.wav" WAVE INDEX 01 00:00:00 TRACK 20 AUDIO TITLE "La bien pagá" PERFORMER "Miguel de Molina" INDEX 00 01:48:65FILE "20 - Miguel de Molina - La bien pagá.wav" WAVE INDEX 01 00:00:00 TRACK 21 AUDIO TITLE "Nur nicht aus Liebe weinen" PERFORMER "Zarah Leander" INDEX 00 03:34:63FILE "21 - Zarah Leander - Nur nicht aus Liebe weinen.wav" WAVE INDEX 01 00:00:00 TRACK 22 AUDIO TITLE "Luz de Luna" PERFORMER "Chavela Vargas" INDEX 00 03:18:55FILE "22 - Chavela Vargas - Luz de Luna.wav" WAVE INDEX 01 00:00:00 TRACK 23 AUDIO TITLE "Se nos rompió el amor" PERFORMER "Fernanda y Bernarda de Utrera" INDEX 00 03:24:70FILE "23 - Fernanda y Bernarda de Utrera - Se nos rompió el amor.wav" WAVE INDEX 01 00:00:00


Трекер:  [ 25-Сен-2013 08:36 ]

  

Скачать .torrent

Размер .torrent файла 18 KB


Размер: 418 MB
Хэш (hash) релиза: 6ec50e662b6b94c5a986edaf19fdf261d85477dc

Еще никто не оставлял запись к записи скачать торрент Various Artists - The Songs of Almodovar - 1997, FLAC . Будь первым!

!Обратная связь