Скачать через торрент Синий Экзорцист Gekijouban Ao no Exorcist бесплатно Аниме Все серии на русском torrent

Если у вас наблюдаются проблемы со скриншотами, переходом по ссылками, скачиванием торрентов - проблемы в блокировщике рекламы AdBlock. #хорошегоДня!


Статистика раздачи
Размер:  3.35 GB   |    Зарегистрирован:  4 года 3 месяца   |    .torrent скачан:  76 раз   |   
Раздают:  1  
   
Загрузка...
 
Автор Сообщение

Galfimbul

avatar Galfimbul


Синий Экзорцист
Gekijouban Ao no Exorcist

Страна: Япония
Год выпуска: 2012 г.
Жанр: приключения
Тип: полнометражный фильм
Продолжительность: ~ 90 мин.

Субтитры:

русские от GMC
(Переводчик: St_Ranger, Редактор: Pat-Rica, Редактор: Nati)
Озвучка:

двухголосная (муж./жен.) от Ancord & Nika Lenina (AniDUB)
Режиссер: Такахаси Ацуси
Студия:

Описание:
В Академии Истинного Креста, где разворачиваются события аниме «Синий Экзорцист» (Gekijouban Ao no Exorcist), царит поистине праздничная атмосфера – все готовятся к великому фестивалю, который проходит не чаще, чем один раз за 11 лет.
[i]Информационные ссылки: AniDB
|| World Art || MAL
Качество: BDRip
Энкод: Coalgirls
Тип релиза: без хардсаба
Формат: mkv
Видео: x264, (Hi10p) 1280x720, 4900 Kbps, 23.976 fps,
Аудио JAP: Vorbis, 48000Hz, 16 bits, ~256 kbps, 2 ch
Аудио RUS: AC3, 48000Hz, 16 bits, ~192 kbps, 2 ch (в составе контейнера)
Субтитры RUS: AAS, (внешние)
Формат : MatroskaВерсия формата : Version 2Размер файла : 3,35 ГбайтПродолжительность : 1 ч. 28 м.Режим общего битрейта : ПеременныйОбщий поток : 5403 Кбит/секДата кодирования : UTC 2013-08-20 05:51:46Программа кодирования : mkvmerge v3.4.0 (''Rapunzel'') сборка от May 15 2010 09:38:20Библиотека кодирования : libebml v0.8.0 + libmatroska v0.9.0

ВидеоИдентификатор : 1Формат : AVCФормат/Информация : Advanced Video CodecПрофиль формата : High 10@L5.0Параметр CABAC формата : ДаПараметр ReFrames формата : 16 кадровИдентификатор кодека : V_MPEG4/ISO/AVCПродолжительность : 1 ч. 28 м.Битрейт : 4847 Кбит/секШирина : 1280 пикселейВысота : 720 пикселейСоотношение сторон : 16:9Режим частоты кадров : ПостоянныйЧастота кадров : 23,976 кадра/секЦветовое пространство : YUVСубдискретизация насыщенности : 4:2:0Битовая глубина : 10 битТип развёртки : ПрогрессивнаяБит/(Пиксели*Кадры) : 0.219Размер потока : 3,01 Гбайт (90%)Библиотека кодирования : x264 core 122 r2184 5c85e0aНастройки программы : cabac=1 / ref=16 / deblock=1:0:0 / analyse=0x3:0x133 / me=tesa / subme=11 / psy=1 / psy_rd=1.00:0.00 / mixed_ref=1 / me_range=24 / chroma_me=1 / trellis=2 / 8x8dct=1 / cqm=0 / deadzone=21,11 / fast_pskip=0 / chroma_qp_offset=-2 / threads=12 / sliced_threads=0 / nr=0 / decimate=1 / interlaced=0 / bluray_compat=0 / constrained_intra=0 / bframes=16 / b_pyramid=2 / b_adapt=2 / b_bias=0 / direct=3 / weightb=1 / open_gop=0 / weightp=2 / keyint=250 / keyint_min=23 / scenecut=40 / intra_refresh=0 / rc_lookahead=60 / rc=crf / mbtree=1 / crf=13.0 / qcomp=0.60 / qpmin=0 / qpmax=81 / qpstep=4 / ip_ratio=1.40 / aq=1:1.00Язык : JapaneseDefault : ДаForced : Нет

Аудио #1Идентификатор : 2Формат : AC-3Формат/Информация : Audio Coding 3Расширение режима : CM (complete main)Параметр Endianness формата : BigИдентификатор кодека : A_AC3Продолжительность : 1 ч. 28 м.Вид битрейта : ПостоянныйБитрейт : 192 Кбит/секКаналы : 2 каналаРасположение каналов : Front: L RЧастота : 48,0 КГцБитовая глубина : 16 битМетод сжатия : С потерямиРазмер потока : 122 Мбайт (4%)Заголовок : Ancord & Nika LeninaЯзык : RussianDefault : ДаForced : Нет

Аудио #2Идентификатор : 3Формат : VorbisПараметр Floor формата : 1Идентификатор кодека : A_VORBISПродолжительность : 1 ч. 28 м.Вид битрейта : ПеременныйБитрейт : 256 Кбит/секКаналы : 2 каналаЧастота : 48,0 КГцМетод сжатия : С потерямиРазмер потока : 163 Мбайт (5%)Заголовок : OriginalБиблиотека кодирования : libVorbis 1.0 (UTC 2002-07-17)Язык : JapaneseDefault : НетForced : Нет



Трекер:  [ 20-Авг-2013 19:24 ]

  

Скачать .torrent

Размер .torrent файла 17 KB


Размер: 3.35 GB
Хэш (hash) релиза: d2a9eb88fc825d24a25e70a30493dfdedb2c0dfc
Подписка на обновления:

Торренты, похожие на Синий Экзорцист Gekijouban Ao no Exorcist скачать торрент

Форум Название Автор Размер S L Добавлен
Аниме | HD Rips ·· Синий Экзорцист (фильм) / Gekijouban Ao no Exorcist (Такахаси Ацуси) [Movie] [Без хардсаба] [JAP+SUB] [2012 г., приключения, BDRip] [720p] Galfimbul 17627913221.64 GB 0 0 1376275794

05:49

12-Авг-13

Аниме | HD Rips ·· Синий Экзорцист (фильм) / Gekijouban Ao no Exorcist (Такахаси Ацуси) [Movie] [Без хардсаба] [JAP+SUB] [2012 г., приключения, BDRip] [1080p] Galfimbul 49516887944.61 GB 0 0 1376275791

05:49

12-Авг-13

bot

Топик был перенесен в форум Аниме | HD Rips

Перенес Galfimbul

Хотите добавить комментарий к записи скачать торрент Синий Экзорцист Gekijouban Ao no Exorcist

!Обратная связь