Скачать через торрент музыку Бандиты бесплатно без регистрации torrent

Если у вас наблюдаются проблемы со скриншотами, переходом по ссылками, скачиванием торрентов - проблемы в блокировщике рекламы AdBlock. #хорошегоДня!


Статистика раздачи
Размер:  250 MB   |    Зарегистрирован:  4 года 2 месяца   |    .torrent скачан:  26 раз   |   
Раздают:  1  
   
Загрузка...
 
Автор Сообщение

Polarnik

avatar Polarnik


Бандиты (Бродяги) | Truands

Жанр: Score
Композитор: Bruno Coulais
Год выпуска: 2007
Страна-производитель диска: France
Издатель (лейбл): Naive
Номер по каталогу: K 1621
Аудио кодек: FLAC (*.flac)
Тип рипа: tracks+.cue
Битрейт аудио: lossless
Продолжительность: 00:42:36
Наличие сканов в содержимом раздачи: да

Треклист:
1. A lean and hungry look (02:55)
Written and Performed by Marianne Faithfull and Ulysse
2. Generique Debut (05:32)
3. Vers la lumière (02:57)
4. La boîte d''allumettes (01:25)
5. l''attente au parking (01:54)
6. La photo de mariage (01:20)
7. L''assassinat de Claude (01:51)
8. Les bons du trésor (01:44)
9. le meurtre dans l''Hotel (01:19)
10. l''avocat (01:34)
11. l''aquarium (02:56)
12. la fouille de l''apartement (01:14)
13. Execution sous la pluie (01:54)
14. le snif (04:20)
15. les menottes (02:52)
16. la visite de Claude (01:39)
17. Tirs dans le parking (02:20)
18. le hammam (02:50)
Exact Audio Copy V1.0 beta 3 from 29. August 2011

EAC extraction logfile from 24. August 2013, 12:55

Bruno Coulais / Truands

Used drive : PLEXTOR DVDR PX-L890SA Adapter: 1 ID: 0

Read mode : SecureUtilize accurate stream : YesDefeat audio cache : YesMake use of C2 pointers : No

Read offset correction : 6Overread into Lead-In and Lead-Out : NoFill up missing offset samples with silence : YesDelete leading and trailing silent blocks : NoNull samples used in CRC calculations : YesUsed interface : Installed external ASPI interfaceGap handling : Appended to previous track

Used output format : User Defined EncoderSelected bitrate : 1024 kBit/sQuality : HighAdd ID3 tag : NoCommand line compressor : C:\Program Files\Exact Audio Copy\Flac\flac.exeAdditional command line options : -V -8 -T "Genre=%genre%" -T "Artist=%artist%" -T "Title=%title%" -T "Album=%albumtitle%" -T "Date=%year%" -T "Tracknumber=%tracknr%" -T "Comment=%comment%" %source%

TOC of the extracted CD

Track | Start | Length | Start sector | End sector --------------------------------------------------------- 1 | 0:00.00 | 2:56.28 | 0 | 13227 2 | 2:56.28 | 5:32.16 | 13228 | 38143 3 | 8:28.44 | 2:57.47 | 38144 | 51465 4 | 11:26.16 | 1:25.12 | 51466 | 57852 5 | 12:51.28 | 1:54.53 | 57853 | 66455 6 | 14:46.06 | 1:02.61 | 66456 | 71166 7 | 15:48.67 | 1:51.06 | 71167 | 79497 8 | 17:39.73 | 1:44.59 | 79498 | 87356 9 | 19:24.57 | 1:19.53 | 87357 | 93334 10 | 20:44.35 | 1:34.73 | 93335 | 100457 11 | 22:19.33 | 2:26.04 | 100458 | 111411 12 | 24:45.37 | 1:17.65 | 111412 | 117251 13 | 26:03.27 | 1:54.28 | 117252 | 125829 14 | 27:57.55 | 4:02.17 | 125830 | 143996 15 | 31:59.72 | 2:52.10 | 143997 | 156906 16 | 34:52.07 | 1:39.24 | 156907 | 164355 17 | 36:31.31 | 2:02.01 | 164356 | 173506 18 | 38:33.32 | 2:50.04 | 173507 | 186260

Track 1

Filename F:\torrent\Truands_Bruno Coulais\score\01 A lean and hungry look (Interprete par Marianne Faithfull et Ulysse).wav

Pre-gap length 0:00:02.00

Peak level 98.8 % Extraction speed 4.5 X Track quality 100.0 % Test CRC FC4D294F Copy CRC FC4D294F Track not present in AccurateRip database Copy OK

Track 2

Filename F:\torrent\Truands_Bruno Coulais\score\02 Generique debut.wav

Pre-gap length 0:00:02.22

Peak level 100.0 % Extraction speed 5.5 X Track quality 100.0 % Test CRC C9A687AC Copy CRC C9A687AC Track not present in AccurateRip database Copy OK

Track 3

Filename F:\torrent\Truands_Bruno Coulais\score\03 Vers la lumiere.wav

Pre-gap length 0:00:00.01

Peak level 98.8 % Extraction speed 4.8 X Track quality 99.9 % Test CRC C496EEF6 Copy CRC C496EEF6 Track not present in AccurateRip database Copy OK

Track 4

Filename F:\torrent\Truands_Bruno Coulais\score\04 La boite d''allumettes.wav

Peak level 57.9 % Extraction speed 4.9 X Track quality 100.0 % Test CRC 1840B0F4 Copy CRC 1840B0F4 Track not present in AccurateRip database Copy OK

Track 5

Filename F:\torrent\Truands_Bruno Coulais\score\05 L''attente au parking.wav

Pre-gap length 0:00:00.01

Peak level 71.1 % Extraction speed 5.5 X Track quality 100.0 % Test CRC 129AD47A Copy CRC 129AD47A Track not present in AccurateRip database Copy OK

Track 6

Filename F:\torrent\Truands_Bruno Coulais\score\06 La photo de mariage.wav

Pre-gap length 0:00:00.01

Peak level 98.8 % Extraction speed 4.6 X Track quality 100.0 % Test CRC 29EF8841 Copy CRC 29EF8841 Track not present in AccurateRip database Copy OK

Track 7

Filename F:\torrent\Truands_Bruno Coulais\score\07 L''assassinat de Claude.wav

Peak level 98.2 % Extraction speed 5.7 X Track quality 100.0 % Test CRC 51C773AC Copy CRC 51C773AC Track not present in AccurateRip database Copy OK

Track 8

Filename F:\torrent\Truands_Bruno Coulais\score\08 Les bons du tresor.wav

Pre-gap length 0:00:00.01

Peak level 98.8 % Extraction speed 5.8 X Track quality 100.0 % Test CRC EA53BA31 Copy CRC EA53BA31 Track not present in AccurateRip database Copy OK

Track 9

Filename F:\torrent\Truands_Bruno Coulais\score\09 Le meurtre dans l''hotel.wav

Pre-gap length 0:00:01.59

Peak level 88.4 % Extraction speed 5.5 X Track quality 100.0 % Test CRC A0045618 Copy CRC A0045618 Track not present in AccurateRip database Copy OK

Track 10

Filename F:\torrent\Truands_Bruno Coulais\score\10 L''avocat.wav

Pre-gap length 0:00:00.01

Peak level 98.8 % Extraction speed 5.7 X Track quality 100.0 % Test CRC 12BE2C1F Copy CRC 12BE2C1F Track not present in AccurateRip database Copy OK

Track 11

Filename F:\torrent\Truands_Bruno Coulais\score\11 L''aquarium.wav

Pre-gap length 0:00:00.01

Peak level 98.8 % Extraction speed 5.6 X Track quality 99.9 % Test CRC 2DA5E7FB Copy CRC 2DA5E7FB Track not present in AccurateRip database Copy OK

Track 12

Filename F:\torrent\Truands_Bruno Coulais\score\12 La fouille de l''appartement.wav

Pre-gap length 0:00:00.01

Peak level 94.8 % Extraction speed 5.8 X Track quality 100.0 % Test CRC EE029AD5 Copy CRC EE029AD5 Track not present in AccurateRip database Copy OK

Track 13

Filename F:\torrent\Truands_Bruno Coulais\score\13 Execution sous la pluie.wav

Pre-gap length 0:00:00.01

Peak level 94.8 % Extraction speed 6.5 X Track quality 100.0 % Test CRC 5D61EB63 Copy CRC 5D61EB63 Track not present in AccurateRip database Copy OK

Track 14

Filename F:\torrent\Truands_Bruno Coulais\score\14 Le snif.wav

Pre-gap length 0:00:00.01

Peak level 98.8 % Extraction speed 7.8 X Track quality 100.0 % Test CRC 98A2FF3D Copy CRC 98A2FF3D Track not present in AccurateRip database Copy OK

Track 15

Filename F:\torrent\Truands_Bruno Coulais\score\15 Les menottes.wav

Pre-gap length 0:00:00.01

Peak level 98.8 % Extraction speed 7.7 X Track quality 100.0 % Test CRC 4B2D109D Copy CRC 4B2D109D Track not present in AccurateRip database Copy OK

Track 16

Filename F:\torrent\Truands_Bruno Coulais\score\16 La visite de Claude.wav

Pre-gap length 0:00:00.01

Peak level 37.7 % Extraction speed 7.0 X Track quality 100.0 % Test CRC 5F28B41D Copy CRC 5F28B41D Track not present in AccurateRip database Copy OK

Track 17

Filename F:\torrent\Truands_Bruno Coulais\score\17 Tirs dans le parking.wav

Pre-gap length 0:00:00.01

Peak level 98.8 % Extraction speed 7.3 X Track quality 100.0 % Test CRC AEE46BCE Copy CRC AEE46BCE Track not present in AccurateRip database Copy OK

Track 18

Filename F:\torrent\Truands_Bruno Coulais\score\18 Le hammam.wav

Pre-gap length 0:00:00.01

Peak level 96.8 % Extraction speed 8.2 X Track quality 100.0 % Test CRC C077473B Copy CRC C077473B Track not present in AccurateRip database Copy OK

None of the tracks are present in the AccurateRip database

No errors occurred

End of status report

==== Log checksum 302E6E53F3EC25B9BAD94AAAC8D1810842C10965191B32CEFFA5084D83B4D294 ====
REM GENRE SoundtrackREM DATE 2006REM DISCID 0409B312REM COMMENT "ExactAudioCopy v1.0b3"PERFORMER "Bruno Coulais"TITLE "Truands"FILE "01 A lean and hungry look (Interprete par Marianne Faithfull et Ulysse).wav" WAVE TRACK 01 AUDIO TITLE "A lean and hungry look (Interprete par Marianne Faithfull et Ulysse)" PERFORMER "Bruno Coulais" ISRC FR47Q0604820 INDEX 01 00:00:00 TRACK 02 AUDIO TITLE "Generique debut" PERFORMER "Bruno Coulais" ISRC FR47Q0604830 INDEX 00 02:54:06FILE "02 Generique debut.wav" WAVE INDEX 01 00:00:00 TRACK 03 AUDIO TITLE "Vers la lumiere" PERFORMER "Bruno Coulais" ISRC FR47Q0604840 INDEX 00 05:32:15FILE "03 Vers la lumiere.wav" WAVE INDEX 01 00:00:00FILE "04 La boite d''allumettes.wav" WAVE TRACK 04 AUDIO TITLE "La boite d''allumettes" PERFORMER "Bruno Coulais" ISRC FR47Q0604850 INDEX 01 00:00:00 TRACK 05 AUDIO TITLE "L''attente au parking" PERFORMER "Bruno Coulais" ISRC FR47Q0604860 INDEX 00 01:25:11FILE "05 L''attente au parking.wav" WAVE INDEX 01 00:00:00 TRACK 06 AUDIO TITLE "La photo de mariage" PERFORMER "Bruno Coulais" ISRC FR47Q0604870 INDEX 00 01:54:52FILE "06 La photo de mariage.wav" WAVE INDEX 01 00:00:00FILE "07 L''assassinat de Claude.wav" WAVE TRACK 07 AUDIO TITLE "L''assassinat de Claude" PERFORMER "Bruno Coulais" ISRC FR47Q0604880 INDEX 01 00:00:00 TRACK 08 AUDIO TITLE "Les bons du tresor" PERFORMER "Bruno Coulais" ISRC FR47Q0604890 INDEX 00 01:51:05FILE "08 Les bons du tresor.wav" WAVE INDEX 01 00:00:00 TRACK 09 AUDIO TITLE "Le meurtre dans l''hotel" PERFORMER "Bruno Coulais" ISRC FR47Q0604900 INDEX 00 01:43:00FILE "09 Le meurtre dans l''hotel.wav" WAVE INDEX 01 00:00:00 TRACK 10 AUDIO TITLE "L''avocat" PERFORMER "Bruno Coulais" ISRC FR47Q0604910 INDEX 00 01:19:52FILE "10 L''avocat.wav" WAVE INDEX 01 00:00:00 TRACK 11 AUDIO TITLE "L''aquarium" PERFORMER "Bruno Coulais" ISRC FR47Q0604920 INDEX 00 01:34:72FILE "11 L''aquarium.wav" WAVE INDEX 01 00:00:00 TRACK 12 AUDIO TITLE "La fouille de l''appartement" PERFORMER "Bruno Coulais" ISRC FR47Q0604930 INDEX 00 02:26:03FILE "12 La fouille de l''appartement.wav" WAVE INDEX 01 00:00:00 TRACK 13 AUDIO TITLE "Execution sous la pluie" PERFORMER "Bruno Coulais" ISRC FR47Q0604940 INDEX 00 01:17:64FILE "13 Execution sous la pluie.wav" WAVE INDEX 01 00:00:00 TRACK 14 AUDIO TITLE "Le snif" PERFORMER "Bruno Coulais" ISRC FR47Q0604950 INDEX 00 01:54:27FILE "14 Le snif.wav" WAVE INDEX 01 00:00:00 TRACK 15 AUDIO TITLE "Les menottes" PERFORMER "Bruno Coulais" ISRC FR47Q0604960 INDEX 00 04:02:16FILE "15 Les menottes.wav" WAVE INDEX 01 00:00:00 TRACK 16 AUDIO TITLE "La visite de Claude" PERFORMER "Bruno Coulais" ISRC FR47Q0604970 INDEX 00 02:52:09FILE "16 La visite de Claude.wav" WAVE INDEX 01 00:00:00 TRACK 17 AUDIO TITLE "Tirs dans le parking" PERFORMER "Bruno Coulais" ISRC FR47Q0604980 INDEX 00 01:39:23FILE "17 Tirs dans le parking.wav" WAVE INDEX 01 00:00:00 TRACK 18 AUDIO TITLE "Le hammam" PERFORMER "Bruno Coulais" ISRC FR47Q0604990 INDEX 00 02:02:00FILE "18 Le hammam.wav" WAVE INDEX 01 00:00:00
AUDIOCHECKER v2.0 beta (build 457) - by Dester - opdester@freemail.hu~~~~~~~~~~~~~~~~~~~~~~~~~~~~~~~~~~-=== НЕ РЕДАКТИРУЙТЕ ЭТОТ ФАЙЛ! ===-

Путь: ...\score

01 -=- 01 A lean and hungry look (Interprete par Marianne Faithfull et Ulysse).flac -=- CDDA (100%)02 -=- 02 Generique debut.flac -=- CDDA (100%)03 -=- 03 Vers la lumiere.flac -=- CDDA (100%)04 -=- 04 La boite d''allumettes.flac -=- CDDA (99%)05 -=- 05 L''attente au parking.flac -=- CDDA (100%)06 -=- 06 La photo de mariage.flac -=- CDDA (100%)07 -=- 07 L''assassinat de Claude.flac -=- CDDA (100%)08 -=- 08 Les bons du tresor.flac -=- CDDA (100%)09 -=- 09 Le meurtre dans l''hotel.flac -=- CDDA (100%)10 -=- 10 L''avocat.flac -=- CDDA (100%)11 -=- 11 L''aquarium.flac -=- CDDA (100%)12 -=- 12 La fouille de l''appartement.flac -=- CDDA (99%)13 -=- 13 Execution sous la pluie.flac -=- CDDA (100%)14 -=- 14 Le snif.flac -=- CDDA (100%)15 -=- 15 Les menottes.flac -=- CDDA (100%)16 -=- 16 La visite de Claude.flac -=- CDDA (100%)17 -=- 17 Tirs dans le parking.flac -=- CDDA (100%)18 -=- 18 Le hammam.flac -=- CDDA (100%)

Сводка 99,89% CDDA

45078436


Трекер:  [ 25-Сен-2013 08:32 ]

  

Скачать .torrent

Размер .torrent файла 21 KB


Размер: 250 MB
Хэш (hash) релиза: e87d6c83b00d27d4bec213c459241b6ee0715ec0

Торренты, похожие на Бандиты скачать торрент

Форум Название Автор Размер S L Добавлен
Саундтреки к фильмам и мультфильмам (lossless) ·· (Score) Бандиты / Bandidos (Egisto Macchi) - 2010 [1967], FLAC (tracks), lossless Galfimbul 484983014463 MB 0 0 1478588810

10:06

8-Ноя-16

Rосk | Mеtаl | Аltеrnаtivе, Рunk, Indереndеnt (mр3) ·· (Rock) Балкански Бандити - Тъга За Юг - 2012, MP3, 128 kbps Galfimbul 3730381636 MB 0 0 1436110047

18:27

5-Июл-15

Еще никто не оставлял запись к записи скачать торрент Бандиты . Будь первым!

!Обратная связь