Скачать через торрент музыку Bуду: Во Власти Богов Voodoo: Mounted By The Gods бесплатно без регистрации torrent

Если у вас наблюдаются проблемы со скриншотами, переходом по ссылками, скачиванием торрентов - проблемы в блокировщике рекламы AdBlock. #хорошегоДня!


Статистика раздачи
Размер:  637 MB   |    Зарегистрирован:  4 года 2 месяца   |    .torrent скачан:  27 раз   |   
Раздают:  1  
   
Загрузка...
 
Автор Сообщение

Polarnik

avatar Polarnik


Bуду: Во Власти Богов | Voodoo: Mounted By The Gods

Жанр: Soundtrack
Композитор: Jochen Schmidt-Hambrock & VA
Год выпуска: 2003
Страна-производитель диска:
Издатель (лейбл): Emarcy/Universal Music
Номер по каталогу: 067 836-2
Аудио кодек: FLAC (*.flac)
Тип рипа: tracks+.cue
Битрейт аудио: lossless
Продолжительность: 00:54:22
Наличие сканов в содержимом раздачи: да
Если кому вдруг нужен буклет - он в отдельной папке, 276 мб!

Треклист:
1. Opening Theme (Jochen Schmidt-Hambrock) 1:01
2. Genesis (Wolfgang Lechenmayr / Jonas Imbery) Ron Williams (7) [ Narrator ] 1:54
3. Egun Boogey (Boris Blank, Yello) 2:04
4. Gounoun''s Whisper I (Charlotte Hug) 0:45
5. Gounoun''s Dance (Jochen Schmidt-Hambrock) 1:53
6. King''s Dance (Boris Blank, Yello) 5:36
7. Submerged (Peter Scherer) 5:37
8. Joy Ride (Boris Blank, Yello) 2:46
9. Sun (Peter Scherer) 2:44
10. Dark Light (Peter Scherer) 2:14
11. Gounoun''s Whisper II (Charlotte Hug) 0:26
12. Girls Chanting (Unknown Artist) 2:22
13. Gounoun''s Wood (Wolfgang Lechenmayr / Jonas Imbery) 1:28
14. Chained (Peter Scherer) 0:53
15. Slow Trance (Peter Scherer) 1:37
16. Gounoun''s Youth (Jochen Schmidt-Hambrock) 4:01
17. Children''s Learning (Wolfgang Lechenmayr / Jonas Imbery) 2:53
18. Coronation (Peter Scherer) 4:47
19. Offering (Jochen Schmidt-Hambrock) 3:45
20. Forrest (Peter Scherer) Ron Williams (7) [ Narrator ] 5:39
Exact Audio Copy V1.0 beta 3 from 29. August 2011

EAC extraction logfile from 24. August 2013, 16:33

Various Artists / Voodoo - Mounted by the Gods

Used drive : PLEXTOR DVDR PX-L890SA Adapter: 1 ID: 0

Read mode : SecureUtilize accurate stream : YesDefeat audio cache : YesMake use of C2 pointers : No

Read offset correction : 6Overread into Lead-In and Lead-Out : NoFill up missing offset samples with silence : YesDelete leading and trailing silent blocks : NoNull samples used in CRC calculations : YesUsed interface : Installed external ASPI interfaceGap handling : Appended to previous track

Used output format : User Defined EncoderSelected bitrate : 1024 kBit/sQuality : HighAdd ID3 tag : NoCommand line compressor : C:\Program Files\Exact Audio Copy\Flac\flac.exeAdditional command line options : -V -8 -T "Genre=%genre%" -T "Artist=%artist%" -T "Title=%title%" -T "Album=%albumtitle%" -T "Date=%year%" -T "Tracknumber=%tracknr%" -T "Comment=%comment%" %source%

TOC of the extracted CD

Track | Start | Length | Start sector | End sector --------------------------------------------------------- 1 | 0:00.00 | 1:01.41 | 0 | 4615 2 | 1:01.41 | 1:53.46 | 4616 | 13136 3 | 2:55.12 | 2:03.72 | 13137 | 22433 4 | 4:59.09 | 0:44.72 | 22434 | 25805 5 | 5:44.06 | 1:53.56 | 25806 | 34336 6 | 7:37.62 | 5:36.63 | 34337 | 59599 7 | 13:14.50 | 5:29.42 | 59600 | 84316 8 | 18:44.17 | 2:47.56 | 84317 | 96897 9 | 21:31.73 | 2:43.57 | 96898 | 109179 10 | 24:15.55 | 2:13.54 | 109180 | 119208 11 | 26:29.34 | 0:26.03 | 119209 | 121161 12 | 26:55.37 | 2:22.71 | 121162 | 131882 13 | 29:18.33 | 1:28.51 | 131883 | 138533 14 | 30:47.09 | 0:52.66 | 138534 | 142499 15 | 31:40.00 | 1:36.49 | 142500 | 149748 16 | 33:16.49 | 4:00.35 | 149749 | 167783 17 | 37:17.09 | 2:51.59 | 167784 | 180667 18 | 40:08.68 | 4:48.48 | 180668 | 202315 19 | 44:57.41 | 3:45.39 | 202316 | 219229 20 | 48:43.05 | 5:39.02 | 219230 | 244656

Track 1

Filename F:\torrent\Voodoo_Mounted by the Gods_ost\ost\01 Opening Theme.wav

Pre-gap length 0:00:02.00

Peak level 82.1 % Extraction speed 3.4 X Track quality 100.0 % Test CRC 39C69C37 Copy CRC 39C69C37 Accurately ripped (confidence 1) [5319557D] (AR v1) Copy OK

Track 2

Filename F:\torrent\Voodoo_Mounted by the Gods_ost\ost\02 Genesis (Narrator – Ron Williams).wav

Peak level 82.1 % Extraction speed 4.4 X Track quality 100.0 % Test CRC 36AB812B Copy CRC 36AB812B Accurately ripped (confidence 1) [842BE3EA] (AR v1) Copy OK

Track 3

Filename F:\torrent\Voodoo_Mounted by the Gods_ost\ost\03 Egun Boogey.wav

Peak level 82.1 % Extraction speed 4.8 X Track quality 100.0 % Test CRC 243006C7 Copy CRC 243006C7 Accurately ripped (confidence 1) [5B41442E] (AR v1) Copy OK

Track 4

Filename F:\torrent\Voodoo_Mounted by the Gods_ost\ost\04 Gounoun''s Whiser I.wav

Peak level 73.2 % Extraction speed 3.5 X Track quality 100.0 % Test CRC D0943EDB Copy CRC D0943EDB Accurately ripped (confidence 1) [6192B976] (AR v1) Copy OK

Track 5

Filename F:\torrent\Voodoo_Mounted by the Gods_ost\ost\05 Gounounls Dance.wav

Peak level 68.6 % Extraction speed 4.9 X Track quality 100.0 % Test CRC 17122D26 Copy CRC 17122D26 Accurately ripped (confidence 1) [379609E3] (AR v1) Copy OK

Track 6

Filename F:\torrent\Voodoo_Mounted by the Gods_ost\ost\06 King''s Dance.wav

Peak level 100.0 % Extraction speed 6.4 X Track quality 100.0 % Test CRC 362DA7D2 Copy CRC 362DA7D2 Accurately ripped (confidence 1) [0681CE2C] (AR v1) Copy OK

Track 7

Filename F:\torrent\Voodoo_Mounted by the Gods_ost\ost\07 Submerged.wav

Peak level 100.0 % Extraction speed 7.0 X Track quality 100.0 % Test CRC 05AECF06 Copy CRC 05AECF06 Accurately ripped (confidence 1) [20878C72] (AR v1) Copy OK

Track 8

Filename F:\torrent\Voodoo_Mounted by the Gods_ost\ost\08 Joy Ride.wav

Peak level 95.4 % Extraction speed 6.7 X Track quality 100.0 % Test CRC AB1417A6 Copy CRC AB1417A6 Accurately ripped (confidence 1) [EDED1552] (AR v1) Copy OK

Track 9

Filename F:\torrent\Voodoo_Mounted by the Gods_ost\ost\09 Sub.wav

Peak level 75.7 % Extraction speed 7.0 X Track quality 100.0 % Test CRC A9E51894 Copy CRC A9E51894 Accurately ripped (confidence 1) [88040BB5] (AR v1) Copy OK

Track 10

Filename F:\torrent\Voodoo_Mounted by the Gods_ost\ost\10 Dark Light.wav

Peak level 90.7 % Extraction speed 6.8 X Track quality 100.0 % Test CRC 7D4ABB84 Copy CRC 7D4ABB84 Accurately ripped (confidence 1) [10B15AAB] (AR v1) Copy OK

Track 11

Filename F:\torrent\Voodoo_Mounted by the Gods_ost\ost\11 Gounoun''s Whisper II.wav

Peak level 44.6 % Extraction speed 3.7 X Track quality 100.0 % Test CRC 5A0C51AD Copy CRC 5A0C51AD Accurately ripped (confidence 1) [77430CCF] (AR v1) Copy OK

Track 12

Filename F:\torrent\Voodoo_Mounted by the Gods_ost\ost\12 Girls Chanting.wav

Peak level 100.0 % Extraction speed 7.2 X Track quality 100.0 % Test CRC 50150C10 Copy CRC 50150C10 Accurately ripped (confidence 1) [06ADA38A] (AR v1) Copy OK

Track 13

Filename F:\torrent\Voodoo_Mounted by the Gods_ost\ost\13 Gounoun''s Wood.wav

Peak level 67.7 % Extraction speed 6.4 X Track quality 100.0 % Test CRC C5E5A128 Copy CRC C5E5A128 Accurately ripped (confidence 1) [4D86954E] (AR v1) Copy OK

Track 14

Filename F:\torrent\Voodoo_Mounted by the Gods_ost\ost\14 Chained.wav

Peak level 44.7 % Extraction speed 5.5 X Track quality 100.0 % Test CRC 872DB975 Copy CRC 872DB975 Accurately ripped (confidence 1) [EFE1D816] (AR v1) Copy OK

Track 15

Filename F:\torrent\Voodoo_Mounted by the Gods_ost\ost\15 Slow Trance.wav

Peak level 73.3 % Extraction speed 6.7 X Track quality 100.0 % Test CRC A75D51BE Copy CRC A75D51BE Accurately ripped (confidence 1) [B75464A5] (AR v1) Copy OK

Track 16

Filename F:\torrent\Voodoo_Mounted by the Gods_ost\ost\16 Gounoun''s Youth.wav

Peak level 77.5 % Extraction speed 8.4 X Track quality 100.0 % Test CRC D87B5AD2 Copy CRC D87B5AD2 Accurately ripped (confidence 1) [11A611B7] (AR v1) Copy OK

Track 17

Filename F:\torrent\Voodoo_Mounted by the Gods_ost\ost\17 Children''s Learning.wav

Peak level 100.0 % Extraction speed 8.2 X Track quality 100.0 % Test CRC 9568B3DB Copy CRC 9568B3DB Accurately ripped (confidence 1) [F5A14F99] (AR v1) Copy OK

Track 18

Filename F:\torrent\Voodoo_Mounted by the Gods_ost\ost\18 Coronation.wav

Peak level 99.5 % Extraction speed 9.2 X Track quality 100.0 % Test CRC 37FF9626 Copy CRC 37FF9626 Accurately ripped (confidence 1) [214786E0] (AR v1) Copy OK

Track 19

Filename F:\torrent\Voodoo_Mounted by the Gods_ost\ost\19 Offering.wav

Peak level 100.0 % Extraction speed 9.2 X Track quality 100.0 % Test CRC 1191878D Copy CRC 1191878D Accurately ripped (confidence 1) [621EF503] (AR v1) Copy OK

Track 20

Filename F:\torrent\Voodoo_Mounted by the Gods_ost\ost\20 Forrest.wav

Peak level 98.8 % Extraction speed 9.7 X Track quality 100.0 % Test CRC A748B3B1 Copy CRC A748B3B1 Accurately ripped (confidence 1) [716F9A24] (AR v1) Copy OK

All tracks accurately ripped

No errors occurred

End of status report

==== Log checksum FC765FBC1C3C461E96940DFF392E67CA89F74A2C1DC946B44B6E71B20E5FD240 ====
REM GENRE SoundtrackREM DATE 2003REM DISCID 2B0CBE14REM COMMENT "ExactAudioCopy v1.0b3"PERFORMER "Various Artists"TITLE "Voodoo - Mounted by the Gods"FILE "01 Opening Theme.wav" WAVE TRACK 01 AUDIO TITLE "Opening Theme" PERFORMER "Jochen Schmidt-Hambrock" ISRC CH0510300001 INDEX 01 00:00:00FILE "02 Genesis (Narrator – Ron Williams).wav" WAVE TRACK 02 AUDIO TITLE "Genesis (Narrator – Ron Williams)" PERFORMER "Wolfgang Lechenmayr / Jonas Imbery" ISRC CH0510300002 INDEX 01 00:00:00FILE "03 Egun Boogey.wav" WAVE TRACK 03 AUDIO TITLE "Egun Boogey" PERFORMER "Boris Blank, Yello" ISRC CH0510300003 INDEX 01 00:00:00FILE "04 Gounoun''s Whiser I.wav" WAVE TRACK 04 AUDIO TITLE "Gounoun''s Whiser I" PERFORMER "Charlotte Hug" ISRC CH0510300004 INDEX 01 00:00:00FILE "05 Gounounls Dance.wav" WAVE TRACK 05 AUDIO TITLE "Gounounls Dance" PERFORMER "Jochen Schmidt-Hambrock" ISRC CH0510300005 INDEX 01 00:00:00FILE "06 King''s Dance.wav" WAVE TRACK 06 AUDIO TITLE "King''s Dance" PERFORMER "Boris Blank, Yello" ISRC CH0510300006 INDEX 01 00:00:00FILE "07 Submerged.wav" WAVE TRACK 07 AUDIO TITLE "Submerged" PERFORMER "Peter Scherer" ISRC CH0510300007 INDEX 01 00:00:00FILE "08 Joy Ride.wav" WAVE TRACK 08 AUDIO TITLE "Joy Ride" PERFORMER "Boris Blank, Yello" ISRC CH0510300008 INDEX 01 00:00:00FILE "09 Sub.wav" WAVE TRACK 09 AUDIO TITLE "Sub" PERFORMER "Peter Scherer" ISRC CH0510300009 INDEX 01 00:00:00FILE "10 Dark Light.wav" WAVE TRACK 10 AUDIO TITLE "Dark Light" PERFORMER "Peter Scherer" ISRC CH0510300010 INDEX 01 00:00:00FILE "11 Gounoun''s Whisper II.wav" WAVE TRACK 11 AUDIO TITLE "Gounoun''s Whisper II" PERFORMER "Charlotte Hug" ISRC CH0510300011 INDEX 01 00:00:00FILE "12 Girls Chanting.wav" WAVE TRACK 12 AUDIO TITLE "Girls Chanting" PERFORMER "Traditional" ISRC CH0510300012 INDEX 01 00:00:00FILE "13 Gounoun''s Wood.wav" WAVE TRACK 13 AUDIO TITLE "Gounoun''s Wood" PERFORMER "Wolfgang Lechenmayr / Jonas Imbery" ISRC CH0510300013 INDEX 01 00:00:00FILE "14 Chained.wav" WAVE TRACK 14 AUDIO TITLE "Chained" PERFORMER "Peter Scherer" ISRC CH0510300014 INDEX 01 00:00:00FILE "15 Slow Trance.wav" WAVE TRACK 15 AUDIO TITLE "Slow Trance" PERFORMER "Peter Scherer" ISRC CH0510300015 INDEX 01 00:00:00FILE "16 Gounoun''s Youth.wav" WAVE TRACK 16 AUDIO TITLE "Gounoun''s Youth" PERFORMER "Jochen Schmidt-Hambrock" ISRC CH0510300016 INDEX 01 00:00:00FILE "17 Children''s Learning.wav" WAVE TRACK 17 AUDIO TITLE "Children''s Learning" PERFORMER "Wolfgang Lechenmayr / Jonas Imbery " ISRC CH0510300017 INDEX 01 00:00:00FILE "18 Coronation.wav" WAVE TRACK 18 AUDIO TITLE "Coronation" PERFORMER "Peter Scherer" ISRC CH0510300018 INDEX 01 00:00:00FILE "19 Offering.wav" WAVE TRACK 19 AUDIO TITLE "Offering" PERFORMER "Jochen Schmidt-Hambrock" ISRC CH0510300019 INDEX 01 00:00:00FILE "20 Forrest.wav" WAVE TRACK 20 AUDIO TITLE "Forrest" PERFORMER "Peter Scherer" ISRC CH0510300020 INDEX 01 00:00:00
AUDIOCHECKER v2.0 beta (build 457) - by Dester - opdester@freemail.hu~~~~~~~~~~~~~~~~~~~~~~~~~~~~~~~~~~-=== НЕ РЕДАКТИРУЙТЕ ЭТОТ ФАЙЛ! ===-

Путь: ...\ost

01 -=- 01 Opening Theme.flac -=- CDDA (100%)02 -=- 02 Genesis (Narrator – Ron Williams).flac -=- CDDA (100%)03 -=- 03 Egun Boogey.flac -=- CDDA (99%)04 -=- 04 Gounoun''s Whiser I.flac -=- CDDA (100%)05 -=- 05 Gounounls Dance.flac -=- CDDA (99%)06 -=- 06 King''s Dance.flac -=- CDDA (100%)07 -=- 07 Submerged.flac -=- CDDA (100%)08 -=- 08 Joy Ride.flac -=- CDDA (100%)09 -=- 09 Sub.flac -=- CDDA (100%)10 -=- 10 Dark Light.flac -=- CDDA (100%)11 -=- 11 Gounoun''s Whisper II.flac -=- CDDA (100%)12 -=- 12 Girls Chanting.flac -=- CDDA (100%)13 -=- 13 Gounoun''s Wood.flac -=- CDDA (100%)14 -=- 14 Chained.flac -=- CDDA (100%)15 -=- 15 Slow Trance.flac -=- CDDA (100%)16 -=- 16 Gounoun''s Youth.flac -=- CDDA (100%)17 -=- 17 Children''s Learning.flac -=- CDDA (100%)18 -=- 18 Coronation.flac -=- CDDA (100%)19 -=- 19 Offering.flac -=- CDDA (100%)20 -=- 20 Forrest.flac -=- CDDA (100%)

Сводка 99,90% CDDA

174343156


Трекер:  [ 25-Сен-2013 08:32 ]

  

Скачать .torrent

Размер .torrent файла 15 KB


Размер: 637 MB
Хэш (hash) релиза: 69a9fc1a4e23b82ca44071a6425af64eff000030

Еще никто не оставлял запись к записи скачать торрент Bуду: Во Власти Богов Voodoo: Mounted By The Gods . Будь первым!

!Обратная связь