Скачать через торрент музыку Вундеркинды Wunderkinder бесплатно без регистрации torrent

Если у вас наблюдаются проблемы со скриншотами, переходом по ссылками, скачиванием торрентов - проблемы в блокировщике рекламы AdBlock. #хорошегоДня!


Статистика раздачи
Размер:  265 MB   |    Зарегистрирован:  4 года 2 месяца   |    .torrent скачан:  37 раз   |   
Раздают:  1  
   
Загрузка...
 
Автор Сообщение

Polarnik

avatar Polarnik


Вундеркинды / Wunderkinder
Жанр: Score
Композитор: Martin Stock
Год выпуска диска: 2011
Производитель диска: P&O, Germany
Издатель (лейбл): Colosseum
Номер по каталогу: CST 8150.2
Аудиокодек: FLAC (*.flac)
Тип рипа: tracks+.cue
Битрейт аудио: lossless
Продолжительность: 00:53:22
Источник: собственный рип
Наличие сканов в содержимом раздачи: да, 600 dpi (обложки и CD)
01. Larissas Lied [0:02:32.15]
02. Errinerung an Abrascha [0:01:22.26]
03. Zigeunerweisen [0:01:50.71]
04. Freundschaft [0:02:27.03]
05. Ungarischer Tanz [0:02:27.52]
06. Polowetzer Tänze [0:03:02.64]
07. Die Herrin der Fische [0:02:03.47]
08. Larrisa übt Mozart (A-Dur Sonate, KV331) [0:00:48.49]
09. Der Parteigenosse [0:02:52.08]
10. Die Hütte im Wald [0:01:26.23]
11. Der Krieg ist hier [0:03:39.11]
12. Tapilin haut ab [0:00:57.61]
13. Hauskonzert (Violinsonate KV301, 2.Satz) [0:01:00.58]
14. Das Kraftamulet [0:01:57.24]
15. Abschied von den Großeltern [0:02:31.04]
16. Flucht ins Ungewisse [0:06:49.20]
17. Hanna verstummt [0:02:28.14]
18. Larrisa und Abrascha sollen spielen... [0:02:21.37]
19. Schwartows versprechen [0:02:57.05]
20. Hummelflug [0:01:21.18]
21. Schicksalskonzert (Violinkonzert D-Dur, 3. Satz) [0:01:46.50]
22. Wiedersehen mit Abrascha [0:01:45.04]
23. Larissas Lied (Orchesterversion) [0:02:54.14]

Exact Audio Copy V1.0 beta 3 from 29. August 2011

EAC extraction logfile from 30. August 2013, 21:50

Martin Stock / Wunderkinder

Used drive : PLEXTOR CD-R PX-230A Adapter: 1 ID: 0

Read mode : SecureUtilize accurate stream : YesDefeat audio cache : YesMake use of C2 pointers : No

Read offset correction : 738Overread into Lead-In and Lead-Out : NoFill up missing offset samples with silence : YesDelete leading and trailing silent blocks : NoNull samples used in CRC calculations : YesUsed interface : Native Win32 interface for Win NT & 2000Gap handling : Appended to previous track

Used output format : User Defined EncoderSelected bitrate : 896 kBit/sQuality : HighAdd ID3 tag : NoCommand line compressor : C:\Program Files\Exact Audio Copy\FLAC\FLAC.EXEAdditional command line options : -6 -V -T "ARTIST=%artist%" -T "TITLE=%title%" -T "ALBUM=%albumtitle%" -T "DATE=%year%"-T "TRACKNUMBER=%tracknr%" -T "GENRE=%genre%" -T "COMMENT=%comment%" -T "ALBUMARTIST=%albuminterpret%" -T "COMPOSER=%composer%"-T "DISCNUMBER=%cdnumber%" -T "TOTALDISCS=%totalcds%" -T "TOTALTRACKS=%numtracks%" %source% -o %dest%

TOC of the extracted CD

Track | Start | Length | Start sector | End sector --------------------------------------------------------- 1 | 0:00.00 | 2:32.15 | 0 | 11414 2 | 2:32.15 | 1:22.26 | 11415 | 17590 3 | 3:54.41 | 1:50.71 | 17591 | 25911 4 | 5:45.37 | 2:27.03 | 25912 | 36939 5 | 8:12.40 | 2:27.52 | 36940 | 48016 6 | 10:40.17 | 3:02.64 | 48017 | 61730 7 | 13:43.06 | 2:03.47 | 61731 | 71002 8 | 15:46.53 | 0:48.49 | 71003 | 74651 9 | 16:35.27 | 2:52.08 | 74652 | 87559 10 | 19:27.35 | 1:26.23 | 87560 | 94032 11 | 20:53.58 | 3:39.11 | 94033 | 110468 12 | 24:32.69 | 0:57.61 | 110469 | 114804 13 | 25:30.55 | 1:00.58 | 114805 | 119362 14 | 26:31.38 | 1:57.24 | 119363 | 128161 15 | 28:28.62 | 2:31.04 | 128162 | 139490 16 | 30:59.66 | 6:49.20 | 139491 | 170185 17 | 37:49.11 | 2:28.14 | 170186 | 181299 18 | 40:17.25 | 2:21.37 | 181300 | 191911 19 | 42:38.62 | 2:57.05 | 191912 | 205191 20 | 45:35.67 | 1:21.18 | 205192 | 211284 21 | 46:57.10 | 1:46.50 | 211285 | 219284 22 | 48:43.60 | 1:45.04 | 219285 | 227163 23 | 50:28.64 | 2:54.14 | 227164 | 240227

Track 1

Filename C:\Music\01 - Martin Stock - Larissas Lied.wav

Pre-gap length 0:00:02.00

Peak level 94.7 % Extraction speed 3.6 X Track quality 100.0 % Test CRC 7C710EDD Copy CRC 7C710EDD Track not present in AccurateRip database Copy OK

Track 2

Filename C:\Music\02 - Martin Stock - Errinerung an Abrascha.wav

Peak level 52.5 % Extraction speed 3.8 X Track quality 99.8 % Test CRC 48763C9D Copy CRC 48763C9D Track not present in AccurateRip database Copy OK

Track 3

Filename C:\Music\03 - Martin Stock - Zigeunerweisen.wav

Pre-gap length 0:00:00.01

Peak level 95.7 % Extraction speed 4.0 X Track quality 100.0 % Test CRC 17EFEEFF Copy CRC 17EFEEFF Track not present in AccurateRip database Copy OK

Track 4

Filename C:\Music\04 - Martin Stock - Freundschaft.wav

Pre-gap length 0:00:00.01

Peak level 88.7 % Extraction speed 3.3 X Track quality 99.9 % Test CRC 00F2630E Copy CRC 00F2630E Track not present in AccurateRip database Copy OK

Track 5

Filename C:\Music\05 - Martin Stock - Ungarischer Tanz.wav

Pre-gap length 0:00:00.01

Peak level 97.6 % Extraction speed 3.0 X Track quality 99.9 % Test CRC B468220A Copy CRC B468220A Track not present in AccurateRip database Copy OK

Track 6

Filename C:\Music\06 - Martin Stock - Polowetzer Taenze.wav

Pre-gap length 0:00:00.01

Peak level 95.6 % Extraction speed 4.7 X Track quality 100.0 % Test CRC 7BD9F210 Copy CRC 7BD9F210 Track not present in AccurateRip database Copy OK

Track 7

Filename C:\Music\07 - Martin Stock - Die Herrin der Fische.wav

Pre-gap length 0:00:00.01

Peak level 95.5 % Extraction speed 4.9 X Track quality 100.0 % Test CRC 7E926AB1 Copy CRC 7E926AB1 Track not present in AccurateRip database Copy OK

Track 8

Filename C:\Music\08 - Martin Stock - Larrisa uebt Mozart (A-Dur Sonate, KV331).wav

Pre-gap length 0:00:00.01

Peak level 58.4 % Extraction speed 3.5 X Track quality 100.0 % Test CRC 656DFD81 Copy CRC 656DFD81 Track not present in AccurateRip database Copy OK

Track 9

Filename C:\Music\09 - Martin Stock - Der Parteigenosse.wav

Pre-gap length 0:00:00.01

Peak level 84.9 % Extraction speed 3.5 X Track quality 100.0 % Test CRC D20E5185 Copy CRC D20E5185 Track not present in AccurateRip database Copy OK

Track 10

Filename C:\Music\10 - Martin Stock - Die Huette im Wald.wav

Pre-gap length 0:00:00.01

Peak level 71.3 % Extraction speed 3.9 X Track quality 99.8 % Test CRC 7D70742B Copy CRC 7D70742B Track not present in AccurateRip database Copy OK

Track 11

Filename C:\Music\11 - Martin Stock - Der Krieg ist hier.wav

Pre-gap length 0:00:00.01

Peak level 95.6 % Extraction speed 4.6 X Track quality 100.0 % Test CRC DF72E3E7 Copy CRC DF72E3E7 Track not present in AccurateRip database Copy OK

Track 12

Filename C:\Music\12 - Martin Stock - Tapilin haut ab.wav

Pre-gap length 0:00:00.01

Peak level 95.7 % Extraction speed 3.3 X Track quality 100.0 % Test CRC EB463CB7 Copy CRC EB463CB7 Track not present in AccurateRip database Copy OK

Track 13

Filename C:\Music\13 - Martin Stock - Hauskonzert (Violinsonate KV301, 2.Satz).wav

Pre-gap length 0:00:00.01

Peak level 82.8 % Extraction speed 3.2 X Track quality 100.0 % Test CRC 2F4A79B9 Copy CRC 2F4A79B9 Track not present in AccurateRip database Copy OK

Track 14

Filename C:\Music\14 - Martin Stock - Das Kraftamulet.wav

Pre-gap length 0:00:00.01

Peak level 84.4 % Extraction speed 4.9 X Track quality 100.0 % Test CRC 4504FEAB Copy CRC 4504FEAB Track not present in AccurateRip database Copy OK

Track 15

Filename C:\Music\15 - Martin Stock - Abschied von den Großeltern.wav

Pre-gap length 0:00:00.01

Peak level 95.5 % Extraction speed 3.5 X Track quality 99.9 % Test CRC 70599079 Copy CRC 70599079 Track not present in AccurateRip database Copy OK

Track 16

Filename C:\Music\16 - Martin Stock - Flucht ins Ungewisse.wav

Pre-gap length 0:00:00.01

Peak level 95.6 % Extraction speed 4.0 X Track quality 100.0 % Test CRC 1849EB01 Copy CRC 1849EB01 Track not present in AccurateRip database Copy OK

Track 17

Filename C:\Music\17 - Martin Stock - Hanna verstummt.wav

Pre-gap length 0:00:00.01

Peak level 95.6 % Extraction speed 3.9 X Track quality 100.0 % Test CRC 3F497078 Copy CRC 3F497078 Track not present in AccurateRip database Copy OK

Track 18

Filename C:\Music\18 - Martin Stock - Larrisa und Abrascha sollen spielen....wav

Pre-gap length 0:00:00.01

Peak level 88.3 % Extraction speed 5.0 X Track quality 100.0 % Test CRC 7B2B5430 Copy CRC 7B2B5430 Track not present in AccurateRip database Copy OK

Track 19

Filename C:\Music\19 - Martin Stock - Schwartows versprechen.wav

Pre-gap length 0:00:00.01

Peak level 95.6 % Extraction speed 3.9 X Track quality 100.0 % Test CRC 5081DA90 Copy CRC 5081DA90 Track not present in AccurateRip database Copy OK

Track 20

Filename C:\Music\20 - Martin Stock - Hummelflug.wav

Pre-gap length 0:00:00.01

Peak level 86.1 % Extraction speed 3.7 X Track quality 100.0 % Test CRC FF643702 Copy CRC FF643702 Track not present in AccurateRip database Copy OK

Track 21

Filename C:\Music\21 - Martin Stock - Schicksalskonzert (Violinkonzert D-Dur, 3. Satz).wav

Pre-gap length 0:00:00.01

Peak level 96.0 % Extraction speed 4.7 X Track quality 100.0 % Test CRC 7976A115 Copy CRC 7976A115 Track not present in AccurateRip database Copy OK

Track 22

Filename C:\Music\22 - Martin Stock - Wiedersehen mit Abrascha.wav

Pre-gap length 0:00:00.01

Peak level 44.5 % Extraction speed 3.6 X Track quality 100.0 % Test CRC D3697071 Copy CRC D3697071 Track not present in AccurateRip database Copy OK

Track 23

Filename C:\Music\23 - Martin Stock - Larissas Lied (Orchesterversion).wav

Pre-gap length 0:00:00.01

Peak level 95.6 % Extraction speed 4.3 X Track quality 100.0 % Test CRC 9EF215D5 Copy CRC 9EF215D5 Track not present in AccurateRip database Copy OK

None of the tracks are present in the AccurateRip database

No errors occurred

End of status report

==== Log checksum 2D8BA68A0528B3D8D9FE9F8D00456033CDD076509AA16A0F6C98155BE5A27C60 ====
REM GENRE SoundtrackREM DATE 2011REM DISCID 4C0C8317REM COMMENT "ExactAudioCopy v1.0b3"PERFORMER "Martin Stock"TITLE "Wunderkinder"FILE "01 - Martin Stock - Larissas Lied.wav" WAVE TRACK 01 AUDIO TITLE "Larissas Lied" PERFORMER "Martin Stock" INDEX 01 00:00:00FILE "02 - Martin Stock - Errinerung an Abrascha.wav" WAVE TRACK 02 AUDIO TITLE "Errinerung an Abrascha" PERFORMER "Martin Stock" INDEX 01 00:00:00 TRACK 03 AUDIO TITLE "Zigeunerweisen" PERFORMER "Martin Stock" INDEX 00 01:22:25FILE "03 - Martin Stock - Zigeunerweisen.wav" WAVE INDEX 01 00:00:00 TRACK 04 AUDIO TITLE "Freundschaft" PERFORMER "Martin Stock" INDEX 00 01:50:70FILE "04 - Martin Stock - Freundschaft.wav" WAVE INDEX 01 00:00:00 TRACK 05 AUDIO TITLE "Ungarischer Tanz" PERFORMER "Martin Stock" INDEX 00 02:27:02FILE "05 - Martin Stock - Ungarischer Tanz.wav" WAVE INDEX 01 00:00:00 TRACK 06 AUDIO TITLE "Polowetzer Tanze" PERFORMER "Martin Stock" INDEX 00 02:27:51FILE "06 - Martin Stock - Polowetzer Taenze.wav" WAVE INDEX 01 00:00:00 TRACK 07 AUDIO TITLE "Die Herrin der Fische" PERFORMER "Martin Stock" INDEX 00 03:02:63FILE "07 - Martin Stock - Die Herrin der Fische.wav" WAVE INDEX 01 00:00:00 TRACK 08 AUDIO TITLE "Larrisa ubt Mozart (A-Dur Sonate, KV331)" PERFORMER "Martin Stock" INDEX 00 02:03:46FILE "08 - Martin Stock - Larrisa uebt Mozart (A-Dur Sonate, KV331).wav" WAVE INDEX 01 00:00:00 TRACK 09 AUDIO TITLE "Der Parteigenosse" PERFORMER "Martin Stock" INDEX 00 00:48:48FILE "09 - Martin Stock - Der Parteigenosse.wav" WAVE INDEX 01 00:00:00 TRACK 10 AUDIO TITLE "Die Hutte im Wald" PERFORMER "Martin Stock" INDEX 00 02:52:07FILE "10 - Martin Stock - Die Huette im Wald.wav" WAVE INDEX 01 00:00:00 TRACK 11 AUDIO TITLE "Der Krieg ist hier" PERFORMER "Martin Stock" INDEX 00 01:26:22FILE "11 - Martin Stock - Der Krieg ist hier.wav" WAVE INDEX 01 00:00:00 TRACK 12 AUDIO TITLE "Tapilin haut ab" PERFORMER "Martin Stock" INDEX 00 03:39:10FILE "12 - Martin Stock - Tapilin haut ab.wav" WAVE INDEX 01 00:00:00 TRACK 13 AUDIO TITLE "Hauskonzert (Violinsonate KV301, 2.Satz)" PERFORMER "Martin Stock" INDEX 00 00:57:60FILE "13 - Martin Stock - Hauskonzert (Violinsonate KV301, 2.Satz).wav" WAVE INDEX 01 00:00:00 TRACK 14 AUDIO TITLE "Das Kraftamulet" PERFORMER "Martin Stock" INDEX 00 01:00:57FILE "14 - Martin Stock - Das Kraftamulet.wav" WAVE INDEX 01 00:00:00 TRACK 15 AUDIO TITLE "Abschied von den Gro.eltern" PERFORMER "Martin Stock" INDEX 00 01:57:23FILE "15 - Martin Stock - Abschied von den Gro.eltern.wav" WAVE INDEX 01 00:00:00 TRACK 16 AUDIO TITLE "Flucht ins Ungewisse" PERFORMER "Martin Stock" INDEX 00 02:31:03FILE "16 - Martin Stock - Flucht ins Ungewisse.wav" WAVE INDEX 01 00:00:00 TRACK 17 AUDIO TITLE "Hanna verstummt" PERFORMER "Martin Stock" INDEX 00 06:49:19FILE "17 - Martin Stock - Hanna verstummt.wav" WAVE INDEX 01 00:00:00 TRACK 18 AUDIO TITLE "Larrisa und Abrascha sollen spielen..." PERFORMER "Martin Stock" INDEX 00 02:28:13FILE "18 - Martin Stock - Larrisa und Abrascha sollen spielen....wav" WAVE INDEX 01 00:00:00 TRACK 19 AUDIO TITLE "Schwartows versprechen" PERFORMER "Martin Stock" INDEX 00 02:21:36FILE "19 - Martin Stock - Schwartows versprechen.wav" WAVE INDEX 01 00:00:00 TRACK 20 AUDIO TITLE "Hummelflug" PERFORMER "Martin Stock" INDEX 00 02:57:04FILE "20 - Martin Stock - Hummelflug.wav" WAVE INDEX 01 00:00:00 TRACK 21 AUDIO TITLE "Schicksalskonzert (Violinkonzert D-Dur, 3. Satz)" PERFORMER "Martin Stock" INDEX 00 01:21:17FILE "21 - Martin Stock - Schicksalskonzert (Violinkonzert D-Dur, 3. Satz).wav" WAVE INDEX 01 00:00:00 TRACK 22 AUDIO TITLE "Wiedersehen mit Abrascha" PERFORMER "Martin Stock" INDEX 00 01:46:49FILE "22 - Martin Stock - Wiedersehen mit Abrascha.wav" WAVE INDEX 01 00:00:00 TRACK 23 AUDIO TITLE "Larissas Lied (Orchesterversion)" PERFORMER "Martin Stock" INDEX 00 01:45:03FILE "23 - Martin Stock - Larissas Lied (Orchesterversion).wav" WAVE INDEX 01 00:00:00


Трекер:  [ 25-Сен-2013 08:28 ]

  

Скачать .torrent

Размер .torrent файла 44 KB


Размер: 265 MB
Хэш (hash) релиза: 6f290de8bbae548851da3d07988738df2b83cf

Еще никто не оставлял запись к записи скачать торрент Вундеркинды Wunderkinder . Будь первым!

!Обратная связь