Скачать через торрент музыку Макси Maxie бесплатно без регистрации torrent

Если у вас наблюдаются проблемы со скриншотами, переходом по ссылками, скачиванием торрентов - проблемы в блокировщике рекламы AdBlock. #хорошегоДня!


Статистика раздачи
Размер:  432 MB   |    Зарегистрирован:  4 года 2 месяца   |    .torrent скачан:  29 раз   |   
Раздают:  1  
   
Загрузка...
 
Автор Сообщение

Polarnik

avatar Polarnik



Макси / Maxie
Composed and Conducted by Georges Delerue
Limited Edition of 1200 Units

Жанр: Score | Дата выпуска: 19 июля 2010
Издатель (лейбл): Intrada | Номер по каталогу: Volume 137
Аудиокодек: FLAC | Тип рипа: image+.cue | Битрейт аудио: lossless
Общая продолжительность: 50:30
Источник: Рип оригинального диска из личной коллекции
* THE ALBUM *
01. Main Title (4:03)
02. Some Fun, Huh? I (1:35)
03. Trudy Remembers I (1:54)
04. Free Spirit (4:16)
05. Party Source I (1:21)
06. Nick the Adult (2:00)
07. Trudy''s Realization I (1:41)
08. Trudy''s Realization II (1:01)
09. As Good as Maxie (1:02)
10. Maxie''s Realization (1:43)
11. Gerobicize (3:28)
12. Seducing Jerome (2:16)
13. She Won''t Be Back (1:38)
14. Chinese Movie (1:48)
15. Chase (1:02)
16. Asking for a Gift (2:02)
17. Shooting Commercial (0:43)
18. Fun in Bed (1:48)
19. Big Time Pictures (1:00)
20. Cleopatra (1:45)
21. Would Be Star (2:31)
22. End Titles (4:59)

* THE EXTRAS *
23. Trudy Remembers II (0:23)
24. Flapper Melodies I (0:39)
25. Flapper Melodies IIB (0:37)
26. Flapper Melodies III (0:11)
27. Maxie Disappears (0:14)
28. Party Source II (0:34)
29. Party Source III (0:31)
30. Some Fun, Huh? II (0:29)
31. Nick''s Enlisted (0:13)
32. Hangover (0:25)
33. Flapper Melodies IIA (0:53)
Exact Audio Copy V1.0 beta 3 from 29. August 2011

EAC extraction logfile from 1. September 2013, 10:09

Georges Delerue / Maxie

Used drive : TSSTcorpCDDVDW TS-L633C Adapter: 2 ID: 0

Read mode : SecureUtilize accurate stream : YesDefeat audio cache : YesMake use of C2 pointers : No

Read offset correction : 6Overread into Lead-In and Lead-Out : NoFill up missing offset samples with silence : YesDelete leading and trailing silent blocks : NoNull samples used in CRC calculations : YesUsed interface : Native Win32 interface for Win NT & 2000

Used output format : Internal WAV RoutinesSample format : 44.100 Hz; 16 Bit; Stereo

TOC of the extracted CD

Track | Start | Length | Start sector | End sector --------------------------------------------------------- 1 | 0:00.00 | 4:02.72 | 0 | 18221 2 | 4:02.72 | 1:34.37 | 18222 | 25308 3 | 5:37.34 | 1:53.66 | 25309 | 33849 4 | 7:31.25 | 4:15.40 | 33850 | 53014 5 | 11:46.65 | 1:21.00 | 53015 | 59089 6 | 13:07.65 | 1:59.37 | 59090 | 68051 7 | 15:07.27 | 1:41.22 | 68052 | 75648 8 | 16:48.49 | 1:01.15 | 75649 | 80238 9 | 17:49.64 | 1:01.73 | 80239 | 84886 10 | 18:51.62 | 1:42.37 | 84887 | 92573 11 | 20:34.24 | 3:28.03 | 92574 | 108176 12 | 24:02.27 | 2:15.74 | 108177 | 118375 13 | 26:18.26 | 1:37.65 | 118376 | 125715 14 | 27:56.16 | 1:47.37 | 125716 | 133777 15 | 29:43.53 | 1:02.08 | 133778 | 138435 16 | 30:45.61 | 2:02.34 | 138436 | 147619 17 | 32:48.20 | 0:43.03 | 147620 | 150847 18 | 33:31.23 | 1:48.01 | 150848 | 158948 19 | 35:19.24 | 1:00.31 | 158949 | 163479 20 | 36:19.55 | 1:44.41 | 163480 | 171320 21 | 38:04.21 | 2:30.37 | 171321 | 182607 22 | 40:34.58 | 4:58.38 | 182608 | 204995 23 | 45:33.21 | 0:23.34 | 204996 | 206754 24 | 45:56.55 | 0:38.38 | 206755 | 209642 25 | 46:35.18 | 0:37.03 | 209643 | 212420 26 | 47:12.21 | 0:10.53 | 212421 | 213223 27 | 47:22.74 | 0:14.18 | 213224 | 214291 28 | 47:37.17 | 0:34.22 | 214292 | 216863 29 | 48:11.39 | 0:31.12 | 216864 | 219200 30 | 48:42.51 | 0:29.28 | 219201 | 221403 31 | 49:12.04 | 0:13.11 | 221404 | 222389 32 | 49:25.15 | 0:25.01 | 222390 | 224265 33 | 49:50.16 | 0:52.57 | 224266 | 228222

Range status and errors

Selected range

Filename D:\Georges Delerue - Maxie (Intrada SCV 137).wav

Peak level 100.0 % Extraction speed 3.7 X Range quality 100.0 % Test CRC 4CCE3E0C Copy CRC 4CCE3E0C Copy OK

No errors occurred

AccurateRip summary

Track 1 accurately ripped (confidence 3) [940C9548] (AR v2)Track 2 accurately ripped (confidence 3) [80FE72C2] (AR v2)Track 3 accurately ripped (confidence 3) [2BE12CAA] (AR v2)Track 4 accurately ripped (confidence 3) [7EA10661] (AR v2)Track 5 accurately ripped (confidence 3) [0BEAEBA5] (AR v2)Track 6 accurately ripped (confidence 3) [C04ED854] (AR v2)Track 7 accurately ripped (confidence 3) [A079F179] (AR v2)Track 8 accurately ripped (confidence 3) [1658CF96] (AR v2)Track 9 accurately ripped (confidence 3) [56EC380B] (AR v2)Track 10 accurately ripped (confidence 3) [972809B3] (AR v2)Track 11 accurately ripped (confidence 3) [549B85DE] (AR v2)Track 12 accurately ripped (confidence 3) [D16FF7A5] (AR v2)Track 13 accurately ripped (confidence 3) [CDE8CFA0] (AR v2)Track 14 accurately ripped (confidence 3) [0F4AD010] (AR v2)Track 15 accurately ripped (confidence 3) [34AD9E4F] (AR v2)Track 16 accurately ripped (confidence 3) [4B7F5583] (AR v2)Track 17 accurately ripped (confidence 3) [3E9B9B3A] (AR v2)Track 18 accurately ripped (confidence 3) [0D7827FB] (AR v2)Track 19 accurately ripped (confidence 3) [C13FC6D3] (AR v2)Track 20 accurately ripped (confidence 3) [B7EB9CF8] (AR v2)Track 21 accurately ripped (confidence 3) [9FAD603D] (AR v2)Track 22 accurately ripped (confidence 3) [2E0A11DF] (AR v2)Track 23 accurately ripped (confidence 3) [4ECA92C6] (AR v2)Track 24 accurately ripped (confidence 3) [FA4A262A] (AR v2)Track 25 accurately ripped (confidence 3) [CC2AE549] (AR v2)Track 26 accurately ripped (confidence 3) [6EB3C5B2] (AR v2)Track 27 accurately ripped (confidence 3) [F03A7D14] (AR v2)Track 28 accurately ripped (confidence 3) [AAD8BFB4] (AR v2)Track 29 accurately ripped (confidence 3) [33E71F31] (AR v2)Track 30 accurately ripped (confidence 3) [F994EB19] (AR v2)Track 31 accurately ripped (confidence 3) [3519A680] (AR v2)Track 32 accurately ripped (confidence 3) [FC5499F3] (AR v2)Track 33 accurately ripped (confidence 3) [9E3381A4] (AR v2)

All tracks accurately ripped

End of status report

---- CUETools DB Plugin V2.1.4

[CTDB TOCID: pcdFpq0CBFFSwhwZZifhswlLslM-] disk not present in databaseSubmit result: pcdFpq0CBFFSwhwZZifhswlLslM- has been uploaded

==== Log checksum 5824380AD9AD36C693266B28FE667AE05AC5505AD4C4E1546856148B3A3DEB67 ====
REM GENRE SoundtrackREM DATE 1985REM DISCID 090BE221REM COMMENT "ExactAudioCopy v1.0b3"PERFORMER "Georges Delerue"TITLE "Maxie"FILE "Georges Delerue - Maxie (Intrada SCV 137).wav" WAVE TRACK 01 AUDIO TITLE "Main Title" PERFORMER "Georges Delerue" INDEX 01 00:00:00 TRACK 02 AUDIO TITLE "Some Fun, Huh? I" PERFORMER "Georges Delerue" INDEX 01 04:02:72 TRACK 03 AUDIO TITLE "Trudy Remembers I" PERFORMER "Georges Delerue" INDEX 01 05:37:34 TRACK 04 AUDIO TITLE "Free Spirit" PERFORMER "Georges Delerue" INDEX 01 07:31:25 TRACK 05 AUDIO TITLE "Party Source I" PERFORMER "Georges Delerue" INDEX 01 11:46:65 TRACK 06 AUDIO TITLE "Nick The Adult" PERFORMER "Georges Delerue" INDEX 01 13:07:65 TRACK 07 AUDIO TITLE "Trudy’s Realization I" PERFORMER "Georges Delerue" INDEX 01 15:07:27 TRACK 08 AUDIO TITLE "Trudy’s Realization II" PERFORMER "Georges Delerue" INDEX 01 16:48:49 TRACK 09 AUDIO TITLE "As Good As Maxie" PERFORMER "Georges Delerue" INDEX 01 17:49:64 TRACK 10 AUDIO TITLE "Maxie’s Realization" PERFORMER "Georges Delerue" INDEX 01 18:51:62 TRACK 11 AUDIO TITLE "Gerobicize" PERFORMER "Georges Delerue" INDEX 01 20:34:24 TRACK 12 AUDIO TITLE "Seducing Jerome" PERFORMER "Georges Delerue" INDEX 01 24:02:27 TRACK 13 AUDIO TITLE "She Won’t Be Back" PERFORMER "Georges Delerue" INDEX 01 26:18:26 TRACK 14 AUDIO TITLE "Chinese Movie" PERFORMER "Georges Delerue" INDEX 01 27:56:16 TRACK 15 AUDIO TITLE "Chase" PERFORMER "Georges Delerue" INDEX 01 29:43:53 TRACK 16 AUDIO TITLE "Asking For A Gift" PERFORMER "Georges Delerue" INDEX 01 30:45:61 TRACK 17 AUDIO TITLE "Shooting Commercial" PERFORMER "Georges Delerue" INDEX 01 32:48:20 TRACK 18 AUDIO TITLE "Fun In Bed" PERFORMER "Georges Delerue" INDEX 01 33:31:23 TRACK 19 AUDIO TITLE "Big Time Pictures" PERFORMER "Georges Delerue" INDEX 01 35:19:24 TRACK 20 AUDIO TITLE "Cleopatra" PERFORMER "Georges Delerue" INDEX 01 36:19:55 TRACK 21 AUDIO TITLE "Would Be Star" PERFORMER "Georges Delerue" INDEX 01 38:04:21 TRACK 22 AUDIO TITLE "End Titles" PERFORMER "Georges Delerue" INDEX 01 40:34:58 TRACK 23 AUDIO TITLE "Trudy Remembers II" PERFORMER "Georges Delerue" INDEX 01 45:33:21 TRACK 24 AUDIO TITLE "Flapper Melodies I" PERFORMER "Georges Delerue" INDEX 01 45:56:55 TRACK 25 AUDIO TITLE "Flapper Melodies IIB" PERFORMER "Georges Delerue" INDEX 01 46:35:18 TRACK 26 AUDIO TITLE "Flapper Melodies III" PERFORMER "Georges Delerue" INDEX 01 47:12:21 TRACK 27 AUDIO TITLE "Maxie Disappears" PERFORMER "Georges Delerue" INDEX 01 47:22:74 TRACK 28 AUDIO TITLE "Party Source II" PERFORMER "Georges Delerue" INDEX 01 47:37:17 TRACK 29 AUDIO TITLE "Party Source III" PERFORMER "Georges Delerue" INDEX 01 48:11:39 TRACK 30 AUDIO TITLE "Some Fun, Huh? II" PERFORMER "Georges Delerue" INDEX 01 48:42:51 TRACK 31 AUDIO TITLE "Nick Enlisted" PERFORMER "Georges Delerue" INDEX 01 49:12:04 TRACK 32 AUDIO TITLE "Hangover" PERFORMER "Georges Delerue" INDEX 01 49:25:15 TRACK 33 AUDIO TITLE "Flapper Melodies IIA" PERFORMER "Georges Delerue" INDEX 01 49:50:16


Трекер:  [ 25-Сен-2013 08:28 ]

  

Скачать .torrent

Размер .torrent файла 18 KB


Размер: 432 MB
Хэш (hash) релиза: f7cad7100bea4e1473e985a2d576e1361b855e4b

Еще никто не оставлял запись к записи скачать торрент Макси Maxie . Будь первым!

!Обратная связь