Скачать через торрент музыку Соблазнитель 2 Kokowääh 2 бесплатно без регистрации torrent

Если у вас наблюдаются проблемы со скриншотами, переходом по ссылками, скачиванием торрентов - проблемы в блокировщике рекламы AdBlock. #хорошегоДня!


Статистика раздачи
Размер:  863 MB   |    Зарегистрирован:  4 года 2 месяца   |    .torrent скачан:  32 раза   |   
Раздают:  1  
   
Загрузка...
 
Автор Сообщение

Polarnik

avatar Polarnik


Соблазнитель 2 / Kokowääh 2 (2 CD Deluxe edition)
Жанр: Soundtrack / Score
Композиторы: Dirk Reichardt, Martin Todsharow
Год выпуска диска: 2013
Производитель диска: Sony DADC, Austria
Издатель (лейбл): Barefoot Music
Номер по каталогу: 88765455442
Аудиокодек: FLAC (*.flac)
Тип рипа: tracks+.cue
Битрейт аудио: lossless
Продолжительность: 02:21:08
Источник: собственный рип
Наличие сканов в содержимом раздачи: да, 600 dpi (обложки и CD)
Доп. информация: CD2 = Enhanced CD с мультимедийным треком в конце, который не входит в данную раздачу.
01. The Script Feat. Will.I.Am / Hall Of Fame [0:03:21.43]
02. Martin Todsharow / Sometimes [0:02:37.55]
03. The Chevin / Champion [0:03:43.55]
04. Martin Todsharow / Sign [0:03:25.38]
05. Plushgun / Waste Away [0:03:59.19]
06. Belasco / Empire [0:05:56.05]
07. Dirk Reichardt / Like A River [0:02:48.55]
08. Dirk Reichardt / Don''t Stop Thinking Of Love [0:02:04.06]
09. Mr. Little Jeans / Oh Sailor (Feat. The Silverlake Conservatory Of Music Youth Chorale) [0:04:03.36]
10. Daniel Nitt / Castles [0:03:20.03]
11. Martin Todsharow / Rush [0:03:03.13]
12. Dirk Reichardt / When The Light Comes [0:02:27.17]
13. Jetta / You Win [0:03:57.26]
14. Disco Ensemble / Second Soul [0:03:35.22]
15. Linkin Park / Lost In The Echo [0:03:23.56]
16. Dirk Reichardt / Twelve Moons In June [0:02:24.28]
17. Feng Louis / Your Shine [0:02:23.67]
18. Martin Todsharow / Journey [0:03:30.54]
19. The Script / Six Degrees Of Separation [Explicit] [0:03:50.08]
20. Dirk Reichardt & David Jürgens / Good Bye Brave World [0:02:02.56]
21. Robots Don''t Sleep / Without You (Filmversion) [0:02:11.08]
22. Dirk Reichardt & David Jürgens / A Day At The Races [0:02:50.16]
23. Dirk Reichardt / Weekend [0:02:55.11]
24. White Apple Tree / Snowflakes (Til Vs Vandertone Mix) [0:03:36.01]
01. Dirk Reichardt / Young Hearts [0:03:46.23]
02. Feng Louis / Lost Words [0:03:14.26]
03. Martin Todsharow / Wish [0:03:15.34]
04. Martin Todsharow / Sparkle [0:01:52.08]
05. Martin Todsharow / Questions [0:03:02.03]
06. Martin Todsharow / Never Hide [0:03:46.69]
07. Martin Todsharow / Closer [0:03:15.30]
08. Martin Todsharow / Around You [0:02:41.11]
09. Dirk Reinhardt / Circles [0:02:06.26]
10. Martin Todsharow / Rise [0:03:17.12]
11. Disco Ensemble / Second Soul (Lenno & Jessie Oliver Remix) [0:06:11.36]
12. Plushgun / Waste Away (Izzy Maxwell Remix) [0:04:09.16]
13. The Chevin / Champion [0:03:48.66]
14. The Script Feat. Will.I.Am / Hall Of Fame (Jimbo Remix) [0:03:01.00]
15. Daniel Nitt / Castles (Nils Ruzicka Club Mix) [0:07:06.61]
16. The Shield Feat. Dirk Reichardt / When The Light Comes (The Shield''s Tribute Remix) [0:05:24.71]
17. Robots Don''t Sleep / Without You (Albumversion) [0:03:39.65]

Exact Audio Copy V1.0 beta 3 from 29. August 2011

EAC extraction logfile from 30. August 2013, 22:34

Various Artists / Kokowaeaeh 2 (Disc 1)

Used drive : PLEXTOR CD-R PX-230A Adapter: 1 ID: 0

Read mode : SecureUtilize accurate stream : YesDefeat audio cache : YesMake use of C2 pointers : No

Read offset correction : 738Overread into Lead-In and Lead-Out : NoFill up missing offset samples with silence : YesDelete leading and trailing silent blocks : NoNull samples used in CRC calculations : YesUsed interface : Native Win32 interface for Win NT & 2000Gap handling : Appended to previous track

Used output format : User Defined EncoderSelected bitrate : 896 kBit/sQuality : HighAdd ID3 tag : NoCommand line compressor : C:\Program Files\Exact Audio Copy\FLAC\FLAC.EXEAdditional command line options : -6 -V -T "ARTIST=%artist%" -T "TITLE=%title%" -T "ALBUM=%albumtitle%" -T "DATE=%year%"-T "TRACKNUMBER=%tracknr%" -T "GENRE=%genre%" -T "COMMENT=%comment%" -T "ALBUMARTIST=%albuminterpret%" -T "COMPOSER=%composer%"-T "DISCNUMBER=%cdnumber%" -T "TOTALDISCS=%totalcds%" -T "TOTALTRACKS=%numtracks%" %source% -o %dest%

TOC of the extracted CD

Track | Start | Length | Start sector | End sector --------------------------------------------------------- 1 | 0:00.00 | 3:21.43 | 0 | 15117 2 | 3:21.43 | 2:37.55 | 15118 | 26947 3 | 5:59.23 | 3:43.55 | 26948 | 43727 4 | 9:43.03 | 3:25.38 | 43728 | 59140 5 | 13:08.41 | 3:59.19 | 59141 | 77084 6 | 17:07.60 | 5:56.05 | 77085 | 103789 7 | 23:03.65 | 2:48.55 | 103790 | 116444 8 | 25:52.45 | 2:04.06 | 116445 | 125750 9 | 27:56.51 | 4:03.36 | 125751 | 144011 10 | 32:00.12 | 3:20.03 | 144012 | 159014 11 | 35:20.15 | 3:03.13 | 159015 | 172752 12 | 38:23.28 | 2:27.17 | 172753 | 183794 13 | 40:50.45 | 3:57.26 | 183795 | 201595 14 | 44:47.71 | 3:35.22 | 201596 | 217742 15 | 48:23.18 | 3:23.56 | 217743 | 233023 16 | 51:46.74 | 2:24.28 | 233024 | 243851 17 | 54:11.27 | 2:23.67 | 243852 | 254643 18 | 56:35.19 | 3:30.54 | 254644 | 270447 19 | 60:05.73 | 3:50.08 | 270448 | 287705 20 | 63:56.06 | 2:02.56 | 287706 | 296911 21 | 65:58.62 | 2:11.08 | 296912 | 306744 22 | 68:09.70 | 2:50.16 | 306745 | 319510 23 | 71:00.11 | 2:55.11 | 319511 | 332646 24 | 73:55.22 | 3:36.01 | 332647 | 348847

Track 1

Filename C:\Music\01 - The Script Feat. Will.I.Am - Hall Of Fame.wav

Pre-gap length 0:00:02.00

Peak level 97.6 % Extraction speed 3.7 X Track quality 100.0 % Test CRC 904DBDEB Copy CRC 904DBDEB Accurately ripped (confidence 2) [3B6E25C5] (AR v2) Copy OK

Track 2

Filename C:\Music\02 - Martin Todsharow - Sometimes.wav

Peak level 99.2 % Extraction speed 4.2 X Track quality 100.0 % Test CRC 65C6E6EE Copy CRC 65C6E6EE Accurately ripped (confidence 2) [492CB9B6] (AR v2) Copy OK

Track 3

Filename C:\Music\03 - The Chevin - Champion.wav

Peak level 87.8 % Extraction speed 3.7 X Track quality 99.9 % Test CRC 3C53580E Copy CRC 3C53580E Accurately ripped (confidence 2) [A03368F3] (AR v2) Copy OK

Track 4

Filename C:\Music\04 - Martin Todsharow - Sign.wav

Peak level 99.2 % Extraction speed 3.9 X Track quality 99.9 % Test CRC 06B4D388 Copy CRC 06B4D388 Accurately ripped (confidence 2) [904D3C76] (AR v2) Copy OK

Track 5

Filename C:\Music\05 - Plushgun - Waste Away.wav

Peak level 99.7 % Extraction speed 5.3 X Track quality 100.0 % Test CRC 0E48AFD1 Copy CRC 0E48AFD1 Accurately ripped (confidence 2) [10F29E60] (AR v2) Copy OK

Track 6

Filename C:\Music\06 - Belasco - Empire.wav

Peak level 97.9 % Extraction speed 5.2 X Track quality 100.0 % Test CRC F8B18CFF Copy CRC F8B18CFF Accurately ripped (confidence 2) [1E76B850] (AR v2) Copy OK

Track 7

Filename C:\Music\07 - Dirk Reichardt - Like A River.wav

Peak level 99.2 % Extraction speed 3.4 X Track quality 100.0 % Test CRC 4A6258C1 Copy CRC 4A6258C1 Accurately ripped (confidence 2) [CF511DE9] (AR v2) Copy OK

Track 8

Filename C:\Music\08 - Dirk Reichardt - Don''t Stop Thinking Of Love.wav

Peak level 99.2 % Extraction speed 4.8 X Track quality 100.0 % Test CRC 3467E12D Copy CRC 3467E12D Accurately ripped (confidence 2) [88D1E4F3] (AR v2) Copy OK

Track 9

Filename C:\Music\09 - Mr. Little Jeans - Oh Sailor (Feat. The Silverlake Conservatory Of Music Youth Chorale).wav

Peak level 99.2 % Extraction speed 5.6 X Track quality 100.0 % Test CRC 51EB75D3 Copy CRC 51EB75D3 Accurately ripped (confidence 2) [2C5B7D37] (AR v2) Copy OK

Track 10

Filename C:\Music\10 - Daniel Nitt - Castles.wav

Peak level 98.6 % Extraction speed 4.9 X Track quality 100.0 % Test CRC 822C7E9E Copy CRC 822C7E9E Accurately ripped (confidence 2) [EFCB62A9] (AR v2) Copy OK

Track 11

Filename C:\Music\11 - Martin Todsharow - Rush.wav

Peak level 99.2 % Extraction speed 3.7 X Track quality 100.0 % Test CRC 150FB685 Copy CRC 150FB685 Accurately ripped (confidence 2) [F1EA23E1] (AR v2) Copy OK

Track 12

Filename C:\Music\12 - Dirk Reichardt - When The Light Comes.wav

Peak level 99.2 % Extraction speed 5.0 X Track quality 100.0 % Test CRC 8F93620B Copy CRC 8F93620B Accurately ripped (confidence 2) [B4EAF004] (AR v2) Copy OK

Track 13

Filename C:\Music\13 - Jetta - You Win.wav

Peak level 99.3 % Extraction speed 4.9 X Track quality 99.9 % Test CRC 9DD9434A Copy CRC 9DD9434A Accurately ripped (confidence 2) [76D2E01C] (AR v2) Copy OK

Track 14

Filename C:\Music\14 - Disco Ensemble - Second Soul.wav

Peak level 99.8 % Extraction speed 4.0 X Track quality 100.0 % Test CRC 5F2437E4 Copy CRC 5F2437E4 Accurately ripped (confidence 2) [C21F338F] (AR v2) Copy OK

Track 15

Filename C:\Music\15 - Linkin Park - Lost In The Echo.wav

Peak level 99.8 % Extraction speed 4.6 X Track quality 100.0 % Test CRC E0B320D4 Copy CRC E0B320D4 Accurately ripped (confidence 2) [E03932CF] (AR v2) Copy OK

Track 16

Filename C:\Music\16 - Dirk Reichardt - Twelve Moons In June.wav

Peak level 79.8 % Extraction speed 5.0 X Track quality 100.0 % Test CRC E2D39294 Copy CRC E2D39294 Accurately ripped (confidence 2) [58FB89D9] (AR v2) Copy OK

Track 17

Filename C:\Music\17 - Feng Louis - Your Shine.wav

Peak level 99.2 % Extraction speed 4.1 X Track quality 100.0 % Test CRC CFC1223C Copy CRC CFC1223C Accurately ripped (confidence 2) [A4F9BB19] (AR v2) Copy OK

Track 18

Filename C:\Music\18 - Martin Todsharow - Journey.wav

Peak level 99.2 % Extraction speed 4.6 X Track quality 100.0 % Test CRC 26777C93 Copy CRC 26777C93 Accurately ripped (confidence 2) [AA5CDC56] (AR v2) Copy OK

Track 19

Filename C:\Music\19 - The Script - Six Degrees Of Separation [Explicit].wav

Peak level 84.3 % Extraction speed 4.0 X Track quality 100.0 % Test CRC 1E46B52D Copy CRC 1E46B52D Accurately ripped (confidence 2) [EEA88329] (AR v2) Copy OK

Track 20

Filename C:\Music\20 - Dirk Reichardt & David Juergens - Good Bye Brave World.wav

Peak level 99.5 % Extraction speed 4.8 X Track quality 100.0 % Test CRC 8EE5D22B Copy CRC 8EE5D22B Accurately ripped (confidence 2) [77AFF63E] (AR v2) Copy OK

Track 21

Filename C:\Music\21 - Robots Don''t Sleep - Without You (Filmversion).wav

Peak level 96.5 % Extraction speed 3.8 X Track quality 99.9 % Test CRC 75D3C5C4 Copy CRC 75D3C5C4 Accurately ripped (confidence 2) [6099D8C1] (AR v2) Copy OK

Track 22

Filename C:\Music\22 - Dirk Reichardt & David Juergens - A Day At The Races.wav

Peak level 99.2 % Extraction speed 5.1 X Track quality 100.0 % Test CRC 14794513 Copy CRC 14794513 Accurately ripped (confidence 2) [6FAA33EF] (AR v2) Copy OK

Track 23

Filename C:\Music\23 - Dirk Reichardt - Weekend.wav

Peak level 99.2 % Extraction speed 3.7 X Track quality 100.0 % Test CRC 6D528492 Copy CRC 6D528492 Accurately ripped (confidence 2) [2B166EB0] (AR v2) Copy OK

Track 24

Filename C:\Music\24 - White Apple Tree - Snowflakes (Til Vs Vandertone Mix).wav

Peak level 96.5 % Extraction speed 4.4 X Track quality 100.0 % Test CRC 77471D56 Copy CRC 77471D56 Accurately ripped (confidence 2) [9AB6FFC2] (AR v2) Copy OK

All tracks accurately ripped

No errors occurred

End of status report

==== Log checksum E77D7D037C86EF20764F84521EA1A3CBEB26E7DF0B821048F03597351C77F53E ====
Exact Audio Copy V1.0 beta 3 from 29. August 2011

EAC extraction logfile from 30. August 2013, 23:09

Various Artists / Kokowaeaeh 2 (Disc 2)

Used drive : PLEXTOR CD-R PX-230A Adapter: 1 ID: 0

Read mode : SecureUtilize accurate stream : YesDefeat audio cache : YesMake use of C2 pointers : No

Read offset correction : 738Overread into Lead-In and Lead-Out : NoFill up missing offset samples with silence : YesDelete leading and trailing silent blocks : NoNull samples used in CRC calculations : YesUsed interface : Native Win32 interface for Win NT & 2000Gap handling : Appended to previous track

Used output format : User Defined EncoderSelected bitrate : 896 kBit/sQuality : HighAdd ID3 tag : NoCommand line compressor : C:\Program Files\Exact Audio Copy\FLAC\FLAC.EXEAdditional command line options : -6 -V -T "ARTIST=%artist%" -T "TITLE=%title%" -T "ALBUM=%albumtitle%" -T "DATE=%year%"-T "TRACKNUMBER=%tracknr%" -T "GENRE=%genre%" -T "COMMENT=%comment%" -T "ALBUMARTIST=%albuminterpret%" -T "COMPOSER=%composer%"-T "DISCNUMBER=%cdnumber%" -T "TOTALDISCS=%totalcds%" -T "TOTALTRACKS=%numtracks%" %source% -o %dest%

TOC of the extracted CD

Track | Start | Length | Start sector | End sector --------------------------------------------------------- 1 | 0:00.00 | 3:46.23 | 0 | 16972 2 | 3:46.23 | 3:14.26 | 16973 | 31548 3 | 7:00.49 | 3:15.34 | 31549 | 46207 4 | 10:16.08 | 1:52.08 | 46208 | 54615 5 | 12:08.16 | 3:02.03 | 54616 | 68268 6 | 15:10.19 | 3:46.69 | 68269 | 85287 7 | 18:57.13 | 3:15.30 | 85288 | 99942 8 | 22:12.43 | 2:41.11 | 99943 | 112028 9 | 24:53.54 | 2:06.26 | 112029 | 121504 10 | 27:00.05 | 3:17.12 | 121505 | 136291 11 | 30:17.17 | 6:11.36 | 136292 | 164152 12 | 36:28.53 | 4:09.16 | 164153 | 182843 13 | 40:37.69 | 3:48.66 | 182844 | 200009 14 | 44:26.60 | 3:01.00 | 200010 | 213584 15 | 47:27.60 | 7:06.61 | 213585 | 245595 16 | 54:34.46 | 5:24.71 | 245596 | 269966 17 | 59:59.42 | 3:39.65 | 269967 | 286456 18 | 66:11.32 | 0:57.31 | 297857 | 302162

Track 1

Filename C:\Music\01 - Dirk Reichardt - Young Hearts.wav

Pre-gap length 0:00:02.00

Peak level 99.2 % Extraction speed 4.5 X Track quality 100.0 % Test CRC 5DCACA4F Copy CRC 5DCACA4F Track not present in AccurateRip database Copy OK

Track 2

Filename C:\Music\02 - Feng Louis - Lost Words.wav

Peak level 99.2 % Extraction speed 3.7 X Track quality 100.0 % Test CRC C4123C21 Copy CRC C4123C21 Track not present in AccurateRip database Copy OK

Track 3

Filename C:\Music\03 - Martin Todsharow - Wish.wav

Peak level 99.2 % Extraction speed 4.5 X Track quality 100.0 % Test CRC 14B868DF Copy CRC 14B868DF Track not present in AccurateRip database Copy OK

Track 4

Filename C:\Music\04 - Martin Todsharow - Sparkle.wav

Peak level 99.2 % Extraction speed 3.8 X Track quality 100.0 % Test CRC 3A724690 Copy CRC 3A724690 Track not present in AccurateRip database Copy OK

Track 5

Filename C:\Music\05 - Martin Todsharow - Questions.wav

Peak level 99.2 % Extraction speed 3.6 X Track quality 100.0 % Test CRC 6B6BDCCA Copy CRC 6B6BDCCA Track not present in AccurateRip database Copy OK

Track 6

Filename C:\Music\06 - Martin Todsharow - Never Hide.wav

Peak level 99.2 % Extraction speed 5.4 X Track quality 100.0 % Test CRC 36DBD564 Copy CRC 36DBD564 Track not present in AccurateRip database Copy OK

Track 7

Filename C:\Music\07 - Martin Todsharow - Closer.wav

Peak level 99.2 % Extraction speed 5.0 X Track quality 100.0 % Test CRC DEADB16F Copy CRC DEADB16F Track not present in AccurateRip database Copy OK

Track 8

Filename C:\Music\08 - Martin Todsharow - Around You.wav

Peak level 99.2 % Extraction speed 4.3 X Track quality 100.0 % Test CRC 36791C63 Copy CRC 36791C63 Track not present in AccurateRip database Copy OK

Track 9

Filename C:\Music\09 - Dirk Reinhardt - Circles.wav

Peak level 92.1 % Extraction speed 3.4 X Track quality 100.0 % Test CRC D1DACCBC Copy CRC D1DACCBC Track not present in AccurateRip database Copy OK

Track 10

Filename C:\Music\10 - Martin Todsharow - Rise.wav

Peak level 99.2 % Extraction speed 4.7 X Track quality 100.0 % Test CRC CEDA8C65 Copy CRC CEDA8C65 Track not present in AccurateRip database Copy OK

Track 11

Filename C:\Music\11 - Disco Ensemble - Second Soul (Lenno & Jessie Oliver Remix).wav

Peak level 97.1 % Extraction speed 4.0 X Track quality 99.9 % Test CRC 7A1FB5E5 Copy CRC 7A1FB5E5 Track not present in AccurateRip database Copy OK

Track 12

Filename C:\Music\12 - Plushgun - Waste Away (Izzy Maxwell Remix).wav

Peak level 99.2 % Extraction speed 5.2 X Track quality 100.0 % Test CRC 939593BF Copy CRC 939593BF Track not present in AccurateRip database Copy OK

Track 13

Filename C:\Music\13 - The Chevin - Champion.wav

Peak level 99.8 % Extraction speed 4.2 X Track quality 100.0 % Test CRC 6BD28C76 Copy CRC 6BD28C76 Track not present in AccurateRip database Copy OK

Track 14

Filename C:\Music\14 - The Script Feat. Will.I.Am - Hall Of Fame (Jimbo Remix).wav

Peak level 97.6 % Extraction speed 5.3 X Track quality 100.0 % Test CRC EFC6D44E Copy CRC EFC6D44E Track not present in AccurateRip database Copy OK

Track 15

Filename C:\Music\15 - Daniel Nitt - Castles (Nils Ruzicka Club Mix).wav

Peak level 97.1 % Extraction speed 4.7 X Track quality 100.0 % Test CRC 60A38B02 Copy CRC 60A38B02 Track not present in AccurateRip database Copy OK

Track 16

Filename C:\Music\16 - The Shield Feat. Dirk Reichardt - When The Light Comes (The Shield''s Tribute Remix).wav

Peak level 99.2 % Extraction speed 4.3 X Track quality 100.0 % Test CRC F3028BFE Copy CRC F3028BFE Track not present in AccurateRip database Copy OK

Track 17

Filename C:\Music\17 - Robots Don''t Sleep - Without You (Albumversion).wav

Peak level 96.5 % Extraction speed 3.5 X Track quality 100.0 % Test CRC B631F51A Copy CRC B631F51A Track not present in AccurateRip database Copy OK

None of the tracks are present in the AccurateRip database

No errors occurred

End of status report

==== Log checksum 3CAFD1CA023C3CA87CCE5190A8B140A11E538262BB9720285E20DC6A630A0014 ====
REM GENRE SoundtrackREM DATE 2013REM DISCID 60122B18REM COMMENT "ExactAudioCopy v1.0b3"PERFORMER "Various Artists"TITLE "Kokowaeaeh 2 (Disc 1)"FILE "01 - The Script Feat. Will.I.Am - Hall Of Fame.wav" WAVE TRACK 01 AUDIO TITLE "Hall Of Fame" PERFORMER "The Script Feat. Will.I.Am" INDEX 01 00:00:00FILE "02 - Martin Todsharow - Sometimes.wav" WAVE TRACK 02 AUDIO TITLE "Sometimes" PERFORMER "Martin Todsharow" INDEX 01 00:00:00FILE "03 - The Chevin - Champion.wav" WAVE TRACK 03 AUDIO TITLE "Champion" PERFORMER "The Chevin" INDEX 01 00:00:00FILE "04 - Martin Todsharow - Sign.wav" WAVE TRACK 04 AUDIO TITLE "Sign" PERFORMER "Martin Todsharow" INDEX 01 00:00:00FILE "05 - Plushgun - Waste Away.wav" WAVE TRACK 05 AUDIO TITLE "Waste Away" PERFORMER "Plushgun" INDEX 01 00:00:00FILE "06 - Belasco - Empire.wav" WAVE TRACK 06 AUDIO TITLE "Empire" PERFORMER "Belasco" INDEX 01 00:00:00FILE "07 - Dirk Reichardt - Like A River.wav" WAVE TRACK 07 AUDIO TITLE "Like A River" PERFORMER "Dirk Reichardt" INDEX 01 00:00:00FILE "08 - Dirk Reichardt - Don''t Stop Thinking Of Love.wav" WAVE TRACK 08 AUDIO TITLE "Don''t Stop Thinking Of Love" PERFORMER "Dirk Reichardt" INDEX 01 00:00:00FILE "09 - Mr. Little Jeans - Oh Sailor (Feat. The Silverlake Conservatory Of Music Youth Chorale).wav" WAVE TRACK 09 AUDIO TITLE "Oh Sailor (Feat. The Silverlake Conservatory Of Music Youth Chorale)" PERFORMER "Mr. Little Jeans" INDEX 01 00:00:00FILE "10 - Daniel Nitt - Castles.wav" WAVE TRACK 10 AUDIO TITLE "Castles" PERFORMER "Daniel Nitt" INDEX 01 00:00:00FILE "11 - Martin Todsharow - Rush.wav" WAVE TRACK 11 AUDIO TITLE "Rush" PERFORMER "Martin Todsharow" INDEX 01 00:00:00FILE "12 - Dirk Reichardt - When The Light Comes.wav" WAVE TRACK 12 AUDIO TITLE "When The Light Comes" PERFORMER "Dirk Reichardt" INDEX 01 00:00:00FILE "13 - Jetta - You Win.wav" WAVE TRACK 13 AUDIO TITLE "You Win" PERFORMER "Jetta" INDEX 01 00:00:00FILE "14 - Disco Ensemble - Second Soul.wav" WAVE TRACK 14 AUDIO TITLE "Second Soul" PERFORMER "Disco Ensemble" INDEX 01 00:00:00FILE "15 - Linkin Park - Lost In The Echo.wav" WAVE TRACK 15 AUDIO TITLE "Lost In The Echo" PERFORMER "Linkin Park" INDEX 01 00:00:00FILE "16 - Dirk Reichardt - Twelve Moons In June.wav" WAVE TRACK 16 AUDIO TITLE "Twelve Moons In June" PERFORMER "Dirk Reichardt" INDEX 01 00:00:00FILE "17 - Feng Louis - Your Shine.wav" WAVE TRACK 17 AUDIO TITLE "Your Shine" PERFORMER "Feng Louis" INDEX 01 00:00:00FILE "18 - Martin Todsharow - Journey.wav" WAVE TRACK 18 AUDIO TITLE "Journey" PERFORMER "Martin Todsharow" INDEX 01 00:00:00FILE "19 - The Script - Six Degrees Of Separation [Explicit].wav" WAVE TRACK 19 AUDIO TITLE "Six Degrees Of Separation [Explicit]" PERFORMER "The Script" INDEX 01 00:00:00FILE "20 - Dirk Reichardt & David Juergens - Good Bye Brave World.wav" WAVE TRACK 20 AUDIO TITLE "Good Bye Brave World" PERFORMER "Dirk Reichardt & David Jurgens" INDEX 01 00:00:00FILE "21 - Robots Don''t Sleep - Without You (Filmversion).wav" WAVE TRACK 21 AUDIO TITLE "Without You (Filmversion)" PERFORMER "Robots Don''t Sleep" INDEX 01 00:00:00FILE "22 - Dirk Reichardt & David Juergens - A Day At The Races.wav" WAVE TRACK 22 AUDIO TITLE "A Day At The Races" PERFORMER "Dirk Reichardt & David Jurgens" INDEX 01 00:00:00FILE "23 - Dirk Reichardt - Weekend.wav" WAVE TRACK 23 AUDIO TITLE "Weekend" PERFORMER "Dirk Reichardt" INDEX 01 00:00:00FILE "24 - White Apple Tree - Snowflakes (Til Vs Vandertone Mix).wav" WAVE TRACK 24 AUDIO TITLE "Snowflakes (Til Vs Vandertone Mix)" PERFORMER "White Apple Tree" INDEX 01 00:00:00
REM GENRE SoundtrackREM DATE 2013REM DISCID 030FBC12REM COMMENT "ExactAudioCopy v1.0b3"PERFORMER "Various Artists"TITLE "Kokowaeaeh 2 (Disc 2)"FILE "01 - Dirk Reichardt - Young Hearts.wav" WAVE TRACK 01 AUDIO TITLE "Young Hearts" PERFORMER "Dirk Reichardt" INDEX 01 00:00:00FILE "02 - Feng Louis - Lost Words.wav" WAVE TRACK 02 AUDIO TITLE "Lost Words" PERFORMER "Feng Louis" INDEX 01 00:00:00FILE "03 - Martin Todsharow - Wish.wav" WAVE TRACK 03 AUDIO TITLE "Wish" PERFORMER "Martin Todsharow" INDEX 01 00:00:00FILE "04 - Martin Todsharow - Sparkle.wav" WAVE TRACK 04 AUDIO TITLE "Sparkle" PERFORMER "Martin Todsharow" INDEX 01 00:00:00FILE "05 - Martin Todsharow - Questions.wav" WAVE TRACK 05 AUDIO TITLE "Questions" PERFORMER "Martin Todsharow" INDEX 01 00:00:00FILE "06 - Martin Todsharow - Never Hide.wav" WAVE TRACK 06 AUDIO TITLE "Never Hide" PERFORMER "Martin Todsharow" INDEX 01 00:00:00FILE "07 - Martin Todsharow - Closer.wav" WAVE TRACK 07 AUDIO TITLE "Closer" PERFORMER "Martin Todsharow" INDEX 01 00:00:00FILE "08 - Martin Todsharow - Around You.wav" WAVE TRACK 08 AUDIO TITLE "Around You" PERFORMER "Martin Todsharow" INDEX 01 00:00:00FILE "09 - Dirk Reinhardt - Circles.wav" WAVE TRACK 09 AUDIO TITLE "Circles" PERFORMER "Dirk Reinhardt" INDEX 01 00:00:00FILE "10 - Martin Todsharow - Rise.wav" WAVE TRACK 10 AUDIO TITLE "Rise" PERFORMER "Martin Todsharow" INDEX 01 00:00:00FILE "11 - Disco Ensemble - Second Soul (Lenno & Jessie Oliver Remix).wav" WAVE TRACK 11 AUDIO TITLE "Second Soul (Lenno & Jessie Oliver Remix)" PERFORMER "Disco Ensemble" INDEX 01 00:00:00FILE "12 - Plushgun - Waste Away (Izzy Maxwell Remix).wav" WAVE TRACK 12 AUDIO TITLE "Waste Away (Izzy Maxwell Remix)" PERFORMER "Plushgun" INDEX 01 00:00:00FILE "13 - The Chevin - Champion.wav" WAVE TRACK 13 AUDIO TITLE "Champion" PERFORMER "The Chevin" INDEX 01 00:00:00FILE "14 - The Script Feat. Will.I.Am - Hall Of Fame (Jimbo Remix).wav" WAVE TRACK 14 AUDIO TITLE "Hall Of Fame (Jimbo Remix)" PERFORMER "The Script Feat. Will.I.Am" INDEX 01 00:00:00FILE "15 - Daniel Nitt - Castles (Nils Ruzicka Club Mix).wav" WAVE TRACK 15 AUDIO TITLE "Castles (Nils Ruzicka Club Mix)" PERFORMER "Daniel Nitt" INDEX 01 00:00:00FILE "16 - The Shield Feat. Dirk Reichardt - When The Light Comes (The Shield''s Tribute Remix).wav" WAVE TRACK 16 AUDIO TITLE "When The Light Comes (The Shield''s Tribute Remix)" PERFORMER "The Shield Feat. Dirk Reichardt" INDEX 01 00:00:00FILE "17 - Robots Don''t Sleep - Without You (Albumversion).wav" WAVE TRACK 17 AUDIO TITLE "Without You (Albumversion)" PERFORMER "Robots Don''t Sleep" INDEX 01 00:00:00


Трекер:  [ 25-Сен-2013 08:28 ]

  

Скачать .torrent

Размер .torrent файла 139 KB


Размер: 863 MB
Хэш (hash) релиза: 411201b0b5bd8ecb6dfba05dd0c457ea3c6e9b71

Торренты, похожие на Соблазнитель 2 Kokowääh 2 скачать торрент

Форум Название Автор Размер S L Добавлен
Саундтреки к фильмам и мультфильмам (mp3) ·· (Soundtrack) Соблазнитель 2 / Kokowääh 2 / Kokowaeaeh 2 [2 CD Deluxe edition] (by Dirk Reichardt, Martin Todsharow & VA) - 2013, MP3 (tracks) 320 kbps Galfimbul 362852126346 MB 0 0 1473051695

08:01

5-Сен-16

Еще никто не оставлял запись к записи скачать торрент Соблазнитель 2 Kokowääh 2 . Будь первым!

!Обратная связь