Скачать через торрент Ра-Зефон ТВ RahXephon TV бесплатно Аниме Все серии на русском torrent

Если у вас наблюдаются проблемы со скриншотами, переходом по ссылками, скачиванием торрентов - проблемы в блокировщике рекламы AdBlock. #хорошегоДня!


Статистика раздачи
Размер:  10.21 GB   |    Зарегистрирован:  4 года 3 месяца   |    .torrent скачан:  66 раз   |   
Раздают:  1  
   
Загрузка...
 
Автор Сообщение

Polarnik

avatar Polarnik


Ра-Зефон ТВ / RahXephon TV
Страна: Япония
Год выпуска: 2002
Жанр: фантастика, драма, романтика, меха
Тип: TV
Продолжительность: 26 эп. ~24 мин
Озвучка:
Одноголосная Дмитрий Толмачев Animegroup
Субтитры: есть
русские (внешние)
от Angel & LEXX$Y$
Студия:
Режиссер: Идзубути Ютака
Описание: Страшная катастрофа уничтожила мир, и только город-крепость Токио, защищенный мощным силовым полем, остался последним осколком человечества. Так считает 17-летний Аято Камино, токийский школьник, ведущий, как он считает, нормальную жизнь. Жизнь эта кончается вместе с прорывом силового поля и налетом странных истребителей, которым противостоят еще более странные боевые машины. В наступившей суматохе Аято сталкивается с молодой женщиной Харукой Сито, к которой сразу чувствует странное притяжение…

Вот так судьба в образе Харуки приводит Аято к богоподобному существу по имени Ра-Зефон, таинственному гиганту, которого можно назвать роботом, а можно – инструментом настройки Вселенной. С его помощью Камино, как цыпленок, вылупляется из скорлупы незнания и начинает искать свое истинное место в мире. Главные темы этого великолепного аниме, густо замешанного на традициях жанра меха, древней истории, философии и мистике – Время, любовь и музыка!

© Hollow, World Art
Качество: BDRip
Релиз/Автор рипа: E-HARO Raws
Совместимость с бытовыми плеерами: Нет
Наличие линковки: Нет
Тип видео: без хардсаба
Формат: MKV
Видео: x264, 960x720, (4/3), ~1800кбит/с, 23.976fps, 10 bit
Аудио #1 (внешняя) русская - AC3, 2 ch, 224кбит/с, 48000Hz
Аудио #2 (в контейнере) японская - Vorbis, 2 ch, 320кбит/с, 48000Hz
* Чтобы смотреть с озвучкой, необходимо из папки Rus sound [Дмитрий Толмачев] переписать файлы в папку, где находятся видеофайлы. Далее, следует запустить плеер и переключиться на mka-дорожку.
* Чтобы смотреть 10-битное видео (10bit), необходимо, исходя из ваших предпочтений используемого проигрывателя, воспользоваться
этой инструкцией.
* Чтобы смотреть с субтитрами, необходимо из папки к примеру Rus subs [Angel & LEXX$Y$] переписать файлы в папку, где находятся видеофайлы. В большинстве плееров, одноимённые субтитры подключатся автоматически.

#1 Ра-Зефон [ТВ] - ТВ (26 эп. + эп.-дайджест), оригинальный ТВ-сериал, 2002
#2 Ра-Зефон - Фильм - п/ф, киноверсия ТВ-сериала, 2003
#3 Ра-Зефон OVA - OVA (1 эп.), spin-off (ответвление сюжета), 2003

01. Over Lord
02. Awakening
03. Welcome to Our Town
04. Watch the Year Hand
05. On Earth as it is in Heaven
06. Lost Songs Forgotten Melodies
07. Phantom in the Cloud
08. The Dreaming Stone
09. Sanctuary
10. War in the Rememberance
11. NightMare
12. Resonance
13. Sleeping Beauty
14. Time After Time
15. Child Hoods End
16. The Moon Princess
17. Ground Zero
18. The Memory of a Lost City
19. Ticket to Nowhere
20. Interested Parties
21. Good Bye My Friend
22. Down Fall
23. Where the Sweet Bird Song
24. Twin Music
25. Deus Ex Machina
26. Time Enough for Love



Общее
Уникальный идентификатор : 219387494011308403138501949099436627885 (0xA50C7E91EB3BC689A4FB30BAC50757AD)
Полное имя : C:\Торренты №2\RahXephon TV [BDRip 720p]\[E-HARO Raws] RahXephon - 22 (BD 960x720 h264 10bit Vorbis).mkv
Формат : Matroska
Версия формата : Version 4 / Version 2
Размер файла : 365 Мбайт
Продолжительность : 23 м.
Режим общего битрейта : Переменный
Общий поток : 2161 Кбит/сек
Дата кодирования : UTC 2013-08-14 13:22:18
Программа кодирования : mkvmerge v6.3.0 (''You can''t stop me!'') built on Jun 28 2013 20:09:41
Библиотека кодирования : libebml v1.3.0 + libmatroska v1.4.0

Видео
Идентификатор : 1
Формат : AVC
Формат/Информация : Advanced Video Codec
Профиль формата : High 10@L5.0
Параметр CABAC формата : Да
Параметр ReFrames формата : 9 кадров
Идентификатор кодека : V_MPEG4/ISO/AVC
Продолжительность : 23 м.
Битрейт : 1798 Кбит/сек
Ширина : 960 пикселей
Высота : 720 пикселей
Соотношение сторон : 4:3
Режим частоты кадров : Постоянный
Частота кадров : 23,976 кадра/сек
Цветовое пространство : YUV
Субдискретизация насыщенности : 4:2:0
Битовая глубина : 10 бит
Тип развёртки : Прогрессивная
Бит/(Пиксели*Кадры) : 0.108
Размер потока : 303 Мбайт (83%)
Заголовок : RAHXEPHON ep.22 «Down Fall»
Библиотека кодирования : x264 core 133 r2334 a3ac64b
Настройки программы : cabac=1 / ref=9 / deblock=1:-1:-1 / analyse=0x3:0x113 / me=umh / subme=9 / psy=1 / psy_rd=1.00:0.00 / mixed_ref=1 / me_range=24 / chroma_me=1 / trellis=2 / 8x8dct=1 / cqm=0 / deadzone=21,11 / fast_pskip=0 / chroma_qp_offset=-2 / threads=9 / lookahead_threads=2 / sliced_threads=0 / nr=0 / decimate=0 / interlaced=0 / bluray_compat=0 / constrained_intra=0 / bframes=12 / b_pyramid=2 / b_adapt=2 / b_bias=0 / direct=1 / weightb=1 / open_gop=0 / weightp=2 / keyint=240 / keyint_min=24 / scenecut=40 / intra_refresh=0 / rc=crf / mbtree=0 / crf=16.0 / qcomp=0.72 / qpmin=0 / qpmax=81 / qpstep=4 / ip_ratio=1.40 / pb_ratio=1.30 / aq=1:0.95
Default : Да
Forced : Нет
Основные цвета : BT.709
Характеристики трансфера : BT.709
Коэффициенты матрицы : BT.709

Аудио
Идентификатор : 2
Формат : Vorbis
Параметр Floor формата : 1
Идентификатор кодека : A_VORBIS
Продолжительность : 23 м.
Вид битрейта : Переменный
Битрейт : 320 Кбит/сек
Каналы : 2 канала
Частота : 48,0 КГц
Метод сжатия : С потерями
Размер потока : 54,0 Мбайт (15%)
Библиотека кодирования : libVorbis (Schaufenugget) (20101101 (Schaufenugget))
Язык : Japanese
Default : Да
Forced : Нет



Трекер:  [ 07-Сен-2013 16:53 ]

  

Скачать .torrent

Размер .torrent файла 35 KB


Размер: 10.21 GB
Хэш (hash) релиза: 1b263b0349fb1de8581c927abddd12a824dce7af
Подписка на обновления:

Еще никто не оставлял запись к записи скачать торрент Ра-Зефон ТВ RahXephon TV . Будь первым!

!Обратная связь