Скачать через торрент музыку Taylor Swift - Live On The Seine бесплатно без регистрации torrent

Если у вас наблюдаются проблемы со скриншотами, переходом по ссылками, скачиванием торрентов - проблемы в блокировщике рекламы AdBlock. #хорошегоДня!


Статистика раздачи
Размер:  2.6 GB   |    Зарегистрирован:  4 года 2 месяца   |    .torrent скачан:  87 раз   |   
Раздают:  1  
   
Загрузка...
 
Автор Сообщение

Polarnik

avatar Polarnik


Taylor Swift - Live On The Seine (Concert In Paris, France) January 19, 2013

Жанр: Country pop, Electropop, Bubblegum pop, Country rock
Продолжительность: 30:31
Год выпуска: 2013

Треклист:
1. Red
2. 22
3. You Belong With Me
4. I Knew You Were Trouble
5. Love Story
6. We Are Never Ever Getting Back Together

Качество: HDTVRip 1080p
Контейнер: MPG

Видео: MPEG2 1920x1080 16:9 11.6 Mbps 29.970 fps
Аудио: AC3 384 kbps 2 channels 48.0 KHz
GeneralComplete name : D:\Taylor Swift - Live On The Seine (Paris, France 19-01-2013).mpegFormat : MPEG-PSFile size : 2.60 GiBDuration : 30mn 31sOverall bit rate : 12.2 Mbps

VideoID : 224 (0xE0)Format : MPEG VideoFormat version : Version 2Format profile : Main@HighFormat settings, BVOP : NoFormat settings, Matrix : DefaultFormat settings, GOP : M=1, N=12Duration : 30mn 31sBit rate mode : VariableBit rate : 11.6 MbpsNominal bit rate : 20.0 MbpsWidth : 1 920 pixelsHeight : 1 080 pixelsDisplay aspect ratio : 16:9Frame rate : 29.970 fpsColor space : YUVChroma subsampling : 4:2:0Bit depth : 8 bitsScan type : ProgressiveCompression mode : LossyBits/(Pixel*Frame) : 0.186Stream size : 2.47 GiB (95%)

AudioID : 189 (0xBD)-128 (0x80)Format : AC-3Format/Info : Audio Coding 3Mode extension : CM (complete main)Muxing mode : DVD-VideoDuration : 30mn 31sBit rate mode : ConstantBit rate : 384 KbpsChannel(s) : 2 channelsChannel positions : Front: L RSampling rate : 48.0 KHzBit depth : 16 bitsCompression mode : LossyStream size : 83.8 MiB (3%)


Трекер:  [ 19-Сен-2013 12:32 ]

  

Скачать .torrent

Размер .torrent файла 13 KB


Размер: 2.6 GB
Хэш (hash) релиза: b5349f86fa2e7a261198cce468cb8d961ce36159

Еще никто не оставлял запись к записи скачать торрент Taylor Swift - Live On The Seine . Будь первым!

!Обратная связь