Скачать через торрент музыку Taylor Swift & Ed Sheeran - Everything Has Changed бесплатно без регистрации torrent

Если у вас наблюдаются проблемы со скриншотами, переходом по ссылками, скачиванием торрентов - проблемы в блокировщике рекламы AdBlock. #хорошегоДня!


Статистика раздачи
Размер:  1.24 GB   |    Зарегистрирован:  4 года 2 месяца   |    .torrent скачан:  64 раза   |   
Раздают:  1  
   
Загрузка...
 
Автор Сообщение

Polarnik

avatar Polarnik


Taylor Swift & Ed Sheeran - Everything Has Changed

Жанр: Country pop, folk-pop
Продолжительность: 04:06
Год выпуска: 2013

Качество: Master 1080p
Контейнер: MOV

Видео: AVC 1920x1080 16:9 41.6 Mbps 23.976 fps
Аудио: PCM 1536 Kbps 2 channels 48.0 KHz
GeneralComplete name : D:\Taylor Swift & Ed Sheeran - Everything Has Changed.movFormat : MPEG-4Format profile : QuickTimeCodec ID : qtFile size : 1.24 GiBDuration : 4mn 6sOverall bit rate : 43.1 MbpsEncoded date : UTC 2013-09-13 19:37:57Tagged date : UTC 2013-09-13 19:38:55Writing library : Apple QuickTime 7.7.1com.apple.quicktime.player.movie : (Binary)

VideoID : 1Format : AVCFormat/Info : Advanced Video CodecFormat profile : Baseline@L5.1Format settings, CABAC : NoFormat settings, ReFrames : 2 framesCodec ID : avc1Codec ID/Info : Advanced Video CodingDuration : 4mn 6sBit rate mode : VariableBit rate : 41.6 MbpsWidth : 1 920 pixelsHeight : 1 080 pixelsDisplay aspect ratio : 16:9Frame rate mode : ConstantFrame rate : 23.976 fpsColor space : YUVChroma subsampling : 4:2:0Bit depth : 8 bitsScan type : ProgressiveBits/(Pixel*Frame) : 0.836Stream size : 1.19 GiB (96%)Language : EnglishEncoded date : UTC 2013-09-13 19:37:33Tagged date : UTC 2013-09-13 19:38:55Color primaries : BT.709-5, BT.1361, IEC 61966-2-4, SMPTE RP177Transfer characteristics : BT.709-5, BT.1361Matrix coefficients : BT.709-5, BT.1361, IEC 61966-2-4 709, SMPTE RP177

AudioID : 2Format : PCMFormat settings, Endianness : BigFormat settings, Sign : SignedCodec ID : twosDuration : 4mn 2sBit rate mode : ConstantBit rate : 1 536 KbpsChannel(s) : 2 channelsSampling rate : 48.0 KHzBit depth : 16 bitsStream size : 44.3 MiB (4%)Language : EnglishEncoded date : UTC 2013-09-13 19:37:33Tagged date : UTC 2013-09-13 19:38:55


Трекер:  [ 19-Сен-2013 12:30 ]

  

Скачать .torrent

Размер .torrent файла 13 KB


Размер: 1.24 GB
Хэш (hash) релиза: 389ae67447cd92713a994d6cc30ac728ead76643

Еще никто не оставлял запись к записи скачать торрент Taylor Swift & Ed Sheeran - Everything Has Changed . Будь первым!

!Обратная связь