Скачать через торрент музыку Одинокий рейнджер The Lone Ranger: Wanted бесплатно без регистрации torrent

Если у вас наблюдаются проблемы со скриншотами, переходом по ссылками, скачиванием торрентов - проблемы в блокировщике рекламы AdBlock. #хорошегоДня!


Статистика раздачи
Размер:  327 MB   |    Зарегистрирован:  4 года 2 месяца   |    .torrent скачан:  38 раз   |   
Раздают:  1  
   
Загрузка...
 
Автор Сообщение

Polarnik

avatar Polarnik


Одинокий рейнджер / The Lone Ranger: Wanted

Название альбома: The Lone Ranger: Wanted (Music Inspired By the Film)
Жанр: Soundtrack
Композитор: Ханс Циммер / Hans Zimmer
Год выпуска диска: 2013
Год выпуска фильма: 2013
Страна-производитель диска: США
Издатель (лейбл): Walt Disney Records
Аудиокодек: FLAC (*.flac)
Тип рипа: tracks+.cue
Битрейт аудио: lossless
Продолжительность: 00:51:53
Источник (релизер): what.cd
Наличие обложки в содержимом раздачи: да (только фронтальная)
Треклист:

01. Ben Kweller - Holy Water [3:35]
02. Grace Potter & the Nocturnals - Devil''s Train [3:29]
03. Shane MacGowan - Poor Paddy On The Railway [3:08]
04. Pete Molinari - So Long Gone [3:28]
05. Sara Watkins - Central And Union [3:00]
06. The White Buffalo - The American Dream [2:59]
07. Dave Alvin - Lonesome Whistle [4:13]
08. Iggy Pop - Sweet Betsy From Pike [4:02]
09. Iron & Wine - Rattling Bone [4:49]
10. The Rubens - Cowboy [2:55]
11. Lucinda Williams - Everything But The Truth [4:04]
12. The Aggrolites - The Truth Lives On [3:50]
13. Gomez - Butch''s Ballad [5:39]
14. John Grant - Saddle The Wind [2:43]
Exact Audio Copy V1.0 beta 3 from 29. August 2011

EAC extraction logfile from 10. September 2013, 16:12

Various Artists / The Lone Ranger - Wanted (Music Inspired by the Film)

Used drive : PLDS DVD+-RW DS-8A8SH Adapter: 0 ID: 1

Read mode : SecureUtilize accurate stream : YesDefeat audio cache : YesMake use of C2 pointers : No

Read offset correction : 6Overread into Lead-In and Lead-Out : NoFill up missing offset samples with silence : YesDelete leading and trailing silent blocks : NoNull samples used in CRC calculations : YesUsed interface : Native Win32 interface for Win NT & 2000Gap handling : Appended to previous track

Used output format : User Defined EncoderSelected bitrate : 128 kBit/sQuality : HighAdd ID3 tag : NoCommand line compressor : C:\Program Files\Exact Audio Copy\Flac\flac.exeAdditional command line options : -8 -V -T "ARTIST=%artist%" -T "TITLE=%title%" -T "ALBUM=%albumtitle%" -T "DATE=%year%" -T "TRACKNUMBER=%tracknr%" -T "GENRE=%genre%" -T "PERFORMER=%albuminterpret%" -T "COMPOSER=%composer%" %haslyrics%--tag-from-file=LYRICS="%lyricsfile%"%haslyrics% -T "ALBUMARTIST=%albumartist%" -T "DISCNUMBER=%cdnumber%" -T "TOTALDISCS=%totalcds%" -T "TOTALTRACKS=%numtracks%" -T "COMMENT=%comment%" %source% -o %dest%

TOC of the extracted CD

Track | Start | Length | Start sector | End sector --------------------------------------------------------- 1 | 0:00.00 | 3:35.08 | 0 | 16132 2 | 3:35.08 | 3:29.31 | 16133 | 31838 3 | 7:04.39 | 3:07.74 | 31839 | 45937 4 | 10:12.38 | 3:27.40 | 45938 | 61502 5 | 13:40.03 | 3:00.16 | 61503 | 75018 6 | 16:40.19 | 2:59.06 | 75019 | 88449 7 | 19:39.25 | 4:13.30 | 88450 | 107454 8 | 23:52.55 | 4:01.70 | 107455 | 125599 9 | 27:54.50 | 4:49.11 | 125600 | 147285 10 | 32:43.61 | 2:54.74 | 147286 | 160409 11 | 35:38.60 | 4:03.46 | 160410 | 178680 12 | 39:42.31 | 3:49.47 | 178681 | 195902 13 | 43:32.03 | 5:38.56 | 195903 | 221308 14 | 49:10.59 | 2:42.43 | 221309 | 233501

Track 1

Filename C:\Users\nprindle\Desktop\Various Artists - The Lone Ranger - Wanted (Music Inspired By The Film) (2013) - [FLAC]\01 - Ben Kweller - Holy Water.wav

Pre-gap length 0:00:02.00

Peak level 94.3 % Extraction speed 1.5 X Track quality 99.9 % Test CRC 3F16C0C7 Copy CRC 3F16C0C7 Accurately ripped (confidence 2) [401A1E18] (AR v2) Copy OK

Track 2

Filename C:\Users\nprindle\Desktop\Various Artists - The Lone Ranger - Wanted (Music Inspired By The Film) (2013) - [FLAC]\02 - Grace Potter & the Nocturnals - Devil''s Train.wav

Pre-gap length 0:00:01.32

Peak level 94.3 % Extraction speed 2.1 X Track quality 100.0 % Test CRC 4F1EE13A Copy CRC 4F1EE13A Accurately ripped (confidence 2) [CFB99290] (AR v2) Copy OK

Track 3

Filename C:\Users\nprindle\Desktop\Various Artists - The Lone Ranger - Wanted (Music Inspired By The Film) (2013) - [FLAC]\03 - Shane MacGowan - Poor Paddy On The Railway.wav

Pre-gap length 0:00:01.45

Peak level 94.5 % Extraction speed 2.2 X Track quality 100.0 % Test CRC D530E632 Copy CRC D530E632 Accurately ripped (confidence 2) [2D24F798] (AR v2) Copy OK

Track 4

Filename C:\Users\nprindle\Desktop\Various Artists - The Lone Ranger - Wanted (Music Inspired By The Film) (2013) - [FLAC]\04 - Pete Molinari - So Long Gone.wav

Pre-gap length 0:00:01.45

Peak level 94.3 % Extraction speed 2.4 X Track quality 100.0 % Test CRC 699B61CA Copy CRC 699B61CA Accurately ripped (confidence 2) [DE3FF30A] (AR v2) Copy OK

Track 5

Filename C:\Users\nprindle\Desktop\Various Artists - The Lone Ranger - Wanted (Music Inspired By The Film) (2013) - [FLAC]\05 - Sara Watkins - Central And Union.wav

Pre-gap length 0:00:01.45

Peak level 94.3 % Extraction speed 2.4 X Track quality 100.0 % Test CRC 1392D087 Copy CRC 1392D087 Accurately ripped (confidence 2) [C139C029] (AR v2) Copy OK

Track 6

Filename C:\Users\nprindle\Desktop\Various Artists - The Lone Ranger - Wanted (Music Inspired By The Film) (2013) - [FLAC]\06 - The White Buffalo - The American Dream.wav

Pre-gap length 0:00:01.45

Peak level 94.3 % Extraction speed 2.6 X Track quality 100.0 % Test CRC 2A72905F Copy CRC 2A72905F Accurately ripped (confidence 2) [E3B8ED7C] (AR v2) Copy OK

Track 7

Filename C:\Users\nprindle\Desktop\Various Artists - The Lone Ranger - Wanted (Music Inspired By The Film) (2013) - [FLAC]\07 - Dave Alvin - Lonesome Whistle.wav

Pre-gap length 0:00:01.45

Peak level 94.9 % Extraction speed 2.8 X Track quality 100.0 % Test CRC D0C01D97 Copy CRC D0C01D97 Accurately ripped (confidence 2) [DE6E7985] (AR v2) Copy OK

Track 8

Filename C:\Users\nprindle\Desktop\Various Artists - The Lone Ranger - Wanted (Music Inspired By The Film) (2013) - [FLAC]\08 - Iggy Pop - Sweet Betsy From Pike.wav

Pre-gap length 0:00:01.45

Peak level 94.4 % Extraction speed 2.9 X Track quality 100.0 % Test CRC 8759756D Copy CRC 8759756D Accurately ripped (confidence 2) [2A193482] (AR v2) Copy OK

Track 9

Filename C:\Users\nprindle\Desktop\Various Artists - The Lone Ranger - Wanted (Music Inspired By The Film) (2013) - [FLAC]\09 - Iron & Wine - Rattling Bone.wav

Pre-gap length 0:00:01.45

Peak level 94.3 % Extraction speed 2.5 X Track quality 99.9 % Test CRC 023AEA13 Copy CRC 023AEA13 Accurately ripped (confidence 2) [C4367CDE] (AR v2) Copy OK

Track 10

Filename C:\Users\nprindle\Desktop\Various Artists - The Lone Ranger - Wanted (Music Inspired By The Film) (2013) - [FLAC]\10 - The Rubens - Cowboy.wav

Pre-gap length 0:00:01.45

Peak level 98.7 % Extraction speed 3.0 X Track quality 100.0 % Test CRC 8231BA98 Copy CRC 8231BA98 Accurately ripped (confidence 2) [A2CC6CE8] (AR v2) Copy OK

Track 11

Filename C:\Users\nprindle\Desktop\Various Artists - The Lone Ranger - Wanted (Music Inspired By The Film) (2013) - [FLAC]\11 - Lucinda Williams - Everything But The Truth.wav

Pre-gap length 0:00:01.45

Peak level 94.4 % Extraction speed 3.3 X Track quality 100.0 % Test CRC D91C593D Copy CRC D91C593D Accurately ripped (confidence 2) [1C755DE0] (AR v2) Copy OK

Track 12

Filename C:\Users\nprindle\Desktop\Various Artists - The Lone Ranger - Wanted (Music Inspired By The Film) (2013) - [FLAC]\12 - The Aggrolites - The Truth Lives On.wav

Pre-gap length 0:00:01.45

Peak level 94.3 % Extraction speed 3.4 X Track quality 100.0 % Test CRC CCE16844 Copy CRC CCE16844 Accurately ripped (confidence 2) [86F1E09A] (AR v2) Copy OK

Track 13

Filename C:\Users\nprindle\Desktop\Various Artists - The Lone Ranger - Wanted (Music Inspired By The Film) (2013) - [FLAC]\13 - Gomez - Butch''s Ballad.wav

Pre-gap length 0:00:01.45

Peak level 94.7 % Extraction speed 3.7 X Track quality 100.0 % Test CRC B89FB112 Copy CRC B89FB112 Accurately ripped (confidence 2) [39811BC6] (AR v2) Copy OK

Track 14

Filename C:\Users\nprindle\Desktop\Various Artists - The Lone Ranger - Wanted (Music Inspired By The Film) (2013) - [FLAC]\14 - John Grant - Saddle The Wind.wav

Pre-gap length 0:00:01.45

Peak level 94.4 % Extraction speed 3.4 X Track quality 100.0 % Test CRC D8949D0D Copy CRC D8949D0D Accurately ripped (confidence 2) [50128BDF] (AR v2) Copy OK

All tracks accurately ripped

No errors occurred

End of status report

---- CUETools DB Plugin V2.1.3

[CTDB TOCID: uJFIsy_6ofI6KrUyM96FXx3TB8U-] found, Submit result: uJFIsy_6ofI6KrUyM96FXx3TB8U- has been confirmed[a8c50c09] (4/4) Accurately ripped

==== Log checksum DB91CE4BD4B1D8BE6DCA3D96CDDD3A11488B6065C7D741A2C200C5D975720EAE ====
REM GENRE SoundtrackREM DATE 2013REM DISCID A90C290EREM COMMENT "ExactAudioCopy v1.0b3"CATALOG 0050087292058PERFORMER "Various Artists"TITLE "The Lone Ranger - Wanted (Music Inspired by the Film)"FILE "01 - Ben Kweller - Holy Water.wav" WAVE TRACK 01 AUDIO TITLE "Holy Water" PERFORMER "Ben Kweller" ISRC QMT471200036 INDEX 01 00:00:00 TRACK 02 AUDIO TITLE "Devil''s Train" PERFORMER "Grace Potter & the Nocturnals" ISRC USHR11334675 INDEX 00 03:33:59FILE "02 - Grace Potter & the Nocturnals - Devil''s Train.wav" WAVE INDEX 01 00:00:00 TRACK 03 AUDIO TITLE "Poor Paddy On The Railway" PERFORMER "Shane MacGowan" ISRC USWD11365271 INDEX 00 03:27:72FILE "03 - Shane MacGowan - Poor Paddy On The Railway.wav" WAVE INDEX 01 00:00:00 TRACK 04 AUDIO TITLE "So Long Gone" PERFORMER "Pete Molinari" ISRC GBBFF1300026 INDEX 00 03:06:40FILE "04 - Pete Molinari - So Long Gone.wav" WAVE INDEX 01 00:00:00 TRACK 05 AUDIO TITLE "Central And Union" PERFORMER "Sara Watkins" ISRC USWD11365247 INDEX 00 03:26:06FILE "05 - Sara Watkins - Central And Union.wav" WAVE INDEX 01 00:00:00 TRACK 06 AUDIO TITLE "The American Dream" PERFORMER "The White Buffalo" ISRC US6KF1300200 INDEX 00 02:58:57FILE "06 - The White Buffalo - The American Dream.wav" WAVE INDEX 01 00:00:00 TRACK 07 AUDIO TITLE "Lonesome Whistle" PERFORMER "Dave Alvin" ISRC QMFQH1300001 INDEX 00 02:57:47FILE "07 - Dave Alvin - Lonesome Whistle.wav" WAVE INDEX 01 00:00:00 TRACK 08 AUDIO TITLE "Sweet Betsy From Pike" PERFORMER "Iggy Pop" ISRC QMS371300001 INDEX 00 04:11:71FILE "08 - Iggy Pop - Sweet Betsy From Pike.wav" WAVE INDEX 01 00:00:00 TRACK 09 AUDIO TITLE "Rattling Bone" PERFORMER "Iron & Wine" ISRC USWD11365270 INDEX 00 04:00:36FILE "09 - Iron & Wine - Rattling Bone.wav" WAVE INDEX 01 00:00:00 TRACK 10 AUDIO TITLE "Cowboy" PERFORMER "The Rubens" ISRC AULI01386190 INDEX 00 04:47:52FILE "10 - The Rubens - Cowboy.wav" WAVE INDEX 01 00:00:00 TRACK 11 AUDIO TITLE "Everything But The Truth" PERFORMER "Lucinda Williams" ISRC USWD11365269 INDEX 00 02:53:40FILE "11 - Lucinda Williams - Everything But The Truth.wav" WAVE INDEX 01 00:00:00 TRACK 12 AUDIO TITLE "The Truth Lives On" PERFORMER "The Aggrolites" ISRC QMW7A1300001 INDEX 00 04:02:12FILE "12 - The Aggrolites - The Truth Lives On.wav" WAVE INDEX 01 00:00:00 TRACK 13 AUDIO TITLE "Butch''s Ballad" PERFORMER "Gomez" ISRC USATO1300253 INDEX 00 03:48:13FILE "13 - Gomez - Butch''s Ballad.wav" WAVE INDEX 01 00:00:00 TRACK 14 AUDIO TITLE "Saddle The Wind" PERFORMER "John Grant" ISRC USBQU1300101 INDEX 00 05:37:22FILE "14 - John Grant - Saddle The Wind.wav" WAVE INDEX 01 00:00:00


Трекер:  [ 25-Сен-2013 08:25 ]

  

Скачать .torrent

Размер .torrent файла 14 KB


Размер: 327 MB
Хэш (hash) релиза: ce06eb10f9318a2c9b57786834104ba1f8dc2e22

Еще никто не оставлял запись к записи скачать торрент Одинокий рейнджер The Lone Ranger: Wanted . Будь первым!

!Обратная связь