Скачать через торрент музыку Nanci Griffith - Lone Star State of Mind - 1987, FLAC бесплатно без регистрации torrent

Если у вас наблюдаются проблемы со скриншотами, переходом по ссылками, скачиванием торрентов - проблемы в блокировщике рекламы AdBlock. #хорошегоДня!


Статистика раздачи
Размер:  191 MB   |    Зарегистрирован:  4 года 2 месяца   |    .torrent скачан:  147 раз   |   
Раздают:  1  
   
Загрузка...
 
Автор Сообщение

Galfimbul

avatar Galfimbul


Nanci Griffith / Lone Star State of Mind

Жанр: country, folk
Страна-производитель диска: USA
Год издания: 1987
Издатель (лейбл): MCA
Номер по каталогу: MCAD-31300
Страна: USA
Аудиокодек: FLAC (*.flac)
Тип рипа: tracks+.cue
Битрейт аудио: lossless
Продолжительность: 35:48
Источник (релизер): Internet
Наличие сканов в содержимом раздачи: нет
Треклист:
1. "Lone Star State of Mind" (Fred Koller, Patrick Alger, Gene Levine) 3:56
2. "Cold Hearts/Closed Minds" 2:40
3. "From a Distance" (Julie Gold) 4:10
4. "Beacon Street" 2:49
5. "Nickel Dreams" (Mac McAnally, Don Lowery) 2:48
6. "Sing One for Sister" (Robert Earl Keen, Jr.) 3:20
7. "Ford Econoline" 2:10
8. "Trouble in the Fields" (Griffith, Rick West) 3:18
9. "Love in a Memory" 3:17
10. "Let It Shine on Me" (Paul Kennerley) 2:59
11. "There''s a Light Beyond These Woods (Mary Margaret)" 4:21
AUDIOCHECKER v1.2 - by Dester - opdester@freemail.hu~~~~~~~~~~~~~~~~~

01 -===- C:\Torrent\Мое\Nanci Griffith...Lone Star State of Mind(1987)\Nanci Griffith - 01 - Lone Star State of Mind.flac Extracted successfully Conclusion: This track looks like CDDA with probability 100%

02 -===- C:\Torrent\Мое\Nanci Griffith...Lone Star State of Mind(1987)\Nanci Griffith - 02 - Cold Hearts-Closed Minds.flac Extracted successfully Conclusion: This track looks like CDDA with probability 100%

03 -===- C:\Torrent\Мое\Nanci Griffith...Lone Star State of Mind(1987)\Nanci Griffith - 03 - From a Distance.flac Extracted successfully Conclusion: This track looks like CDDA with probability 100%

04 -===- C:\Torrent\Мое\Nanci Griffith...Lone Star State of Mind(1987)\Nanci Griffith - 04 - Beacon Street.flac Extracted successfully Conclusion: This track looks like CDDA with probability 100%

05 -===- C:\Torrent\Мое\Nanci Griffith...Lone Star State of Mind(1987)\Nanci Griffith - 05 - Nickel Dreams.flac Extracted successfully Conclusion: This track looks like CDDA with probability 100%

06 -===- C:\Torrent\Мое\Nanci Griffith...Lone Star State of Mind(1987)\Nanci Griffith - 06 - Sing One for Sister.flac Extracted successfully Conclusion: This track looks like CDDA with probability 100%

07 -===- C:\Torrent\Мое\Nanci Griffith...Lone Star State of Mind(1987)\Nanci Griffith - 07 - Ford Econoline.flac Extracted successfully Conclusion: This track looks like CDDA with probability 99%

08 -===- C:\Torrent\Мое\Nanci Griffith...Lone Star State of Mind(1987)\Nanci Griffith - 08 - Trouble in the Fields.flac Extracted successfully Conclusion: This track looks like CDDA with probability 100%

09 -===- C:\Torrent\Мое\Nanci Griffith...Lone Star State of Mind(1987)\Nanci Griffith - 09 - Love in a Memory.flac Extracted successfully Conclusion: This track looks like CDDA with probability 100%

10 -===- C:\Torrent\Мое\Nanci Griffith...Lone Star State of Mind(1987)\Nanci Griffith - 10 - Let It Shine O Me.flac Extracted successfully Conclusion: This track looks like CDDA with probability 99%

11 -===- C:\Torrent\Мое\Nanci Griffith...Lone Star State of Mind(1987)\Nanci Griffith - 11 - There''s a Light Beyond These Woods (Mary Margaret).flac Extracted successfully Conclusion: This track looks like CDDA with probability 100%
REM COMMENT "CUETools generated dummy CUE sheet"FILE "Nanci Griffith - 01 - Lone Star State of Mind.flac" WAVE TRACK 01 AUDIO INDEX 01 00:00:00FILE "Nanci Griffith - 02 - Cold Hearts-Closed Minds.flac" WAVE TRACK 02 AUDIO INDEX 01 00:00:00FILE "Nanci Griffith - 03 - From a Distance.flac" WAVE TRACK 03 AUDIO INDEX 01 00:00:00FILE "Nanci Griffith - 04 - Beacon Street.flac" WAVE TRACK 04 AUDIO INDEX 01 00:00:00FILE "Nanci Griffith - 05 - Nickel Dreams.flac" WAVE TRACK 05 AUDIO INDEX 01 00:00:00FILE "Nanci Griffith - 06 - Sing One for Sister.flac" WAVE TRACK 06 AUDIO INDEX 01 00:00:00FILE "Nanci Griffith - 07 - Ford Econoline.flac" WAVE TRACK 07 AUDIO INDEX 01 00:00:00FILE "Nanci Griffith - 08 - Trouble in the Fields.flac" WAVE TRACK 08 AUDIO INDEX 01 00:00:00FILE "Nanci Griffith - 09 - Love in a Memory.flac" WAVE TRACK 09 AUDIO INDEX 01 00:00:00FILE "Nanci Griffith - 10 - Let It Shine O Me.flac" WAVE TRACK 10 AUDIO INDEX 01 00:00:00FILE "Nanci Griffith - 11 - There''s a Light Beyond These Woods (Mary Margaret).flac" WAVE TRACK 11 AUDIO INDEX 01 00:00:00
Banjo – Béla Fleck
Bass Guitar – Emory Gordy*
Cello – John Catchings
Drums, Percussion – Russ Kunkel
Electric Guitar – Phillip Donnelly*
Fiddle, Viola, Mandolin, Mandola – Mark O''Connor
Harmony Vocals – Lucy Kaplansky
Harmony Vocals, Acoustic Guitar – Mac McAnally
Mastered By – Glenn Meadows
Mixed By, Recorded By – Steve Tillisch
Piano – John Jarvis
Producer – Nanci Griffith, Tony Brown (4)
Resonator Guitar [Dobro], Steel Guitar – Lloyd Green
Soloist, Acoustic Guitar – Patrick Alger
Vocals, Acoustic Guitar, Harmony Vocals – Nanci Griffith


Трекер:  [ 26-Сен-2013 18:32 ]

  

Скачать .torrent

Размер .torrent файла 16 KB


Размер: 191 MB
Хэш (hash) релиза: 249700761e3a8579741ec6cce67aee912d889cff

Еще никто не оставлял запись к записи скачать торрент Nanci Griffith - Lone Star State of Mind - 1987, FLAC . Будь первым!

!Обратная связь