Скачать через торрент музыку Секретные материалы The X-Files: Volumes One & Two бесплатно без регистрации torrent

Если у вас наблюдаются проблемы со скриншотами, переходом по ссылками, скачиванием торрентов - проблемы в блокировщике рекламы AdBlock. #хорошегоДня!


Статистика раздачи
Размер:  5.04 GB   |    Зарегистрирован:  3 года 11 месяцев   |    .torrent скачан:  56 раз   |   
Раздают:  1  
   
Загрузка...
 
Автор Сообщение

Galfimbul

avatar Galfimbul



Секретные материалы / The X-Files
Music by Mark Snow
Limited Edition ●★● 4CD BOX SET

Жанр: Score | Дата выпуска: 2011/2013
Издатель (лейбл): La-La Land Records | Номер по каталогу: LLLCD 1170 / LLLCD 1270
Аудиокодек: FLAC (*.flac) | Тип рипа: image+.cue | Битрейт аудио: lossless
Общая продолжительность: см. спойлеры
Источник: Рипы оригинальных дисков из личной коллекции

Секретные материалы / The X-Files: Volume One
Music by Mark Snow
Limited Edition of 3000 Units
4CD BOX SET


Жанр: Score | Дата выпуска: 10 мая 2011
Издатель (лейбл): La-La Land Records | Номер по каталогу: LLLCD 1170
Аудиокодек: FLAC (*.flac) | Тип рипа: image+.cue | Битрейт аудио: lossless
Общая продолжительность: 05:11:34
Источник: Рипы оригинальных дисков из личной коллекции
Продолжительность: 01:13:01

01. Main Title [00:48]

1x79 - PILOT
02. Scully to DC / Scully Meets Mulder [01:20]
03. The Close Encounter [02:15]
04. Scully & FBI Goon [00:35]
05. FBI Secret Vaults [01:14]

1x02 - SQUEEZE
06. Hidden Away [01:37]
07. Slimed [00:41]
08. Cuffed and Tubbed [02:15]

1x09 - FALLEN ANGEL
09. On the Waterfront / Suspended Max [06:10]

1x22 - ROLAND
10. Sweeper [01:46]
11. Out the Window [01:29]
12. Ramblin'' Roland [02:05]

1x23 - THE ERLENMEYER FLASK
13. Green Goo Chase [02:12]
14. The Wells Brain [05:16]

2x01 - LITTLE GREEN MEN
15. Dead Man''s Thoughts [02:00]
16. Fish Food [03:15]

2x02 - THE HOST
17. Two Miles Off Jersey [02:45]
18. Honey Wagon [02:03]
19. Guillotined [03:53]

2x08 - ONE BREATH
20. The Return [01:58]
21. Uniforms [03:18]
22. Players [03:33]
23. Trust Your Pistol [00:57]
24. Reanimation [01:32]
25. Guardian Angel [01:13]

2x25 - ANASAZI
26. The Mourn [03:20]
27. Mercy Wound [04:08]
28. Anasazi [08:35]

29. End Credit (Extended #1) [00:35]
Exact Audio Copy V1.0 beta 3 from 29. August 2011

EAC extraction logfile from 11. September 2013, 11:18

Mark Snow / The X-Files: Volume One - Disc 1

Used drive : TSSTcorpCDDVDW TS-L633C Adapter: 2 ID: 0

Read mode : SecureUtilize accurate stream : YesDefeat audio cache : YesMake use of C2 pointers : No

Read offset correction : 6Overread into Lead-In and Lead-Out : NoFill up missing offset samples with silence : YesDelete leading and trailing silent blocks : NoNull samples used in CRC calculations : YesUsed interface : Native Win32 interface for Win NT & 2000

Used output format : Internal WAV RoutinesSample format : 44.100 Hz; 16 Bit; Stereo

TOC of the extracted CD

Track | Start | Length | Start sector | End sector --------------------------------------------------------- 1 | 0:00.00 | 0:48.35 | 0 | 3634 2 | 0:48.35 | 1:20.55 | 3635 | 9689 3 | 2:09.15 | 2:15.60 | 9690 | 19874 4 | 4:25.00 | 0:35.02 | 19875 | 22501 5 | 5:00.02 | 1:14.19 | 22502 | 28070 6 | 6:14.21 | 1:37.41 | 28071 | 35386 7 | 7:51.62 | 0:41.22 | 35387 | 38483 8 | 8:33.09 | 2:15.63 | 38484 | 48671 9 | 10:48.72 | 6:10.69 | 48672 | 76490 10 | 16:59.66 | 1:46.67 | 76491 | 84507 11 | 18:46.58 | 1:29.03 | 84508 | 91185 12 | 20:15.61 | 2:05.29 | 91186 | 100589 13 | 22:21.15 | 2:12.03 | 100590 | 110492 14 | 24:33.18 | 5:16.67 | 110493 | 134259 15 | 29:50.10 | 2:00.29 | 134260 | 143288 16 | 31:50.39 | 3:14.70 | 143289 | 157908 17 | 35:05.34 | 2:44.73 | 157909 | 170281 18 | 37:50.32 | 2:03.07 | 170282 | 179513 19 | 39:53.39 | 3:53.67 | 179514 | 197055 20 | 43:47.31 | 1:58.53 | 197056 | 205958 21 | 45:46.09 | 3:18.37 | 205959 | 220845 22 | 49:04.46 | 3:33.32 | 220846 | 236852 23 | 52:38.03 | 0:57.54 | 236853 | 241181 24 | 53:35.57 | 1:32.03 | 241182 | 248084 25 | 55:07.60 | 1:13.27 | 248085 | 253586 26 | 56:21.12 | 3:20.16 | 253587 | 268602 27 | 59:41.28 | 4:07.71 | 268603 | 287198 28 | 63:49.24 | 8:35.07 | 287199 | 325830 29 | 72:24.31 | 0:35.25 | 325831 | 328480

Range status and errors

Selected range

Filename D:\Mark Snow - The X-Files [by italia57]\2011 - Volume One [LLLCD 1170]\Disc 1\Mark Snow - Volume 1 Disc 1.wav

Peak level 99.9 % Extraction speed 4.1 X Range quality 99.9 % Test CRC 31E69B80 Copy CRC 31E69B80 Copy OK

No errors occurred

AccurateRip summary

Track 1 accurately ripped (confidence 24) [53F07EF5] (AR v2)Track 2 accurately ripped (confidence 24) [B2A14B21] (AR v2)Track 3 accurately ripped (confidence 24) [EF9959F6] (AR v2)Track 4 accurately ripped (confidence 24) [21AE518D] (AR v2)Track 5 accurately ripped (confidence 24) [D0BE362E] (AR v2)Track 6 accurately ripped (confidence 24) [50D6C7A1] (AR v2)Track 7 accurately ripped (confidence 24) [09D2F465] (AR v2)Track 8 accurately ripped (confidence 23) [C10B6B74] (AR v2)Track 9 accurately ripped (confidence 24) [C7A8CF3D] (AR v2)Track 10 accurately ripped (confidence 24) [6D81C784] (AR v2)Track 11 accurately ripped (confidence 24) [89E8CB45] (AR v2)Track 12 accurately ripped (confidence 24) [A52A32E2] (AR v2)Track 13 accurately ripped (confidence 24) [5D60AEC0] (AR v2)Track 14 accurately ripped (confidence 24) [323F53E8] (AR v2)Track 15 accurately ripped (confidence 24) [D50C7BA9] (AR v2)Track 16 accurately ripped (confidence 24) [46B67AF8] (AR v2)Track 17 accurately ripped (confidence 24) [4E64DC08] (AR v2)Track 18 accurately ripped (confidence 24) [9D7DC873] (AR v2)Track 19 accurately ripped (confidence 24) [066238ED] (AR v2)Track 20 accurately ripped (confidence 24) [9D0B78F8] (AR v2)Track 21 accurately ripped (confidence 24) [B7EFB47F] (AR v2)Track 22 accurately ripped (confidence 24) [1C926567] (AR v2)Track 23 accurately ripped (confidence 24) [F2EC039B] (AR v2)Track 24 accurately ripped (confidence 24) [B533365F] (AR v2)Track 25 accurately ripped (confidence 24) [ED01D1FC] (AR v2)Track 26 accurately ripped (confidence 24) [0A31F514] (AR v2)Track 27 accurately ripped (confidence 24) [A426B408] (AR v2)Track 28 accurately ripped (confidence 24) [D5D74475] (AR v2)Track 29 accurately ripped (confidence 24) [33D7035C] (AR v2)

All tracks accurately ripped

End of status report

---- CUETools DB Plugin V2.1.4

[CTDB TOCID: c3FOf.YELPLVljKXaV4w.GECklc-] foundSubmit result: c3FOf.YELPLVljKXaV4w.GECklc- has been confirmedTrack | CTDB Status 1 | (4/4) Accurately ripped 2 | (4/4) Accurately ripped 3 | (4/4) Accurately ripped 4 | (4/4) Accurately ripped 5 | (4/4) Accurately ripped 6 | (4/4) Accurately ripped 7 | (4/4) Accurately ripped 8 | (4/4) Accurately ripped 9 | (4/4) Accurately ripped 10 | (4/4) Accurately ripped 11 | (4/4) Accurately ripped 12 | (4/4) Accurately ripped 13 | (4/4) Accurately ripped 14 | (4/4) Accurately ripped 15 | (4/4) Accurately ripped 16 | (4/4) Accurately ripped 17 | (4/4) Accurately ripped 18 | (4/4) Accurately ripped 19 | (4/4) Accurately ripped 20 | (4/4) Accurately ripped 21 | (4/4) Accurately ripped 22 | (4/4) Accurately ripped 23 | (4/4) Accurately ripped 24 | (4/4) Accurately ripped 25 | (4/4) Accurately ripped 26 | (4/4) Accurately ripped 27 | (4/4) Accurately ripped 28 | (4/4) Accurately ripped 29 | (4/4) Accurately ripped

==== Log checksum AA175C376C1B00292085AB386178E819ACCA10430B69CB3B62A78DA11BBC9C48 ====
REM GENRE SoundtrackREM DATE 2011REM DISCID 7D111B1DREM COMMENT "ExactAudioCopy v1.0b3"PERFORMER "Mark Snow"TITLE "The X-Files: Volume One - Disc 1"FILE "Mark Snow - Volume 1 Disc 1.wav" WAVE TRACK 01 AUDIO TITLE "Main Title (Season 1)" PERFORMER "Mark Snow" FLAGS DCP INDEX 01 00:00:00 TRACK 02 AUDIO TITLE "Scully to DC / Scully Meets Mulder" PERFORMER "Mark Snow" FLAGS DCP INDEX 00 00:46:35 INDEX 01 00:48:35 TRACK 03 AUDIO TITLE "The Close Encounter" PERFORMER "Mark Snow" FLAGS DCP INDEX 00 02:07:15 INDEX 01 02:09:15 TRACK 04 AUDIO TITLE "Scully & FBI Goon" PERFORMER "Mark Snow" FLAGS DCP INDEX 00 04:23:00 INDEX 01 04:25:00 TRACK 05 AUDIO TITLE "FBI Secret Vaults" PERFORMER "Mark Snow" FLAGS DCP INDEX 00 04:58:02 INDEX 01 05:00:02 TRACK 06 AUDIO TITLE "Hidden Away" PERFORMER "Mark Snow" FLAGS DCP INDEX 00 06:11:21 INDEX 01 06:14:21 TRACK 07 AUDIO TITLE "Slimed" PERFORMER "Mark Snow" FLAGS DCP INDEX 00 07:49:62 INDEX 01 07:51:62 TRACK 08 AUDIO TITLE "Cuffed And Tubbed" PERFORMER "Mark Snow" FLAGS DCP INDEX 00 08:31:09 INDEX 01 08:33:09 TRACK 09 AUDIO TITLE "On the Waterfront/Suspended Max" PERFORMER "Mark Snow" FLAGS DCP INDEX 00 10:45:72 INDEX 01 10:48:72 TRACK 10 AUDIO TITLE "Sweeper" PERFORMER "Mark Snow" FLAGS DCP INDEX 00 16:56:66 INDEX 01 16:59:66 TRACK 11 AUDIO TITLE "Out the Window" PERFORMER "Mark Snow" FLAGS DCP INDEX 00 18:44:58 INDEX 01 18:46:58 TRACK 12 AUDIO TITLE "Ramblin'' Roland" PERFORMER "Mark Snow" FLAGS DCP INDEX 00 20:13:61 INDEX 01 20:15:61 TRACK 13 AUDIO TITLE "Green Goo Chase" PERFORMER "Mark Snow" FLAGS DCP INDEX 00 22:18:15 INDEX 01 22:21:15 TRACK 14 AUDIO TITLE "The Wells Brain" PERFORMER "Mark Snow" FLAGS DCP INDEX 00 24:31:18 INDEX 01 24:33:18 TRACK 15 AUDIO TITLE "Dead Man''s Thoughts" PERFORMER "Mark Snow" FLAGS DCP INDEX 00 29:47:10 INDEX 01 29:50:10 TRACK 16 AUDIO TITLE "Fish Food" PERFORMER "Mark Snow" FLAGS DCP INDEX 00 31:48:39 INDEX 01 31:50:39 TRACK 17 AUDIO TITLE "Two Miles Off Jersey" PERFORMER "Mark Snow" FLAGS DCP INDEX 00 35:02:34 INDEX 01 35:05:34 TRACK 18 AUDIO TITLE "Honey Wagon" PERFORMER "Mark Snow" FLAGS DCP INDEX 00 37:48:32 INDEX 01 37:50:32 TRACK 19 AUDIO TITLE "Guillotined" PERFORMER "Mark Snow" FLAGS DCP INDEX 00 39:51:39 INDEX 01 39:53:39 TRACK 20 AUDIO TITLE "The Return" PERFORMER "Mark Snow" FLAGS DCP INDEX 00 43:44:31 INDEX 01 43:47:31 TRACK 21 AUDIO TITLE "Uniforms" PERFORMER "Mark Snow" FLAGS DCP INDEX 00 45:44:09 INDEX 01 45:46:09 TRACK 22 AUDIO TITLE "Players" PERFORMER "Mark Snow" FLAGS DCP INDEX 00 49:02:46 INDEX 01 49:04:46 TRACK 23 AUDIO TITLE "Trust Your Pistol" PERFORMER "Mark Snow" FLAGS DCP INDEX 00 52:36:03 INDEX 01 52:38:03 TRACK 24 AUDIO TITLE "Reanimation" PERFORMER "Mark Snow" FLAGS DCP INDEX 00 53:33:57 INDEX 01 53:35:57 TRACK 25 AUDIO TITLE "Guardian Angel" PERFORMER "Mark Snow" FLAGS DCP INDEX 00 55:05:60 INDEX 01 55:07:60 TRACK 26 AUDIO TITLE "The Mourn" PERFORMER "Mark Snow" FLAGS DCP INDEX 00 56:18:12 INDEX 01 56:21:12 TRACK 27 AUDIO TITLE "Mercy Wound" PERFORMER "Mark Snow" FLAGS DCP INDEX 00 59:39:28 INDEX 01 59:41:28 TRACK 28 AUDIO TITLE "Anasazi" PERFORMER "Mark Snow" FLAGS DCP INDEX 00 63:47:24 INDEX 01 63:49:24 TRACK 29 AUDIO TITLE "End Credit (Extended #1)" PERFORMER "Mark Snow" FLAGS DCP INDEX 00 72:22:31 INDEX 01 72:24:31
Продолжительность: 01:19:03

01. Main Title (Short) [00:37]

3x09 - NISEI
02. Choo Choo Sushi [04:09]
03. Rail Song [06:42]

3x10 - 731
04. Graves [02:55]
05. Derailed [11:53]

3x15 - PIPER MARU
06. Back in the Hood [04:50]

3x20 - JOSE CHUNG''S FROM OUTER SPACE
07. Harold & Chrissy [02:27]
08. Closure [04:44]

4x05 - THE FIELD WHERE I DIED
09. Dim Memories [01:05]
10. Jonestown Cocktail [06:23]

4x07 - MUSINGS OF A CIGARETTE SMOKING MAN
11. Extra-Ordinary Men [02:09]
12. A Place in History [06:03]
13. Respect [01:37]

4x08 - PAPER HEARTS
14. El Camino [06:38]
15. Watergate Heart [02:31]

4x12 - KADDISH
16. Hanging Boy [02:47]
17. Spirit Wedding [09:14]

18. End Credit (Extended Remix) [02:11]
Exact Audio Copy V1.0 beta 3 from 29. August 2011

EAC extraction logfile from 11. September 2013, 12:18

Mark Snow / The X-Files: Volume One - Disc 2

Used drive : TSSTcorpCDDVDW TS-L633C Adapter: 2 ID: 0

Read mode : SecureUtilize accurate stream : YesDefeat audio cache : YesMake use of C2 pointers : No

Read offset correction : 6Overread into Lead-In and Lead-Out : NoFill up missing offset samples with silence : YesDelete leading and trailing silent blocks : NoNull samples used in CRC calculations : YesUsed interface : Native Win32 interface for Win NT & 2000

Used output format : Internal WAV RoutinesSample format : 44.100 Hz; 16 Bit; Stereo

TOC of the extracted CD

Track | Start | Length | Start sector | End sector --------------------------------------------------------- 1 | 0:00.00 | 0:37.25 | 0 | 2799 2 | 0:37.25 | 4:09.02 | 2800 | 21476 3 | 4:46.27 | 6:41.71 | 21477 | 51622 4 | 11:28.23 | 2:54.73 | 51623 | 64745 5 | 14:23.21 | 11:53.32 | 64746 | 118252 6 | 26:16.53 | 4:50.50 | 118253 | 140052 7 | 31:07.28 | 2:27.36 | 140053 | 151113 8 | 33:34.64 | 4:44.64 | 151114 | 172477 9 | 38:19.53 | 1:05.34 | 172478 | 177386 10 | 39:25.12 | 6:23.33 | 177387 | 206144 11 | 45:48.45 | 2:09.30 | 206145 | 215849 12 | 47:58.00 | 6:03.68 | 215850 | 243142 13 | 54:01.68 | 1:37.02 | 243143 | 250419 14 | 55:38.70 | 6:38.64 | 250420 | 280333 15 | 62:17.59 | 2:31.23 | 280334 | 291681 16 | 64:49.07 | 2:47.10 | 291682 | 304216 17 | 67:36.17 | 9:14.46 | 304217 | 345812 18 | 76:50.63 | 2:11.30 | 345813 | 355667

Range status and errors

Selected range

Filename D:\Mark Snow - The X-Files [by italia57]\2011 - Volume One [LLLCD 1170]\Disc 2\Mark Snow - Volume 1 Disc 2.wav

Peak level 99.8 % Extraction speed 4.2 X Range quality 100.0 % Test CRC DE692CF2 Copy CRC DE692CF2 Copy OK

No errors occurred

AccurateRip summary

Track 1 accurately ripped (confidence 22) [B2E09206] (AR v2)Track 2 accurately ripped (confidence 22) [6AB55035] (AR v2)Track 3 accurately ripped (confidence 22) [7171E230] (AR v2)Track 4 accurately ripped (confidence 22) [1B5E73B1] (AR v2)Track 5 accurately ripped (confidence 22) [9C2DC7A2] (AR v2)Track 6 accurately ripped (confidence 22) [412DD5B9] (AR v2)Track 7 accurately ripped (confidence 22) [D408566A] (AR v2)Track 8 accurately ripped (confidence 21) [A73EE55D] (AR v2)Track 9 accurately ripped (confidence 21) [74E5478D] (AR v2)Track 10 accurately ripped (confidence 21) [5FAF3474] (AR v2)Track 11 accurately ripped (confidence 21) [64A7018F] (AR v2)Track 12 accurately ripped (confidence 21) [BF7EB6A9] (AR v2)Track 13 accurately ripped (confidence 21) [C93C652D] (AR v2)Track 14 accurately ripped (confidence 21) [8C4686DB] (AR v2)Track 15 accurately ripped (confidence 21) [72CC90BB] (AR v2)Track 16 accurately ripped (confidence 21) [9A336A3D] (AR v2)Track 17 accurately ripped (confidence 21) [F875AF0C] (AR v2)Track 18 accurately ripped (confidence 21) [80FEAE98] (AR v2)

All tracks accurately ripped

End of status report

---- CUETools DB Plugin V2.1.4

[CTDB TOCID: wJ4ptgVr.9ZXSOK2tXC0iL_37S8-] foundSubmit result: wJ4ptgVr.9ZXSOK2tXC0iL_37S8- has been confirmedTrack | CTDB Status 1 | (5/5) Accurately ripped 2 | (5/5) Accurately ripped 3 | (5/5) Accurately ripped 4 | (5/5) Accurately ripped 5 | (5/5) Accurately ripped 6 | (5/5) Accurately ripped 7 | (5/5) Accurately ripped 8 | (5/5) Accurately ripped 9 | (5/5) Accurately ripped 10 | (5/5) Accurately ripped 11 | (5/5) Accurately ripped 12 | (5/5) Accurately ripped 13 | (5/5) Accurately ripped 14 | (5/5) Accurately ripped 15 | (5/5) Accurately ripped 16 | (5/5) Accurately ripped 17 | (5/5) Accurately ripped 18 | (5/5) Accurately ripped

==== Log checksum D967E4C3DDF28987EC4B5CA312A3EE0C005B93962C98AECCFCEE6B7447AAADB8 ====
REM GENRE SoundtrackREM DATE 2011REM DISCID 10128612REM COMMENT "ExactAudioCopy v1.0b3"PERFORMER "Mark Snow"TITLE "The X-Files: Volume One - Disc 2"FILE "Mark Snow - Volume 1 Disc 2.wav" WAVE TRACK 01 AUDIO TITLE "Main Title (Short)" PERFORMER "Mark Snow" FLAGS DCP INDEX 01 00:00:00 TRACK 02 AUDIO TITLE "Choo Choo Sushi" PERFORMER "Mark Snow" FLAGS DCP INDEX 00 00:35:25 INDEX 01 00:37:25 TRACK 03 AUDIO TITLE "Rail Song" PERFORMER "Mark Snow" FLAGS DCP INDEX 00 04:44:27 INDEX 01 04:46:27 TRACK 04 AUDIO TITLE "Graves" PERFORMER "Mark Snow" FLAGS DCP INDEX 00 11:25:23 INDEX 01 11:28:23 TRACK 05 AUDIO TITLE "Derailed" PERFORMER "Mark Snow" FLAGS DCP INDEX 00 14:21:21 INDEX 01 14:23:21 TRACK 06 AUDIO TITLE "Back in the Hood" PERFORMER "Mark Snow" FLAGS DCP INDEX 00 26:13:53 INDEX 01 26:16:53 TRACK 07 AUDIO TITLE "Harold & Chrissy" PERFORMER "Mark Snow" FLAGS DCP INDEX 00 31:04:28 INDEX 01 31:07:28 TRACK 08 AUDIO TITLE "Closure" PERFORMER "Mark Snow" FLAGS DCP INDEX 00 33:32:64 INDEX 01 33:34:64 TRACK 09 AUDIO TITLE "Dim Memories" PERFORMER "Mark Snow" FLAGS DCP INDEX 00 38:16:53 INDEX 01 38:19:53 TRACK 10 AUDIO TITLE "Jonestown Cocktail" PERFORMER "Mark Snow" FLAGS DCP INDEX 00 39:23:12 INDEX 01 39:25:12 TRACK 11 AUDIO TITLE "Extra-Ordinary Men" PERFORMER "Mark Snow" FLAGS DCP INDEX 00 45:45:45 INDEX 01 45:48:45 TRACK 12 AUDIO TITLE "A Place in History" PERFORMER "Mark Snow" FLAGS DCP INDEX 00 47:56:00 INDEX 01 47:58:00 TRACK 13 AUDIO TITLE "Respect" PERFORMER "Mark Snow" FLAGS DCP INDEX 00 53:59:68 INDEX 01 54:01:68 TRACK 14 AUDIO TITLE "El camino" PERFORMER "Mark Snow" FLAGS DCP INDEX 00 55:35:70 INDEX 01 55:38:70 TRACK 15 AUDIO TITLE "Watergate Heart" PERFORMER "Mark Snow" FLAGS DCP INDEX 00 62:15:59 INDEX 01 62:17:59 TRACK 16 AUDIO TITLE "Hanging Boy" PERFORMER "Mark Snow" FLAGS DCP INDEX 00 64:46:07 INDEX 01 64:49:07 TRACK 17 AUDIO TITLE "Spirit Wedding" PERFORMER "Mark Snow" FLAGS DCP INDEX 00 67:34:17 INDEX 01 67:36:17 TRACK 18 AUDIO TITLE "End Credit (Extended Remix)" PERFORMER "Mark Snow" FLAGS DCP INDEX 00 76:48:63 INDEX 01 76:50:63
Продолжительность: 01:19:49

01. Main Title (Remix - Short) [00:37]

5x06 - THE POST-MODERN PROMETHEUS
02. JJ''s Diner [01:49]
03. Post-Modern Posse [09:19]

5x05 - CHRISTMAS CAROL
04. Mother Genes [03:53]

5x07 - EMILY
05. Little Box of Sand [07:36]

5x20 - THE END
06. Closure [08:07]

6x03 - TRIANGLE
07. Quest For Swath [08:49]

6x04 - DREAMLAND
08. Roadblock [01:05]
09. Home Sweet Home [02:14]
10. The Imposter [06:31]

6x05 - DREAMLAND II
11. A Brief History of Fox [01:26]
12. Number 42 [01:56]

6x06 - HOW THE GHOSTS STOLE CHRISTMAS
13. House Organ / Irrational Fear [04:39]
14. Bricks [00:39]
15. Piano on the Tack [01:27]
16. Fair Warning [03:02]
17. Star Crossed Bullets [03:04]
18. A Gift [01:44]

6x11 - TWO FATHERS
19. The Patriarch [02:22]
20. A Mother''s Abduction [03:01]

6x12 - ONE SON
21. Train Tune [04:46]

22. End Credit (Extended #2) [01:31]
Exact Audio Copy V1.0 beta 3 from 29. August 2011

EAC extraction logfile from 11. September 2013, 14:00

Mark Snow / The X-Files: Volume One - Disc 3

Used drive : TSSTcorpCDDVDW TS-L633C Adapter: 2 ID: 0

Read mode : SecureUtilize accurate stream : YesDefeat audio cache : YesMake use of C2 pointers : No

Read offset correction : 6Overread into Lead-In and Lead-Out : NoFill up missing offset samples with silence : YesDelete leading and trailing silent blocks : NoNull samples used in CRC calculations : YesUsed interface : Native Win32 interface for Win NT & 2000

Used output format : Internal WAV RoutinesSample format : 44.100 Hz; 16 Bit; Stereo

TOC of the extracted CD

Track | Start | Length | Start sector | End sector --------------------------------------------------------- 1 | 0:00.00 | 0:37.25 | 0 | 2799 2 | 0:37.25 | 1:49.44 | 2800 | 11018 3 | 2:26.69 | 9:19.41 | 11019 | 52984 4 | 11:46.35 | 3:53.22 | 52985 | 70481 5 | 15:39.57 | 7:36.44 | 70482 | 104725 6 | 23:16.26 | 8:07.66 | 104726 | 141316 7 | 31:24.17 | 8:49.38 | 141317 | 181029 8 | 40:13.55 | 1:05.24 | 181030 | 185928 9 | 41:19.04 | 2:14.22 | 185929 | 196000 10 | 43:33.26 | 6:31.13 | 196001 | 225338 11 | 50:04.39 | 1:26.53 | 225339 | 231841 12 | 51:31.17 | 1:56.03 | 231842 | 240544 13 | 53:27.20 | 4:39.43 | 240545 | 261512 14 | 58:06.63 | 0:39.08 | 261513 | 264445 15 | 58:45.71 | 1:27.47 | 264446 | 271017 16 | 60:13.43 | 3:02.48 | 271018 | 284715 17 | 63:16.16 | 3:04.62 | 284716 | 298577 18 | 66:21.03 | 1:44.66 | 298578 | 306443 19 | 68:05.69 | 2:22.48 | 306444 | 317141 20 | 70:28.42 | 3:01.61 | 317142 | 330777 21 | 73:30.28 | 4:46.52 | 330778 | 352279 22 | 78:17.05 | 1:31.12 | 352280 | 359116

Range status and errors

Selected range

Filename D:\Mark Snow - The X-Files [by italia57]\2011 - Volume One [LLLCD 1170]\Disc 3\Mark Snow - Volume 1 Disc 3.wav

Peak level 99.7 % Extraction speed 4.2 X Range quality 100.0 % Test CRC 39779DDD Copy CRC 39779DDD Copy OK

No errors occurred

AccurateRip summary

Track 1 accurately ripped (confidence 22) [96F6E570] (AR v2)Track 2 accurately ripped (confidence 22) [A87F0220] (AR v2)Track 3 accurately ripped (confidence 22) [35693A8A] (AR v2)Track 4 accurately ripped (confidence 22) [6E946076] (AR v2)Track 5 accurately ripped (confidence 22) [37F78F09] (AR v2)Track 6 accurately ripped (confidence 22) [86A029F6] (AR v2)Track 7 accurately ripped (confidence 22) [230A6AC3] (AR v2)Track 8 accurately ripped (confidence 22) [E62E645B] (AR v2)Track 9 accurately ripped (confidence 22) [581269D8] (AR v2)Track 10 accurately ripped (confidence 22) [42B230AC] (AR v2)Track 11 accurately ripped (confidence 22) [EC754743] (AR v2)Track 12 accurately ripped (confidence 22) [51AD5E80] (AR v2)Track 13 accurately ripped (confidence 22) [F8D2AAD7] (AR v2)Track 14 accurately ripped (confidence 22) [C34F96BE] (AR v2)Track 15 accurately ripped (confidence 22) [34B97A44] (AR v2)Track 16 accurately ripped (confidence 22) [1102FA74] (AR v2)Track 17 accurately ripped (confidence 22) [2F5F4001] (AR v2)Track 18 accurately ripped (confidence 22) [3EAB272F] (AR v2)Track 19 accurately ripped (confidence 22) [3A560A02] (AR v2)Track 20 accurately ripped (confidence 22) [6A44AFFF] (AR v2)Track 21 accurately ripped (confidence 22) [C4B537FD] (AR v2)Track 22 accurately ripped (confidence 22) [7594644A] (AR v2)

All tracks accurately ripped

End of status report

---- CUETools DB Plugin V2.1.4

[CTDB TOCID: .ueTYbLpRt95p.CDzAMVLGKxCnc-] foundSubmit result: .ueTYbLpRt95p.CDzAMVLGKxCnc- has been confirmedTrack | CTDB Status 1 | (6/6) Accurately ripped 2 | (6/6) Accurately ripped 3 | (6/6) Accurately ripped 4 | (6/6) Accurately ripped 5 | (6/6) Accurately ripped 6 | (6/6) Accurately ripped 7 | (6/6) Accurately ripped 8 | (6/6) Accurately ripped 9 | (6/6) Accurately ripped 10 | (6/6) Accurately ripped 11 | (6/6) Accurately ripped 12 | (6/6) Accurately ripped 13 | (6/6) Accurately ripped 14 | (6/6) Accurately ripped 15 | (6/6) Accurately ripped 16 | (6/6) Accurately ripped 17 | (6/6) Accurately ripped 18 | (6/6) Accurately ripped 19 | (6/6) Accurately ripped 20 | (6/6) Accurately ripped 21 | (6/6) Accurately ripped 22 | (6/6) Accurately ripped

==== Log checksum C28064F7A3683D3823ED36F42C7FD2C3F1578B3151564B7E45FD81387FD0B134 ====
REM GENRE SoundtrackREM DATE 2011REM DISCID 6012B416REM COMMENT "ExactAudioCopy v1.0b3"PERFORMER "Mark Snow"TITLE "The X-Files: Volume One - Disc 3"FILE "Mark Snow - Volume 1 Disc 3.wav" WAVE TRACK 01 AUDIO TITLE "Main Title (Remix - Short)" PERFORMER "Mark Snow" FLAGS DCP INDEX 01 00:00:00 TRACK 02 AUDIO TITLE "JJ''s Diner" PERFORMER "Mark Snow" FLAGS DCP INDEX 00 00:35:25 INDEX 01 00:37:25 TRACK 03 AUDIO TITLE "Post-Modern Posse" PERFORMER "Mark Snow" FLAGS DCP INDEX 00 02:24:69 INDEX 01 02:26:69 TRACK 04 AUDIO TITLE "Mother Genes" PERFORMER "Mark Snow" FLAGS DCP INDEX 00 11:43:35 INDEX 01 11:46:35 TRACK 05 AUDIO TITLE "Little Box Of Sand" PERFORMER "Mark Snow" FLAGS DCP INDEX 00 15:36:57 INDEX 01 15:39:57 TRACK 06 AUDIO TITLE "Closure" PERFORMER "Mark Snow" FLAGS DCP INDEX 00 23:13:26 INDEX 01 23:16:26 TRACK 07 AUDIO TITLE "Quest For Swath" PERFORMER "Mark Snow" FLAGS DCP INDEX 00 31:21:17 INDEX 01 31:24:17 TRACK 08 AUDIO TITLE "Roadblock" PERFORMER "Mark Snow" FLAGS DCP INDEX 00 40:10:55 INDEX 01 40:13:55 TRACK 09 AUDIO TITLE "Home Sweet Home" PERFORMER "Mark Snow" FLAGS DCP INDEX 00 41:17:04 INDEX 01 41:19:04 TRACK 10 AUDIO TITLE "The Imposter" PERFORMER "Mark Snow" FLAGS DCP INDEX 00 43:31:26 INDEX 01 43:33:26 TRACK 11 AUDIO TITLE "A Brief History Of Fox" PERFORMER "Mark Snow" FLAGS DCP INDEX 00 50:01:39 INDEX 01 50:04:39 TRACK 12 AUDIO TITLE "Number 42" PERFORMER "Mark Snow" FLAGS DCP INDEX 00 51:29:17 INDEX 01 51:31:17 TRACK 13 AUDIO TITLE "House Organ / Irrational Fear" PERFORMER "Mark Snow" FLAGS DCP INDEX 00 53:24:20 INDEX 01 53:27:20 TRACK 14 AUDIO TITLE "Bricks" PERFORMER "Mark Snow" FLAGS DCP INDEX 00 58:04:63 INDEX 01 58:06:63 TRACK 15 AUDIO TITLE "Piano on the Tack" PERFORMER "Mark Snow" FLAGS DCP INDEX 00 58:43:71 INDEX 01 58:45:71 TRACK 16 AUDIO TITLE "Fair Warning" PERFORMER "Mark Snow" FLAGS DCP INDEX 00 60:11:43 INDEX 01 60:13:43 TRACK 17 AUDIO TITLE "Star Crossed Bullets" PERFORMER "Mark Snow" FLAGS DCP INDEX 00 63:14:16 INDEX 01 63:16:16 TRACK 18 AUDIO TITLE "A Gift" PERFORMER "Mark Snow" FLAGS DCP INDEX 00 66:19:03 INDEX 01 66:21:03 TRACK 19 AUDIO TITLE "The Patriarch" PERFORMER "Mark Snow" FLAGS DCP INDEX 00 68:02:69 INDEX 01 68:05:69 TRACK 20 AUDIO TITLE "A Mother’s Abduction" PERFORMER "Mark Snow" FLAGS DCP INDEX 00 70:26:42 INDEX 01 70:28:42 TRACK 21 AUDIO TITLE "Train Tune" PERFORMER "Mark Snow" FLAGS DCP INDEX 00 73:27:28 INDEX 01 73:30:28 TRACK 22 AUDIO TITLE "End Credit (Extended #2)" PERFORMER "Mark Snow" FLAGS DCP INDEX 00 78:15:05 INDEX 01 78:17:05
Продолжительность: 01:19:40

01. Main Title (Season 7) [00:48]

7x06 - THE GOLDBERG VARIATION
02. Five Cards [03:08]

7x01 - THE SIXTH EXTINCTION
03. Sea of Blood [05:56]

7x02 THE SIXTH EXTINCTION II: AMOR FATI
04. The Martyr [01:28]

7x04 - MILLENNIUM
05. The Smell of Zombies [05:00]
06. The End of the Crusade [02:18]

7x17 - ALL THINGS
07. Waterson [03:12]

7x18 - HOLLYWOOD A.D.
08. Sniper Zombies [03:40]
09. Dancing Bones [02:17]
10. Hollywood [01:04]
11. The Kiss [01:03]

8x01 - WITHIN
12. Scully''s Serenade [01:37]

8x02 - WITHOUT
13. Hide & Seek [02:03]

8x14 - THIS IS NOT HAPPENING
14. Starspeak [02:57]
15. Hidden Truths / Big Happening [03:21]

9x15 - JUMP THE SHARK
16. Triangle [00:40]
17. Weird Organs [02:01]
18. Lone Gunmen Requiem [08:12]

9x17 - RELEASE
19. The Tip [02:33]
20. A Synopsis & Release [05:38]

9x19 - THE TRUTH PART 1
21. Mount Weather [06:31]

9X20 - THE TRUTH PART 2
22. Scary Story / For Whom the Smoke Blows [07:26]
23. The Truth is Inside [03:01]

24. Main Title (Remix) [03:25]
25. I Made This / 20th Century Fox Fanfare [00:08] (Music by Alfred Newman)
Exact Audio Copy V1.0 beta 3 from 29. August 2011

EAC extraction logfile from 11. September 2013, 14:39

Mark Snow / The X-Files: Volume One - Disc 4

Used drive : TSSTcorpCDDVDW TS-L633C Adapter: 2 ID: 0

Read mode : SecureUtilize accurate stream : YesDefeat audio cache : YesMake use of C2 pointers : No

Read offset correction : 6Overread into Lead-In and Lead-Out : NoFill up missing offset samples with silence : YesDelete leading and trailing silent blocks : NoNull samples used in CRC calculations : YesUsed interface : Native Win32 interface for Win NT & 2000

Used output format : Internal WAV RoutinesSample format : 44.100 Hz; 16 Bit; Stereo

TOC of the extracted CD

Track | Start | Length | Start sector | End sector --------------------------------------------------------- 1 | 0:00.00 | 0:48.25 | 0 | 3624 2 | 0:48.25 | 3:08.42 | 3625 | 17766 3 | 3:56.67 | 5:56.60 | 17767 | 44526 4 | 9:53.52 | 1:28.36 | 44527 | 51162 5 | 11:22.13 | 5:00.46 | 51163 | 73708 6 | 16:22.59 | 2:18.14 | 73709 | 84072 7 | 18:40.73 | 3:12.47 | 84073 | 98519 8 | 21:53.45 | 3:40.40 | 98520 | 115059 9 | 25:34.10 | 2:17.64 | 115060 | 125398 10 | 27:51.74 | 1:04.13 | 125399 | 130211 11 | 28:56.12 | 1:03.48 | 130212 | 134984 12 | 29:59.60 | 1:37.08 | 134985 | 142267 13 | 31:36.68 | 2:03.24 | 142268 | 151516 14 | 33:40.17 | 2:57.33 | 151517 | 164824 15 | 36:37.50 | 3:21.33 | 164825 | 179932 16 | 39:59.08 | 0:40.58 | 179933 | 182990 17 | 40:39.66 | 2:01.25 | 182991 | 192090 18 | 42:41.16 | 8:12.69 | 192091 | 229059 19 | 50:54.10 | 2:33.16 | 229060 | 240550 20 | 53:27.26 | 5:38.20 | 240551 | 265920 21 | 59:05.46 | 6:31.66 | 265921 | 295311 22 | 65:37.37 | 7:26.15 | 295312 | 328776 23 | 73:03.52 | 3:00.73 | 328777 | 342349 24 | 76:04.50 | 3:25.01 | 342350 | 357725 25 | 79:29.51 | 0:08.63 | 357726 | 358388

Range status and errors

Selected range

Filename D:\Mark Snow - The X-Files [by italia57]\2011 - Volume One [LLLCD 1170]\Disc 4\Mark Snow - Volume 1 Disc 4.wav

Peak level 99.8 % Extraction speed 4.4 X Range quality 100.0 % Test CRC 1BEAF214 Copy CRC 1BEAF214 Copy OK

No errors occurred

AccurateRip summary

Track 1 accurately ripped (confidence 22) [E2CDAD75] (AR v2)Track 2 accurately ripped (confidence 22) [D6D1B825] (AR v2)Track 3 accurately ripped (confidence 22) [1AD5F129] (AR v2)Track 4 accurately ripped (confidence 22) [531D6EB4] (AR v2)Track 5 accurately ripped (confidence 22) [58DA2AD5] (AR v2)Track 6 accurately ripped (confidence 22) [C81D5FD6] (AR v2)Track 7 accurately ripped (confidence 22) [7982A066] (AR v2)Track 8 accurately ripped (confidence 22) [DEA0DF07] (AR v2)Track 9 accurately ripped (confidence 22) [73B67C68] (AR v2)Track 10 accurately ripped (confidence 22) [4A4AE1D3] (AR v2)Track 11 accurately ripped (confidence 22) [0ACC85E5] (AR v2)Track 12 accurately ripped (confidence 22) [4905F9C7] (AR v2)Track 13 accurately ripped (confidence 22) [7B9FDC55] (AR v2)Track 14 accurately ripped (confidence 22) [403C3969] (AR v2)Track 15 accurately ripped (confidence 22) [A696FACB] (AR v2)Track 16 accurately ripped (confidence 22) [8321822B] (AR v2)Track 17 accurately ripped (confidence 22) [4BAA5526] (AR v2)Track 18 accurately ripped (confidence 22) [F9F2A955] (AR v2)Track 19 accurately ripped (confidence 22) [D576002C] (AR v2)Track 20 accurately ripped (confidence 22) [DEA88404] (AR v2)Track 21 accurately ripped (confidence 22) [8D3105D1] (AR v2)Track 22 accurately ripped (confidence 22) [3A3281E7] (AR v2)Track 23 accurately ripped (confidence 22) [4493050C] (AR v2)Track 24 accurately ripped (confidence 22) [DD063DCB] (AR v2)Track 25 accurately ripped (confidence 22) [877651DA] (AR v2)

All tracks accurately ripped

End of status report

---- CUETools DB Plugin V2.1.4

[CTDB TOCID: z2rODOuO2rfYJDYfBE7etpnCdxI-] foundSubmit result: z2rODOuO2rfYJDYfBE7etpnCdxI- has been confirmedTrack | CTDB Status 1 | (5/5) Accurately ripped 2 | (5/5) Accurately ripped 3 | (5/5) Accurately ripped 4 | (5/5) Accurately ripped 5 | (5/5) Accurately ripped 6 | (5/5) Accurately ripped 7 | (5/5) Accurately ripped 8 | (5/5) Accurately ripped 9 | (5/5) Accurately ripped 10 | (5/5) Accurately ripped 11 | (5/5) Accurately ripped 12 | (5/5) Accurately ripped 13 | (5/5) Accurately ripped 14 | (5/5) Accurately ripped 15 | (5/5) Accurately ripped 16 | (5/5) Accurately ripped 17 | (5/5) Accurately ripped 18 | (5/5) Accurately ripped 19 | (5/5) Accurately ripped 20 | (5/5) Accurately ripped 21 | (5/5) Accurately ripped 22 | (5/5) Accurately ripped 23 | (5/5) Accurately ripped 24 | (5/5) Accurately ripped 25 | (5/5) Accurately ripped

==== Log checksum 1BBD91877A8ECE3AA16674354D02C011381950E54D8F800110A1F55F6CEA2D03 ====
REM GENRE SoundtrackREM DATE 2011REM DISCID 7612AA19REM COMMENT "ExactAudioCopy v1.0b3"PERFORMER "Mark Snow"TITLE "The X-Files: Volume One - Disc 4"FILE "Mark Snow - Volume 1 Disc 4.wav" WAVE TRACK 01 AUDIO TITLE "Main Title (7th Season)" PERFORMER "Mark Snow" FLAGS DCP INDEX 01 00:00:00 TRACK 02 AUDIO TITLE "Five Cards" PERFORMER "Mark Snow" FLAGS DCP INDEX 00 00:46:25 INDEX 01 00:48:25 TRACK 03 AUDIO TITLE "Sea Of Blood" PERFORMER "Mark Snow" FLAGS DCP INDEX 00 03:53:67 INDEX 01 03:56:67 TRACK 04 AUDIO TITLE "The Martyr" PERFORMER "Mark Snow" FLAGS DCP INDEX 00 09:50:52 INDEX 01 09:53:52 TRACK 05 AUDIO TITLE "The Smell Of Zombies" PERFORMER "Mark Snow" FLAGS DCP INDEX 00 11:19:13 INDEX 01 11:22:13 TRACK 06 AUDIO TITLE "The End Of the Crusade" PERFORMER "Mark Snow" FLAGS DCP INDEX 00 16:20:59 INDEX 01 16:22:59 TRACK 07 AUDIO TITLE "Waterson" PERFORMER "Mark Snow" FLAGS DCP INDEX 00 18:37:73 INDEX 01 18:40:73 TRACK 08 AUDIO TITLE "Sniper Zombies" PERFORMER "Mark Snow" FLAGS DCP INDEX 00 21:50:45 INDEX 01 21:53:45 TRACK 09 AUDIO TITLE "Dancing Bones" PERFORMER "Mark Snow" FLAGS DCP INDEX 00 25:32:10 INDEX 01 25:34:10 TRACK 10 AUDIO TITLE "Hollywood" PERFORMER "Mark Snow" FLAGS DCP INDEX 00 27:49:74 INDEX 01 27:51:74 TRACK 11 AUDIO TITLE "The Kiss" PERFORMER "Mark Snow" FLAGS DCP INDEX 00 28:54:12 INDEX 01 28:56:12 TRACK 12 AUDIO TITLE "Scully''s Serenade" PERFORMER "Mark Snow" FLAGS DCP INDEX 00 29:56:60 INDEX 01 29:59:60 TRACK 13 AUDIO TITLE "Hide & Seek" PERFORMER "Mark Snow" FLAGS DCP INDEX 00 31:33:68 INDEX 01 31:36:68 TRACK 14 AUDIO TITLE "Starspeak" PERFORMER "Mark Snow" FLAGS DCP INDEX 00 33:37:17 INDEX 01 33:40:17 TRACK 15 AUDIO TITLE "Hidden Truths - Big Happening" PERFORMER "Mark Snow" FLAGS DCP INDEX 00 36:35:50 INDEX 01 36:37:50 TRACK 16 AUDIO TITLE "Triangle" PERFORMER "Mark Snow" FLAGS DCP INDEX 00 39:56:08 INDEX 01 39:59:08 TRACK 17 AUDIO TITLE "Weird Organs" PERFORMER "Mark Snow" FLAGS DCP INDEX 00 40:37:66 INDEX 01 40:39:66 TRACK 18 AUDIO TITLE "Lone Gunmen Requiem" PERFORMER "Mark Snow" FLAGS DCP INDEX 00 42:39:16 INDEX 01 42:41:16 TRACK 19 AUDIO TITLE "The Tip" PERFORMER "Mark Snow" FLAGS DCP INDEX 00 50:51:10 INDEX 01 50:54:10 TRACK 20 AUDIO TITLE "A Synopsis & Release" PERFORMER "Mark Snow" FLAGS DCP INDEX 00 53:25:26 INDEX 01 53:27:26 TRACK 21 AUDIO TITLE "Mount Weather" PERFORMER "Mark Snow" FLAGS DCP INDEX 00 59:02:46 INDEX 01 59:05:46 TRACK 22 AUDIO TITLE "Scary Story / For Whom The Smoke Blows" PERFORMER "Mark Snow" FLAGS DCP INDEX 00 65:34:37 INDEX 01 65:37:37 TRACK 23 AUDIO TITLE "The Truth Is Inside" PERFORMER "Mark Snow" FLAGS DCP INDEX 00 73:01:52 INDEX 01 73:03:52 TRACK 24 AUDIO TITLE "Main Title (Remix)" PERFORMER "Mark Snow" FLAGS DCP INDEX 00 76:02:50 INDEX 01 76:04:50 TRACK 25 AUDIO TITLE "I Made This / 20th Century Fox Fanfare" PERFORMER "Mark Snow" FLAGS DCP INDEX 01 79:29:51

Секретные материалы / The X-Files: Volume Two
Music by Mark Snow
Limited Edition of 3000 Units
4CD BOX SET


Жанр: Score | Дата выпуска: 10 сентября 2013
Издатель (лейбл): La-La Land Records | Номер по каталогу: LLLCD 1270
Аудиокодек: FLAC (*.flac) | Тип рипа: image+.cue | Битрейт аудио: lossless
Общая продолжительность: 298:27
Источник: Рипы оригинальных дисков из личной коллекции
Продолжительность: 1:14:49

01. Main Title (Season One) [00:47]

1x10 - EVE
02. Swinging Dead Daddy [01:26]
03. Meet Your Clone [01:19]
04. Attached [00:53]

1x15 - YOUNG AT HEART
05. The Eyes Don''t Lie [01:46]
06. Ain''t Dead Yet [04:03]
07. Youth [03:37]
08. Shot In The Crowd [02:29]

1x15 - E.B.E.
09. Swimming With Sharks [05:14]
10. Here We Go [02:42]

1x20 - TOOMS
11. Druid Hill [02:42]
12. Rats & Babes [01:59]
13. Toilet Tooms [05:49]

1x21 - BORN AGAIN
14. Psycho-Electric Attack [06:27]

2x03 - BLOOD
15. Drive For Blood [03:26]

2x14 - DIE HAND DIE VERLETZ
16. Prayer [00:45]
17. Suicide Exam [02:34]
18. Snake Hold [01:22]

2x16 - COLONY
19. Hypothermia [02:43]
20. Alta [02:35]

2x17 - END GAME
21. Scully''s Discovery/Mulder''s E-Mail Message/Skinner Helps Scully [08:19]
22. Showdown/Saving Mulder/Faith to Keep Looking [11:18]
Exact Audio Copy V1.0 beta 3 from 29. August 2011

EAC extraction logfile from 28. September 2013, 16:47

Mark Snow / The X-Files: Volume Two - Disc 1

Used drive : TSSTcorpCDDVDW TS-L633C Adapter: 2 ID: 0

Read mode : SecureUtilize accurate stream : YesDefeat audio cache : YesMake use of C2 pointers : No

Read offset correction : 6Overread into Lead-In and Lead-Out : NoFill up missing offset samples with silence : YesDelete leading and trailing silent blocks : NoNull samples used in CRC calculations : YesUsed interface : Native Win32 interface for Win NT & 2000

Used output format : Internal WAV RoutinesSample format : 44.100 Hz; 16 Bit; Stereo

TOC of the extracted CD

Track | Start | Length | Start sector | End sector --------------------------------------------------------- 1 | 0:00.00 | 0:49.27 | 0 | 3701 2 | 0:49.27 | 1:28.61 | 3702 | 10362 3 | 2:18.13 | 1:21.16 | 10363 | 16453 4 | 3:39.29 | 0:56.27 | 16454 | 20680 5 | 4:35.56 | 1:48.29 | 20681 | 28809 6 | 6:24.10 | 4:05.21 | 28810 | 47205 7 | 10:29.31 | 3:39.13 | 47206 | 63643 8 | 14:08.44 | 2:32.16 | 63644 | 75059 9 | 16:40.60 | 5:16.63 | 75060 | 98822 10 | 21:57.48 | 2:45.65 | 98823 | 111262 11 | 24:43.38 | 2:19.43 | 111263 | 121730 12 | 27:03.06 | 2:01.37 | 121731 | 130842 13 | 29:04.43 | 5:52.20 | 130843 | 157262 14 | 34:56.63 | 6:30.23 | 157263 | 186535 15 | 41:27.11 | 3:29.53 | 186536 | 202263 16 | 44:56.64 | 0:47.64 | 202264 | 205852 17 | 45:44.53 | 2:36.44 | 205853 | 217596 18 | 48:21.22 | 1:25.16 | 217597 | 223987 19 | 49:46.38 | 2:45.28 | 223988 | 236390 20 | 52:31.66 | 2:38.30 | 236391 | 248270 21 | 55:10.21 | 8:21.07 | 248271 | 285852 22 | 63:31.28 | 11:18.03 | 285853 | 336705

Range status and errors

Selected range

Filename D:\Mark Snow - The X-Files [by italia57]\2013 - Volume Two [LLLCD 1270]\Disc 1\Mark Snow - Volume 2 Disc 1.wav

Peak level 98.2 % Extraction speed 4.1 X Range quality 100.0 % Test CRC D4EB2EC8 Copy CRC D4EB2EC8 Copy OK

No errors occurred

AccurateRip summary

Track 1 not present in databaseTrack 2 not present in databaseTrack 3 not present in databaseTrack 4 not present in databaseTrack 5 not present in databaseTrack 6 not present in databaseTrack 7 not present in databaseTrack 8 not present in databaseTrack 9 not present in databaseTrack 10 not present in databaseTrack 11 not present in databaseTrack 12 not present in databaseTrack 13 not present in databaseTrack 14 not present in databaseTrack 15 not present in databaseTrack 16 not present in databaseTrack 17 not present in databaseTrack 18 not present in databaseTrack 19 not present in databaseTrack 20 not present in databaseTrack 21 not present in databaseTrack 22 not present in database

None of the tracks are present in the AccurateRip database

End of status report

---- CUETools DB Plugin V2.1.4

[CTDB TOCID: AtyV7Quv4zXhecYNuTKYKk0w8Bw-] foundSubmit result: AtyV7Quv4zXhecYNuTKYKk0w8Bw- has been confirmedTrack | CTDB Status 1 | (3/3) Accurately ripped 2 | (3/3) Accurately ripped 3 | (3/3) Accurately ripped 4 | (3/3) Accurately ripped 5 | (3/3) Accurately ripped 6 | (3/3) Accurately ripped 7 | (3/3) Accurately ripped 8 | (3/3) Accurately ripped 9 | (3/3) Accurately ripped 10 | (3/3) Accurately ripped 11 | (3/3) Accurately ripped 12 | (3/3) Accurately ripped 13 | (3/3) Accurately ripped 14 | (3/3) Accurately ripped 15 | (3/3) Accurately ripped 16 | (3/3) Accurately ripped 17 | (3/3) Accurately ripped 18 | (3/3) Accurately ripped 19 | (3/3) Accurately ripped 20 | (3/3) Accurately ripped 21 | (3/3) Accurately ripped 22 | (3/3) Accurately ripped

==== Log checksum 769C64454926D11C6D758FD58E72287980DFF907FA6A54936F01F6539BA49577 ====
REM GENRE SoundtrackREM DATE 2013REM DISCID 31118916REM COMMENT "ExactAudioCopy v1.0b3"PERFORMER "Mark Snow"TITLE "The X-Files: Volume Two - Disc 1"FILE "Mark Snow - Volume 2 Disc 1.wav" WAVE TRACK 01 AUDIO TITLE "Main Title (Season 1)" PERFORMER "Mark Snow" FLAGS DCP INDEX 01 00:00:00 TRACK 02 AUDIO TITLE "Swinging Dead Daddy" PERFORMER "Mark Snow" FLAGS DCP INDEX 00 00:47:27 INDEX 01 00:49:27 TRACK 03 AUDIO TITLE "Meet Your Clone" PERFORMER "Mark Snow" FLAGS DCP INDEX 00 02:16:13 INDEX 01 02:18:13 TRACK 04 AUDIO TITLE "Attached" PERFORMER "Mark Snow" FLAGS DCP INDEX 00 03:37:29 INDEX 01 03:39:29 TRACK 05 AUDIO TITLE "The Eyes Don''t Lie" PERFORMER "Mark Snow" FLAGS DCP INDEX 00 04:32:56 INDEX 01 04:35:56 TRACK 06 AUDIO TITLE "Ain''t Dead Yet" PERFORMER "Mark Snow" FLAGS DCP INDEX 00 06:22:10 INDEX 01 06:24:10 TRACK 07 AUDIO TITLE "Youth" PERFORMER "Mark Snow" FLAGS DCP INDEX 00 10:27:31 INDEX 01 10:29:31 TRACK 08 AUDIO TITLE "Shot in the Crowd" PERFORMER "Mark Snow" FLAGS DCP INDEX 00 14:06:44 INDEX 01 14:08:44 TRACK 09 AUDIO TITLE "Swimming With Sharks" PERFORMER "Mark Snow" FLAGS DCP INDEX 00 16:37:60 INDEX 01 16:40:60 TRACK 10 AUDIO TITLE "Here We Go" PERFORMER "Mark Snow" FLAGS DCP INDEX 00 21:55:48 INDEX 01 21:57:48 TRACK 11 AUDIO TITLE "Druid Hill" PERFORMER "Mark Snow" FLAGS DCP INDEX 00 24:40:38 INDEX 01 24:43:38 TRACK 12 AUDIO TITLE "Rats & Babes" PERFORMER "Mark Snow" FLAGS DCP INDEX 00 27:01:06 INDEX 01 27:03:06 TRACK 13 AUDIO TITLE "Toilet Tooms" PERFORMER "Mark Snow" FLAGS DCP INDEX 00 29:02:43 INDEX 01 29:04:43 TRACK 14 AUDIO TITLE "Psycho-Electric Attack" PERFORMER "Mark Snow" FLAGS DCP INDEX 00 34:53:63 INDEX 01 34:56:63 TRACK 15 AUDIO TITLE "Drive for Blood" PERFORMER "Mark Snow" FLAGS DCP INDEX 00 41:24:11 INDEX 01 41:27:11 TRACK 16 AUDIO TITLE "Prayer" PERFORMER "Mark Snow" FLAGS DCP INDEX 00 44:53:64 INDEX 01 44:56:64 TRACK 17 AUDIO TITLE "Suicide Exam" PERFORMER "Mark Snow" FLAGS DCP INDEX 00 45:42:53 INDEX 01 45:44:53 TRACK 18 AUDIO TITLE "Snake Hold" PERFORMER "Mark Snow" FLAGS DCP INDEX 00 48:19:22 INDEX 01 48:21:22 TRACK 19 AUDIO TITLE "Hypothermia" PERFORMER "Mark Snow" FLAGS DCP INDEX 00 49:43:38 INDEX 01 49:46:38 TRACK 20 AUDIO TITLE "Alta" PERFORMER "Mark Snow" FLAGS DCP INDEX 00 52:29:66 INDEX 01 52:31:66 TRACK 21 AUDIO TITLE "Scully''s Discovery; Mulder''s E-Mail Message; Skinner Helps Scully" PERFORMER "Mark Snow" FLAGS DCP INDEX 00 55:07:21 INDEX 01 55:10:21 TRACK 22 AUDIO TITLE "Showdown; Saving Mulder; Faith to Keep Looking" PERFORMER "Mark Snow" FLAGS DCP INDEX 00 63:29:28 INDEX 01 63:31:28
Продолжительность: 1:14:23

01. The X-Files Main Title (Season 2) [00:49]

2x23 - SOFT LIGHT
02. Eaten by Light [02:44]
03. Spontaneous Combustion [04:39]
04. Shadow On the Wall [02:21]

2x22 - F. EMASCULATA
05. Flesh On Bone [04:31]
06. Pustule Package [03:21]

3x01 - THE BLESSING WAY
07. Blown Up and Beaten [02:50]

3x02 - PAPER CLIP
08. Smoky Gets In Your Eyes [02:52]
09. Outmined [02:32]
10. Sacrifice/Skinner Gets Skinned [04:04]

3x04 - CLYDE BRUCKMAN’S FINAL REPOSE
11. Yappi [02:18]
12. Dumpster [03:00]

3x14 - GROTESQUE
13. Disarmed [01:28]

3x24 - TALITHA CUMI
14. Fries and Faith [02:38]
15. Discreet Distance [03:04]

4x01 - HERRENVOLK
16. Needle Neck [06:54]

4x03 - HOME
17. Newborn [02:11]

4x09 - TUGUSKA
18. Worm Rock [12:48]
19. Chicken Wire Wrap [07:57]

20. End Credit (Extended #1) [00:35]
Exact Audio Copy V1.0 beta 3 from 29. August 2011

EAC extraction logfile from 28. September 2013, 18:14

Mark Snow / The X-Files: Volume Two - Disc 3

Used drive : TSSTcorpCDDVDW TS-L633C Adapter: 2 ID: 0

Read mode : SecureUtilize accurate stream : YesDefeat audio cache : YesMake use of C2 pointers : No

Read offset correction : 6Overread into Lead-In and Lead-Out : NoFill up missing offset samples with silence : YesDelete leading and trailing silent blocks : NoNull samples used in CRC calculations : YesUsed interface : Native Win32 interface for Win NT & 2000

Used output format : Internal WAV RoutinesSample format : 44.100 Hz; 16 Bit; Stereo

TOC of the extracted CD

Track | Start | Length | Start sector | End sector --------------------------------------------------------- 1 | 0:00.00 | 0:37.43 | 0 | 2817 2 | 0:37.43 | 6:05.52 | 2818 | 30244 3 | 6:43.20 | 8:50.40 | 30245 | 70034 4 | 15:33.60 | 6:30.25 | 70035 | 99309 5 | 22:04.10 | 3:27.44 | 99310 | 114878 6 | 25:31.54 | 5:39.43 | 114879 | 140346 7 | 31:11.22 | 11:32.72 | 140347 | 192318 8 | 42:44.19 | 4:20.69 | 192319 | 211887 9 | 47:05.13 | 8:26.14 | 211888 | 249851 10 | 55:31.27 | 5:45.43 | 249852 | 275769 11 | 61:16.70 | 2:48.37 | 275770 | 288406 12 | 64:05.32 | 3:47.44 | 288407 | 305475 13 | 67:53.01 | 8:42.68 | 305476 | 344693

Range status and errors

Selected range

Filename D:\Mark Snow - The X-Files [by italia57]\2013 - Volume Two [LLLCD 1270]\Disc 3\Mark Snow - Volume 2 Disc 3.wav

Peak level 99.9 % Extraction speed 4.2 X Range quality 100.0 % Test CRC D1403CDC Copy CRC D1403CDC Copy OK

No errors occurred

AccurateRip summary

Track 1 not present in databaseTrack 2 not present in databaseTrack 3 not present in databaseTrack 4 not present in databaseTrack 5 not present in databaseTrack 6 not present in databaseTrack 7 not present in databaseTrack 8 not present in databaseTrack 9 not present in databaseTrack 10 not present in databaseTrack 11 not present in databaseTrack 12 not present in databaseTrack 13 not present in database

None of the tracks are present in the AccurateRip database

End of status report

---- CUETools DB Plugin V2.1.4

[CTDB TOCID: 4kycfuzebPeVOKz9jIOQmnned00-] foundSubmit result: 4kycfuzebPeVOKz9jIOQmnned00- has been confirmedTrack | CTDB Status 1 | (3/3) Accurately ripped 2 | (3/3) Accurately ripped 3 | (3/3) Accurately ripped 4 | (3/3) Accurately ripped 5 | (3/3) Accurately ripped 6 | (3/3) Accurately ripped 7 | (3/3) Accurately ripped 8 | (3/3) Accurately ripped 9 | (3/3) Accurately ripped 10 | (3/3) Accurately ripped 11 | (3/3) Accurately ripped 12 | (3/3) Accurately ripped 13 | (3/3) Accurately ripped

==== Log checksum 07909B630D0E408F95D144E535E307BDA7599C46BC3946603C7B303810AD33C5 ====
REM GENRE SoundtrackREM DATE 2013REM DISCID C311F30DREM COMMENT "ExactAudioCopy v1.0b3"PERFORMER "Mark Snow"TITLE "The X-Files: Volume Two - Disc 3"FILE "Mark Snow - Volume 2 Disc 3.wav" WAVE TRACK 01 AUDIO TITLE "Main Title (Season 7)" PERFORMER "Mark Snow" FLAGS DCP INDEX 01 00:00:00 TRACK 02 AUDIO TITLE "Black Vermiform" PERFORMER "Mark Snow" FLAGS DCP INDEX 00 00:35:43 INDEX 01 00:37:43 TRACK 03 AUDIO TITLE "Fire of Terma" PERFORMER "Mark Snow" FLAGS DCP INDEX 00 06:41:20 INDEX 01 06:43:20 TRACK 04 AUDIO TITLE "Pieces" PERFORMER "Mark Snow" FLAGS DCP INDEX 00 15:30:60 INDEX 01 15:33:60 TRACK 05 AUDIO TITLE "Nine Minutes" PERFORMER "Mark Snow" FLAGS DCP INDEX 00 22:02:10 INDEX 01 22:04:10 TRACK 06 AUDIO TITLE "Trails" PERFORMER "Mark Snow" FLAGS DCP INDEX 00 25:28:54 INDEX 01 25:31:54 TRACK 07 AUDIO TITLE "Thawed" PERFORMER "Mark Snow" FLAGS DCP INDEX 00 31:09:22 INDEX 01 31:11:22 TRACK 08 AUDIO TITLE "Deep Dupe" PERFORMER "Mark Snow" FLAGS DCP INDEX 00 42:42:19 INDEX 01 42:44:19 TRACK 09 AUDIO TITLE "Little Vials of Proof" PERFORMER "Mark Snow" FLAGS DCP INDEX 00 47:02:13 INDEX 01 47:05:13 TRACK 10 AUDIO TITLE "Remission" PERFORMER "Mark Snow" FLAGS DCP INDEX 00 55:28:27 INDEX 01 55:31:27 TRACK 11 AUDIO TITLE "Red Letter" PERFORMER "Mark Snow" FLAGS DCP INDEX 00 61:13:70 INDEX 01 61:16:70 TRACK 12 AUDIO TITLE "Resist or Serve" PERFORMER "Mark Snow" FLAGS DCP INDEX 00 64:03:32 INDEX 01 64:05:32 TRACK 13 AUDIO TITLE "Lil'' Cabin in Quebec" PERFORMER "Mark Snow" FLAGS DCP INDEX 00 67:51:01 INDEX 01 67:53:01
Продолжительность: 1:16:35

01. Main Title (Season 7) [00:35]

4x10 - TERMA
02. Black Vermiform [06:03]
03. Fire of Terma [08:47]

4x17 - TEMPUS FUGIT
04. Pieces [06:28]
05. Nine Minutes [03:24]

4x24 - GETHSEMANE
06. Trails [05:37]
07. Thawed [11:30]
08. Deep Dupe [4:17]

5x02 - REDUX
09. Little Vials of Proof [08:23]

5x03 - REDUX II
10. Remission [05:42]

5x14 - THE RED AND THE BLACK
11. Red Letter [02:46]
12. Resist Or Serve [03:45]
13. Lil'' Cabin in Quebec [08:42]
Exact Audio Copy V1.0 beta 3 from 29. August 2011

EAC extraction logfile from 28. September 2013, 18:14

Mark Snow / The X-Files: Volume Two - Disc 3

Used drive : TSSTcorpCDDVDW TS-L633C Adapter: 2 ID: 0

Read mode : SecureUtilize accurate stream : YesDefeat audio cache : YesMake use of C2 pointers : No

Read offset correction : 6Overread into Lead-In and Lead-Out : NoFill up missing offset samples with silence : YesDelete leading and trailing silent blocks : NoNull samples used in CRC calculations : YesUsed interface : Native Win32 interface for Win NT & 2000

Used output format : Internal WAV RoutinesSample format : 44.100 Hz; 16 Bit; Stereo

TOC of the extracted CD

Track | Start | Length | Start sector | End sector --------------------------------------------------------- 1 | 0:00.00 | 0:37.43 | 0 | 2817 2 | 0:37.43 | 6:05.52 | 2818 | 30244 3 | 6:43.20 | 8:50.40 | 30245 | 70034 4 | 15:33.60 | 6:30.25 | 70035 | 99309 5 | 22:04.10 | 3:27.44 | 99310 | 114878 6 | 25:31.54 | 5:39.43 | 114879 | 140346 7 | 31:11.22 | 11:32.72 | 140347 | 192318 8 | 42:44.19 | 4:20.69 | 192319 | 211887 9 | 47:05.13 | 8:26.14 | 211888 | 249851 10 | 55:31.27 | 5:45.43 | 249852 | 275769 11 | 61:16.70 | 2:48.37 | 275770 | 288406 12 | 64:05.32 | 3:47.44 | 288407 | 305475 13 | 67:53.01 | 8:42.68 | 305476 | 344693

Range status and errors

Selected range

Filename D:\Mark Snow - The X-Files [by italia57]\2013 - Volume Two [LLLCD 1270]\Disc 3\Mark Snow - Volume 2 Disc 3.wav

Peak level 99.9 % Extraction speed 4.2 X Range quality 100.0 % Test CRC D1403CDC Copy CRC D1403CDC Copy OK

No errors occurred

AccurateRip summary

Track 1 not present in databaseTrack 2 not present in databaseTrack 3 not present in databaseTrack 4 not present in databaseTrack 5 not present in databaseTrack 6 not present in databaseTrack 7 not present in databaseTrack 8 not present in databaseTrack 9 not present in databaseTrack 10 not present in databaseTrack 11 not present in databaseTrack 12 not present in databaseTrack 13 not present in database

None of the tracks are present in the AccurateRip database

End of status report

---- CUETools DB Plugin V2.1.4

[CTDB TOCID: 4kycfuzebPeVOKz9jIOQmnned00-] foundSubmit result: 4kycfuzebPeVOKz9jIOQmnned00- has been confirmedTrack | CTDB Status 1 | (3/3) Accurately ripped 2 | (3/3) Accurately ripped 3 | (3/3) Accurately ripped 4 | (3/3) Accurately ripped 5 | (3/3) Accurately ripped 6 | (3/3) Accurately ripped 7 | (3/3) Accurately ripped 8 | (3/3) Accurately ripped 9 | (3/3) Accurately ripped 10 | (3/3) Accurately ripped 11 | (3/3) Accurately ripped 12 | (3/3) Accurately ripped 13 | (3/3) Accurately ripped

==== Log checksum 07909B630D0E408F95D144E535E307BDA7599C46BC3946603C7B303810AD33C5 ====
REM GENRE SoundtrackREM DATE 2013REM DISCID C311F30DREM COMMENT "ExactAudioCopy v1.0b3"PERFORMER "Mark Snow"TITLE "The X-Files: Volume Two - Disc 3"FILE "Mark Snow - Volume 2 Disc 3.wav" WAVE TRACK 01 AUDIO TITLE "Main Title (Season 7)" PERFORMER "Mark Snow" FLAGS DCP INDEX 01 00:00:00 TRACK 02 AUDIO TITLE "Black Vermiform" PERFORMER "Mark Snow" FLAGS DCP INDEX 00 00:35:43 INDEX 01 00:37:43 TRACK 03 AUDIO TITLE "Fire of Terma" PERFORMER "Mark Snow" FLAGS DCP INDEX 00 06:41:20 INDEX 01 06:43:20 TRACK 04 AUDIO TITLE "Pieces" PERFORMER "Mark Snow" FLAGS DCP INDEX 00 15:30:60 INDEX 01 15:33:60 TRACK 05 AUDIO TITLE "Nine Minutes" PERFORMER "Mark Snow" FLAGS DCP INDEX 00 22:02:10 INDEX 01 22:04:10 TRACK 06 AUDIO TITLE "Trails" PERFORMER "Mark Snow" FLAGS DCP INDEX 00 25:28:54 INDEX 01 25:31:54 TRACK 07 AUDIO TITLE "Thawed" PERFORMER "Mark Snow" FLAGS DCP INDEX 00 31:09:22 INDEX 01 31:11:22 TRACK 08 AUDIO TITLE "Deep Dupe" PERFORMER "Mark Snow" FLAGS DCP INDEX 00 42:42:19 INDEX 01 42:44:19 TRACK 09 AUDIO TITLE "Little Vials of Proof" PERFORMER "Mark Snow" FLAGS DCP INDEX 00 47:02:13 INDEX 01 47:05:13 TRACK 10 AUDIO TITLE "Remission" PERFORMER "Mark Snow" FLAGS DCP INDEX 00 55:28:27 INDEX 01 55:31:27 TRACK 11 AUDIO TITLE "Red Letter" PERFORMER "Mark Snow" FLAGS DCP INDEX 00 61:13:70 INDEX 01 61:16:70 TRACK 12 AUDIO TITLE "Resist or Serve" PERFORMER "Mark Snow" FLAGS DCP INDEX 00 64:03:32 INDEX 01 64:05:32 TRACK 13 AUDIO TITLE "Lil'' Cabin in Quebec" PERFORMER "Mark Snow" FLAGS DCP INDEX 00 67:51:01 INDEX 01 67:53:01
Продолжительность: 1:16:04

01. Main Title (Season 9) [00:36]

5x17 - ALL SOULS
02. Baptism [03:46]
03. Four Faces [07:28]

6ABX10 - S.R. 819
04. Orgell [02:26]
05. Bill of Health [04:29]

6ABX24 - BIOGENESIS
06. Map of the Genome [04:00]

7ABX14 - THEEF
07. Voodoo Doll [07:19]

7ABX22 - REQUIEM
08. Deja vu [03:55]
09. Ray [05:09]

9ABX05 - 4-D
10. Pulling the Plug [09:00]

8ABX22 - EXISTENCE
11. Something Feels Off [03:03]
12. Replicant Revolution [06:21]
13. Under Investigation [03:14]

8ABX15 - DEADALIVE
14. Deep Six [02:53]
15. AliveAlive [11:03]

16. End Credits (Season 1) [00:30]
17. I Made This / 20th Century Fox Fanfare [00:08] (Music by Alfred Newman)
Exact Audio Copy V1.0 beta 3 from 29. August 2011

EAC extraction logfile from 28. September 2013, 18:59

Mark Snow / The X-Files: Volume 2 - Disc 4

Used drive : TSSTcorpCDDVDW TS-L633C Adapter: 2 ID: 0

Read mode : SecureUtilize accurate stream : YesDefeat audio cache : YesMake use of C2 pointers : No

Read offset correction : 6Overread into Lead-In and Lead-Out : NoFill up missing offset samples with silence : YesDelete leading and trailing silent blocks : NoNull samples used in CRC calculations : YesUsed interface : Native Win32 interface for Win NT & 2000

Used output format : Internal WAV RoutinesSample format : 44.100 Hz; 16 Bit; Stereo

TOC of the extracted CD

Track | Start | Length | Start sector | End sector --------------------------------------------------------- 1 | 0:00.00 | 0:38.13 | 0 | 2862 2 | 0:38.13 | 3:47.65 | 2863 | 19952 3 | 4:26.03 | 7:31.40 | 19953 | 53817 4 | 11:57.43 | 2:28.02 | 53818 | 64919 5 | 14:25.45 | 4:32.69 | 64920 | 85388 6 | 18:58.39 | 4:03.25 | 85389 | 103638 7 | 23:01.64 | 7:22.00 | 103639 | 136788 8 | 30:23.64 | 3:57.46 | 136789 | 154609 9 | 34:21.35 | 5:12.06 | 154610 | 178015 10 | 39:33.41 | 9:03.50 | 178016 | 218790 11 | 48:37.16 | 3:05.65 | 218791 | 232730 12 | 51:43.06 | 6:23.60 | 232731 | 261515 13 | 58:06.66 | 3:17.37 | 261516 | 276327 14 | 61:24.28 | 2:55.49 | 276328 | 289501 15 | 64:20.02 | 11:05.64 | 289502 | 339440 16 | 75:25.66 | 0:30.02 | 339441 | 341692 17 | 75:55.68 | 0:08.63 | 341693 | 342355

Range status and errors

Selected range

Filename D:\Mark Snow - The X-Files [by italia57]\2013 - Volume Two [LLLCD 1270]\Disc 4\Mark Snow - Volume 2 Disc 4.wav

Peak level 99.9 % Extraction speed 4.0 X Range quality 100.0 % Test CRC C2D43D7C Copy CRC C2D43D7C Copy OK

No errors occurred

AccurateRip summary

Track 1 not present in databaseTrack 2 not present in databaseTrack 3 not present in databaseTrack 4 not present in databaseTrack 5 not present in databaseTrack 6 not present in databaseTrack 7 not present in databaseTrack 8 not present in databaseTrack 9 not present in databaseTrack 10 not present in databaseTrack 11 not present in databaseTrack 12 not present in databaseTrack 13 not present in databaseTrack 14 not present in databaseTrack 15 not present in databaseTrack 16 not present in databaseTrack 17 not present in database

None of the tracks are present in the AccurateRip database

End of status report

---- CUETools DB Plugin V2.1.4

[CTDB TOCID: rwJgR.TMS9oIr7yPUBnHXk5EDlI-] foundSubmit result: rwJgR.TMS9oIr7yPUBnHXk5EDlI- has been confirmedTrack | CTDB Status 1 | (3/3) Accurately ripped 2 | (3/3) Accurately ripped 3 | (3/3) Accurately ripped 4 | (3/3) Accurately ripped 5 | (3/3) Accurately ripped 6 | (3/3) Accurately ripped 7 | (3/3) Accurately ripped 8 | (3/3) Accurately ripped 9 | (3/3) Accurately ripped 10 | (3/3) Accurately ripped 11 | (3/3) Accurately ripped 12 | (3/3) Accurately ripped 13 | (3/3) Accurately ripped 14 | (3/3) Accurately ripped 15 | (3/3) Accurately ripped 16 | (3/3) Accurately ripped 17 | (3/3) Accurately ripped

==== Log checksum 50CA3B7504427F1F2FBE997F422388183FFBE71ABE39A88E6365FB08BCCD6758 ====
REM GENRE SoundtrackREM DATE 2013REM DISCID 0411D411REM COMMENT "ExactAudioCopy v1.0b3"PERFORMER "Mark Snow"TITLE "The X-Files: Volume 2 - Disc 4"FILE "Mark Snow - Volume 2 Disc 4.wav" WAVE TRACK 01 AUDIO TITLE "Main Title (Season 9)" PERFORMER "Mark Snow" FLAGS DCP INDEX 01 00:00:00 TRACK 02 AUDIO TITLE "Baptism" PERFORMER "Mark Snow" FLAGS DCP INDEX 00 00:36:13 INDEX 01 00:38:13 TRACK 03 AUDIO TITLE "Four Faces" PERFORMER "Mark Snow" FLAGS DCP INDEX 00 04:24:03 INDEX 01 04:26:03 TRACK 04 AUDIO TITLE "Orgell" PERFORMER "Mark Snow" FLAGS DCP INDEX 00 11:54:43 INDEX 01 11:57:43 TRACK 05 AUDIO TITLE "Bill of Health" PERFORMER "Mark Snow" FLAGS DCP INDEX 00 14:23:45 INDEX 01 14:25:45 TRACK 06 AUDIO TITLE "Map of the Genome" PERFORMER "Mark Snow" FLAGS DCP INDEX 00 18:55:39 INDEX 01 18:58:39 TRACK 07 AUDIO TITLE "Voodoo Doll" PERFORMER "Mark Snow" FLAGS DCP INDEX 00 22:58:64 INDEX 01 23:01:64 TRACK 08 AUDIO TITLE "Deja vu" PERFORMER "Mark Snow" FLAGS DCP INDEX 00 30:20:64 INDEX 01 30:23:64 TRACK 09 AUDIO TITLE "Ray" PERFORMER "Mark Snow" FLAGS DCP INDEX 00 34:19:35 INDEX 01 34:21:35 TRACK 10 AUDIO TITLE "Pulling the Plug" PERFORMER "Mark Snow" FLAGS DCP INDEX 00 39:30:41 INDEX 01 39:33:41 TRACK 11 AUDIO TITLE "Something Feels Off" PERFORMER "Mark Snow" FLAGS DCP INDEX 00 48:34:16 INDEX 01 48:37:16 TRACK 12 AUDIO TITLE "Replicant Revolution" PERFORMER "Mark Snow" FLAGS DCP INDEX 00 51:41:06 INDEX 01 51:43:06 TRACK 13 AUDIO TITLE "Under Investigation" PERFORMER "Mark Snow" FLAGS DCP INDEX 00 58:04:66 INDEX 01 58:06:66 TRACK 14 AUDIO TITLE "Deep Six" PERFORMER "Mark Snow" FLAGS DCP INDEX 00 61:21:28 INDEX 01 61:24:28 TRACK 15 AUDIO TITLE "AliveAlive" PERFORMER "Mark Snow" FLAGS DCP INDEX 00 64:18:02 INDEX 01 64:20:02 TRACK 16 AUDIO TITLE "End Credits (Season 1)" PERFORMER "Mark Snow" FLAGS DCP INDEX 00 75:23:66 INDEX 01 75:25:66 TRACK 17 AUDIO TITLE "I Made This / 20th Century Fox Fanfare" PERFORMER "Mark Snow" FLAGS DCP INDEX 01 75:55:68


Трекер:  [ 14-Дек-2013 21:44 ]

  

Скачать .torrent

Размер .torrent файла 34 KB


Размер: 5.04 GB
Хэш (hash) релиза: ec8ed1e54322c8699c5c2a80e88681ebbb871c43

bot

Топик был перенесен в форум Саундтреки к фильмам и мультфильмам (lossless)

Перенес Galfimbul

Хотите добавить комментарий к записи скачать торрент Секретные материалы The X-Files: Volumes One & Two

!Обратная связь