Скачать через торрент музыку Как стать принцессой The Princess Diaries бесплатно без регистрации torrent

Если у вас наблюдаются проблемы со скриншотами, переходом по ссылками, скачиванием торрентов - проблемы в блокировщике рекламы AdBlock. #хорошегоДня!


Статистика раздачи
Размер:  127 MB   |    Зарегистрирован:  4 года   |    .torrent скачан:  22 раза   |   
Раздают:  1  
   
Загрузка...
 
Автор Сообщение

Galfimbul

avatar Galfimbul


Как стать принцессой / The Princess Diaries
Жанр: Score
Композитор: Danny Elfman
Год выпуска диска: 2001
Производитель диска: USA
Издатель (лейбл): Walt Disney Records
Номер по каталогу: 60745-7
Аудиокодек: FLAC (*.flac)
Тип рипа: tracks+.cue
Битрейт аудио: lossless
Продолжительность: 00:30:34
Источник: what.cd / Pyromonkey83
Наличие сканов в содержимом раздачи: нет
1. John Debney - Main Titles (:56)
2. John Debney - Queen Clarisse (:53)
3. John Debney - Mia Invites Lilly to the Ball (1:08)
4. John Debney - The Princess Diaries Waltz (2:09)
5. John Debney - Mia''s Makeover (1:08)
6. John Debney - Princess Lessons (:55)
7. John Debney - A New Mia (1:05)
8. John Debney - Mia Flees (:53)
9. John Debney - Sorry, Dad (:32)
10. John Debney - Lana, the Traitor (1:01)
11. John Debney - Mia Visits the Consulate (1:18)
12. John Debney - Scooter Talk (:58)
13. John Debney - I Don''t Want to Be a Princess (:37)
14. John Debney - Father Talk (1:00)
15. John Debney - The Ball (:37)
16. John Debney - Meeting the Prime Minister (1:03)
17. John Debney - A Letter from the King (1:16)
18. John Debney - It''s a Real Job (1:02)
19. John Debney - Mia''s Decision (2:18)
20. John Debney - Learning to Walk (1:42)
21. John Debney - Mia Apologizes (:44)
22. John Debney - Can I Call You Joe? (:58)
23. John Debney - The Kiss (1:18)
24. John Debney - Harp Interlude (1:24)
25. John Debney - Princess Diaries Medley (3:25)
X Lossless Decoder version 20130127 (142.3)

XLD extraction logfile from 2013-01-30 23:18:03 -0700

John Debney / The Princess Diaries [Score]

Used drive : TSSTcorp CDDVDW SE-S084B (revision TS01)Media type : Pressed CD

Ripper mode : XLD Secure RipperDisable audio cache : OK for the drive with a cache less than 1375KiBMake use of C2 pointers : NORead offset correction : 6Max retry count : 100Gap status : Analyzed, Appended (except HTOA)

TOC of the extracted CD Track | Start | Length | Start sector | End sector --------------------------------------------------------- 1 | 00:00:00 | 00:56:23 | 0 | 4222 2 | 00:56:23 | 00:53:37 | 4223 | 8234 3 | 01:49:60 | 01:08:55 | 8235 | 13389 4 | 02:58:40 | 02:09:00 | 13390 | 23064 5 | 05:07:40 | 01:08:39 | 23065 | 28203 6 | 06:16:04 | 00:55:29 | 28204 | 32357 7 | 07:11:33 | 01:05:54 | 32358 | 37286 8 | 08:17:12 | 00:53:15 | 37287 | 41276 9 | 09:10:27 | 00:32:08 | 41277 | 43684 10 | 09:42:35 | 01:01:73 | 43685 | 48332 11 | 10:44:33 | 01:18:45 | 48333 | 54227 12 | 12:03:03 | 00:58:51 | 54228 | 58628 13 | 13:01:54 | 00:37:60 | 58629 | 61463 14 | 13:39:39 | 01:00:19 | 61464 | 65982 15 | 14:39:58 | 00:37:69 | 65983 | 68826 16 | 15:17:52 | 01:03:02 | 68827 | 73553 17 | 16:20:54 | 01:16:44 | 73554 | 79297 18 | 17:37:23 | 01:02:32 | 79298 | 83979 19 | 18:39:55 | 02:18:26 | 83980 | 94355 20 | 20:58:06 | 01:42:46 | 94356 | 102051 21 | 22:40:52 | 00:44:59 | 102052 | 105410 22 | 23:25:36 | 00:58:04 | 105411 | 109764 23 | 24:23:40 | 01:18:58 | 109765 | 115672 24 | 25:42:23 | 01:24:51 | 115673 | 122023 25 | 27:06:74 | 03:25:70 | 122024 | 137468

AccurateRip Summary Disc not found in AccurateRip DB.

All Tracks Album gain : 1.45 dB Peak : 0.952087 Statistics Read error : 0 Jitter error (maybe fixed) : 0 Retry sector count : 0 Damaged sector count : 0

Track 01 Filename : /Users/Ely/Music/CD Rip/John Debney - The Princess Diaries [Score] (2001) [V2]/01 - Main Titles - Princess Diaries Score.mp3 /Users/Ely/Music/CD Rip/John Debney - The Princess Diaries [Score] (2001) [FLAC]/01 - Main Titles - Princess Diaries Score.flac /Users/Ely/Music/CD Rip/John Debney - The Princess Diaries [Score] (2001) [V0]/01 - Main Titles - Princess Diaries Score.mp3 /Users/Ely/Music/CD Rip/John Debney - The Princess Diaries [Score] (2001) [CBR 320]/01 - Main Titles - Princess Diaries Score.mp3 Pre-gap length : 00:02:00

Track gain : 3.57 dB Peak : 0.475128 CRC32 hash (test run) : 457104BF CRC32 hash : 457104BF CRC32 hash (skip zero) : F44B02C0 AccurateRip v1 signature : 4FB6F3E7 AccurateRip v2 signature : DB9A7700 ->Track not present in AccurateRip database. Statistics Read error : 0 Jitter error (maybe fixed) : 0 Retry sector count : 0 Damaged sector count : 0

Track 02 Filename : /Users/Ely/Music/CD Rip/John Debney - The Princess Diaries [Score] (2001) [V2]/02 - Queen Clarisse.mp3 /Users/Ely/Music/CD Rip/John Debney - The Princess Diaries [Score] (2001) [FLAC]/02 - Queen Clarisse.flac /Users/Ely/Music/CD Rip/John Debney - The Princess Diaries [Score] (2001) [V0]/02 - Queen Clarisse.mp3 /Users/Ely/Music/CD Rip/John Debney - The Princess Diaries [Score] (2001) [CBR 320]/02 - Queen Clarisse.mp3

Track gain : 0.50 dB Peak : 0.626831 CRC32 hash (test run) : FA9FB30A CRC32 hash : FA9FB30A CRC32 hash (skip zero) : 1EC40B4A AccurateRip v1 signature : 7C6257E4 AccurateRip v2 signature : 8E21A569 ->Track not present in AccurateRip database. Statistics Read error : 0 Jitter error (maybe fixed) : 0 Retry sector count : 0 Damaged sector count : 0

Track 03 Filename : /Users/Ely/Music/CD Rip/John Debney - The Princess Diaries [Score] (2001) [V2]/03 - Mia Invites Lilly To The Ball.mp3 /Users/Ely/Music/CD Rip/John Debney - The Princess Diaries [Score] (2001) [FLAC]/03 - Mia Invites Lilly To The Ball.flac /Users/Ely/Music/CD Rip/John Debney - The Princess Diaries [Score] (2001) [V0]/03 - Mia Invites Lilly To The Ball.mp3 /Users/Ely/Music/CD Rip/John Debney - The Princess Diaries [Score] (2001) [CBR 320]/03 - Mia Invites Lilly To The Ball.mp3

Track gain : 8.27 dB Peak : 0.306976 CRC32 hash (test run) : 9D1E5465 CRC32 hash : 9D1E5465 CRC32 hash (skip zero) : FB8B1646 AccurateRip v1 signature : EADC3F06 AccurateRip v2 signature : 49BA138E ->Track not present in AccurateRip database. Statistics Read error : 0 Jitter error (maybe fixed) : 0 Retry sector count : 0 Damaged sector count : 0

Track 04 Filename : /Users/Ely/Music/CD Rip/John Debney - The Princess Diaries [Score] (2001) [V2]/04 - The Princess Diaries Waltz.mp3 /Users/Ely/Music/CD Rip/John Debney - The Princess Diaries [Score] (2001) [FLAC]/04 - The Princess Diaries Waltz.flac /Users/Ely/Music/CD Rip/John Debney - The Princess Diaries [Score] (2001) [V0]/04 - The Princess Diaries Waltz.mp3 /Users/Ely/Music/CD Rip/John Debney - The Princess Diaries [Score] (2001) [CBR 320]/04 - The Princess Diaries Waltz.mp3

Track gain : -1.29 dB Peak : 0.901459 CRC32 hash (test run) : DBABF92D CRC32 hash : DBABF92D CRC32 hash (skip zero) : C10F2247 AccurateRip v1 signature : 59BF1EAC AccurateRip v2 signature : 0CB74458 ->Track not present in AccurateRip database. Statistics Read error : 0 Jitter error (maybe fixed) : 0 Retry sector count : 0 Damaged sector count : 0

Track 05 Filename : /Users/Ely/Music/CD Rip/John Debney - The Princess Diaries [Score] (2001) [V2]/05 - Mia''s Makeover.mp3 /Users/Ely/Music/CD Rip/John Debney - The Princess Diaries [Score] (2001) [FLAC]/05 - Mia''s Makeover.flac /Users/Ely/Music/CD Rip/John Debney - The Princess Diaries [Score] (2001) [V0]/05 - Mia''s Makeover.mp3 /Users/Ely/Music/CD Rip/John Debney - The Princess Diaries [Score] (2001) [CBR 320]/05 - Mia''s Makeover.mp3

Track gain : 4.73 dB Peak : 0.505676 CRC32 hash (test run) : C92867AD CRC32 hash : C92867AD CRC32 hash (skip zero) : E8717EB5 AccurateRip v1 signature : 2B2733BC AccurateRip v2 signature : 135472EF ->Track not present in AccurateRip database. Statistics Read error : 0 Jitter error (maybe fixed) : 0 Retry sector count : 0 Damaged sector count : 0

Track 06 Filename : /Users/Ely/Music/CD Rip/John Debney - The Princess Diaries [Score] (2001) [V2]/06 - Princess Lessons.mp3 /Users/Ely/Music/CD Rip/John Debney - The Princess Diaries [Score] (2001) [FLAC]/06 - Princess Lessons.flac /Users/Ely/Music/CD Rip/John Debney - The Princess Diaries [Score] (2001) [V0]/06 - Princess Lessons.mp3 /Users/Ely/Music/CD Rip/John Debney - The Princess Diaries [Score] (2001) [CBR 320]/06 - Princess Lessons.mp3

Track gain : 8.70 dB Peak : 0.311279 CRC32 hash (test run) : 6B2F3104 CRC32 hash : 6B2F3104 CRC32 hash (skip zero) : ECD0FC51 AccurateRip v1 signature : 75F2E447 AccurateRip v2 signature : 883F8917 ->Track not present in AccurateRip database. Statistics Read error : 0 Jitter error (maybe fixed) : 0 Retry sector count : 0 Damaged sector count : 0

Track 07 Filename : /Users/Ely/Music/CD Rip/John Debney - The Princess Diaries [Score] (2001) [V2]/07 - A New Mia.mp3 /Users/Ely/Music/CD Rip/John Debney - The Princess Diaries [Score] (2001) [FLAC]/07 - A New Mia.flac /Users/Ely/Music/CD Rip/John Debney - The Princess Diaries [Score] (2001) [V0]/07 - A New Mia.mp3 /Users/Ely/Music/CD Rip/John Debney - The Princess Diaries [Score] (2001) [CBR 320]/07 - A New Mia.mp3

Track gain : 8.89 dB Peak : 0.302368 CRC32 hash (test run) : 90FF0920 CRC32 hash : 90FF0920 CRC32 hash (skip zero) : 203A1AC8 AccurateRip v1 signature : F60E8E91 AccurateRip v2 signature : 3181E3AC ->Track not present in AccurateRip database. Statistics Read error : 0 Jitter error (maybe fixed) : 0 Retry sector count : 0 Damaged sector count : 0

Track 08 Filename : /Users/Ely/Music/CD Rip/John Debney - The Princess Diaries [Score] (2001) [V2]/08 - Mia Flees.mp3 /Users/Ely/Music/CD Rip/John Debney - The Princess Diaries [Score] (2001) [FLAC]/08 - Mia Flees.flac /Users/Ely/Music/CD Rip/John Debney - The Princess Diaries [Score] (2001) [V0]/08 - Mia Flees.mp3 /Users/Ely/Music/CD Rip/John Debney - The Princess Diaries [Score] (2001) [CBR 320]/08 - Mia Flees.mp3

Track gain : 1.83 dB Peak : 0.823090 CRC32 hash (test run) : C86F63AD CRC32 hash : C86F63AD CRC32 hash (skip zero) : 70D4986F AccurateRip v1 signature : E17CAD7F AccurateRip v2 signature : 43A17C91 ->Track not present in AccurateRip database. Statistics Read error : 0 Jitter error (maybe fixed) : 0 Retry sector count : 0 Damaged sector count : 0

Track 09 Filename : /Users/Ely/Music/CD Rip/John Debney - The Princess Diaries [Score] (2001) [V2]/09 - Sorry, Dad.mp3 /Users/Ely/Music/CD Rip/John Debney - The Princess Diaries [Score] (2001) [FLAC]/09 - Sorry, Dad.flac /Users/Ely/Music/CD Rip/John Debney - The Princess Diaries [Score] (2001) [V0]/09 - Sorry, Dad.mp3 /Users/Ely/Music/CD Rip/John Debney - The Princess Diaries [Score] (2001) [CBR 320]/09 - Sorry, Dad.mp3

Track gain : 6.64 dB Peak : 0.335083 CRC32 hash (test run) : 9B6D0340 CRC32 hash : 9B6D0340 CRC32 hash (skip zero) : 99514438 AccurateRip v1 signature : CD712990 AccurateRip v2 signature : 9CC66987 ->Track not present in AccurateRip database. Statistics Read error : 0 Jitter error (maybe fixed) : 0 Retry sector count : 0 Damaged sector count : 0

Track 10 Filename : /Users/Ely/Music/CD Rip/John Debney - The Princess Diaries [Score] (2001) [V2]/10 - Lana, The Traitor.mp3 /Users/Ely/Music/CD Rip/John Debney - The Princess Diaries [Score] (2001) [FLAC]/10 - Lana, The Traitor.flac /Users/Ely/Music/CD Rip/John Debney - The Princess Diaries [Score] (2001) [V0]/10 - Lana, The Traitor.mp3 /Users/Ely/Music/CD Rip/John Debney - The Princess Diaries [Score] (2001) [CBR 320]/10 - Lana, The Traitor.mp3

Track gain : 2.57 dB Peak : 0.855469 CRC32 hash (test run) : 9BAA4D61 CRC32 hash : 9BAA4D61 CRC32 hash (skip zero) : C39B38E3 AccurateRip v1 signature : 0C0BE116 AccurateRip v2 signature : 5FCD813B ->Track not present in AccurateRip database. Statistics Read error : 0 Jitter error (maybe fixed) : 0 Retry sector count : 0 Damaged sector count : 0

Track 11 Filename : /Users/Ely/Music/CD Rip/John Debney - The Princess Diaries [Score] (2001) [V2]/11 - Mia Visits The Consulate.mp3 /Users/Ely/Music/CD Rip/John Debney - The Princess Diaries [Score] (2001) [FLAC]/11 - Mia Visits The Consulate.flac /Users/Ely/Music/CD Rip/John Debney - The Princess Diaries [Score] (2001) [V0]/11 - Mia Visits The Consulate.mp3 /Users/Ely/Music/CD Rip/John Debney - The Princess Diaries [Score] (2001) [CBR 320]/11 - Mia Visits The Consulate.mp3

Track gain : 6.57 dB Peak : 0.341217 CRC32 hash (test run) : F74B7C22 CRC32 hash : F74B7C22 CRC32 hash (skip zero) : A60806F9 AccurateRip v1 signature : E74FB59F AccurateRip v2 signature : D8A02B62 ->Track not present in AccurateRip database. Statistics Read error : 0 Jitter error (maybe fixed) : 0 Retry sector count : 0 Damaged sector count : 0

Track 12 Filename : /Users/Ely/Music/CD Rip/John Debney - The Princess Diaries [Score] (2001) [V2]/12 - Scooter Talk.mp3 /Users/Ely/Music/CD Rip/John Debney - The Princess Diaries [Score] (2001) [FLAC]/12 - Scooter Talk.flac /Users/Ely/Music/CD Rip/John Debney - The Princess Diaries [Score] (2001) [V0]/12 - Scooter Talk.mp3 /Users/Ely/Music/CD Rip/John Debney - The Princess Diaries [Score] (2001) [CBR 320]/12 - Scooter Talk.mp3

Track gain : 8.44 dB Peak : 0.295258 CRC32 hash (test run) : DC77CFE1 CRC32 hash : DC77CFE1 CRC32 hash (skip zero) : CC45CD67 AccurateRip v1 signature : 3BF00683 AccurateRip v2 signature : 3AC0F41D ->Track not present in AccurateRip database. Statistics Read error : 0 Jitter error (maybe fixed) : 0 Retry sector count : 0 Damaged sector count : 0

Track 13 Filename : /Users/Ely/Music/CD Rip/John Debney - The Princess Diaries [Score] (2001) [V2]/13 - I Don''t Want To Be A Princess.mp3 /Users/Ely/Music/CD Rip/John Debney - The Princess Diaries [Score] (2001) [FLAC]/13 - I Don''t Want To Be A Princess.flac /Users/Ely/Music/CD Rip/John Debney - The Princess Diaries [Score] (2001) [V0]/13 - I Don''t Want To Be A Princess.mp3 /Users/Ely/Music/CD Rip/John Debney - The Princess Diaries [Score] (2001) [CBR 320]/13 - I Don''t Want To Be A Princess.mp3

Track gain : 1.93 dB Peak : 0.907074 CRC32 hash (test run) : 512343D3 CRC32 hash : 512343D3 CRC32 hash (skip zero) : 957536B1 AccurateRip v1 signature : 0249B572 AccurateRip v2 signature : 270B8C82 ->Track not present in AccurateRip database. Statistics Read error : 0 Jitter error (maybe fixed) : 0 Retry sector count : 0 Damaged sector count : 0

Track 14 Filename : /Users/Ely/Music/CD Rip/John Debney - The Princess Diaries [Score] (2001) [V2]/14 - Father Talk.mp3 /Users/Ely/Music/CD Rip/John Debney - The Princess Diaries [Score] (2001) [FLAC]/14 - Father Talk.flac /Users/Ely/Music/CD Rip/John Debney - The Princess Diaries [Score] (2001) [V0]/14 - Father Talk.mp3 /Users/Ely/Music/CD Rip/John Debney - The Princess Diaries [Score] (2001) [CBR 320]/14 - Father Talk.mp3

Track gain : 7.27 dB Peak : 0.341125 CRC32 hash (test run) : 768215AE CRC32 hash : 768215AE CRC32 hash (skip zero) : DA39614C AccurateRip v1 signature : 080292F4 AccurateRip v2 signature : FDDC33FC ->Track not present in AccurateRip database. Statistics Read error : 0 Jitter error (maybe fixed) : 0 Retry sector count : 0 Damaged sector count : 0

Track 15 Filename : /Users/Ely/Music/CD Rip/John Debney - The Princess Diaries [Score] (2001) [V2]/15 - The Ball.mp3 /Users/Ely/Music/CD Rip/John Debney - The Princess Diaries [Score] (2001) [FLAC]/15 - The Ball.flac /Users/Ely/Music/CD Rip/John Debney - The Princess Diaries [Score] (2001) [V0]/15 - The Ball.mp3 /Users/Ely/Music/CD Rip/John Debney - The Princess Diaries [Score] (2001) [CBR 320]/15 - The Ball.mp3

Track gain : 9.10 dB Peak : 0.215393 CRC32 hash (test run) : 51B1CD16 CRC32 hash : 51B1CD16 CRC32 hash (skip zero) : 830ABFBE AccurateRip v1 signature : 286E4154 AccurateRip v2 signature : 43E63E90 ->Track not present in AccurateRip database. Statistics Read error : 0 Jitter error (maybe fixed) : 0 Retry sector count : 0 Damaged sector count : 0

Track 16 Filename : /Users/Ely/Music/CD Rip/John Debney - The Princess Diaries [Score] (2001) [V2]/16 - Meeting The Prime Minister.mp3 /Users/Ely/Music/CD Rip/John Debney - The Princess Diaries [Score] (2001) [FLAC]/16 - Meeting The Prime Minister.flac /Users/Ely/Music/CD Rip/John Debney - The Princess Diaries [Score] (2001) [V0]/16 - Meeting The Prime Minister.mp3 /Users/Ely/Music/CD Rip/John Debney - The Princess Diaries [Score] (2001) [CBR 320]/16 - Meeting The Prime Minister.mp3

Track gain : 8.31 dB Peak : 0.272217 CRC32 hash (test run) : 28AC77DD CRC32 hash : 28AC77DD CRC32 hash (skip zero) : 6F57380C AccurateRip v1 signature : D9E4DF74 AccurateRip v2 signature : 5F813D34 ->Track not present in AccurateRip database. Statistics Read error : 0 Jitter error (maybe fixed) : 0 Retry sector count : 0 Damaged sector count : 0

Track 17 Filename : /Users/Ely/Music/CD Rip/John Debney - The Princess Diaries [Score] (2001) [V2]/17 - A Letter From The King.mp3 /Users/Ely/Music/CD Rip/John Debney - The Princess Diaries [Score] (2001) [FLAC]/17 - A Letter From The King.flac /Users/Ely/Music/CD Rip/John Debney - The Princess Diaries [Score] (2001) [V0]/17 - A Letter From The King.mp3 /Users/Ely/Music/CD Rip/John Debney - The Princess Diaries [Score] (2001) [CBR 320]/17 - A Letter From The King.mp3

Track gain : 3.16 dB Peak : 0.608185 CRC32 hash (test run) : DA457947 CRC32 hash : DA457947 CRC32 hash (skip zero) : 72D8BEB1 AccurateRip v1 signature : E00376AE AccurateRip v2 signature : 11E87917 ->Track not present in AccurateRip database. Statistics Read error : 0 Jitter error (maybe fixed) : 0 Retry sector count : 0 Damaged sector count : 0

Track 18 Filename : /Users/Ely/Music/CD Rip/John Debney - The Princess Diaries [Score] (2001) [V2]/18 - It''s A Real Job.mp3 /Users/Ely/Music/CD Rip/John Debney - The Princess Diaries [Score] (2001) [FLAC]/18 - It''s A Real Job.flac /Users/Ely/Music/CD Rip/John Debney - The Princess Diaries [Score] (2001) [V0]/18 - It''s A Real Job.mp3 /Users/Ely/Music/CD Rip/John Debney - The Princess Diaries [Score] (2001) [CBR 320]/18 - It''s A Real Job.mp3

Track gain : 9.03 dB Peak : 0.222778 CRC32 hash (test run) : 0059A8BE CRC32 hash : 0059A8BE CRC32 hash (skip zero) : F90664E7 AccurateRip v1 signature : F55959BC AccurateRip v2 signature : 9D43EE0C ->Track not present in AccurateRip database. Statistics Read error : 0 Jitter error (maybe fixed) : 0 Retry sector count : 0 Damaged sector count : 0

Track 19 Filename : /Users/Ely/Music/CD Rip/John Debney - The Princess Diaries [Score] (2001) [V2]/19 - Mia''s Decision.mp3 /Users/Ely/Music/CD Rip/John Debney - The Princess Diaries [Score] (2001) [FLAC]/19 - Mia''s Decision.flac /Users/Ely/Music/CD Rip/John Debney - The Princess Diaries [Score] (2001) [V0]/19 - Mia''s Decision.mp3 /Users/Ely/Music/CD Rip/John Debney - The Princess Diaries [Score] (2001) [CBR 320]/19 - Mia''s Decision.mp3

Track gain : -1.38 dB Peak : 0.864563 CRC32 hash (test run) : FA964DC9 CRC32 hash : FA964DC9 CRC32 hash (skip zero) : 9BCD718B AccurateRip v1 signature : 193FD32D AccurateRip v2 signature : FEFCA1DE ->Track not present in AccurateRip database. Statistics Read error : 0 Jitter error (maybe fixed) : 0 Retry sector count : 0 Damaged sector count : 0

Track 20 Filename : /Users/Ely/Music/CD Rip/John Debney - The Princess Diaries [Score] (2001) [V2]/20 - Learning To Walk.mp3 /Users/Ely/Music/CD Rip/John Debney - The Princess Diaries [Score] (2001) [FLAC]/20 - Learning To Walk.flac /Users/Ely/Music/CD Rip/John Debney - The Princess Diaries [Score] (2001) [V0]/20 - Learning To Walk.mp3 /Users/Ely/Music/CD Rip/John Debney - The Princess Diaries [Score] (2001) [CBR 320]/20 - Learning To Walk.mp3

Track gain : 10.14 dB Peak : 0.219055 CRC32 hash (test run) : 21C40681 CRC32 hash : 21C40681 CRC32 hash (skip zero) : 444D76DF AccurateRip v1 signature : D797FDA4 AccurateRip v2 signature : ABF05C95 ->Track not present in AccurateRip database. Statistics Read error : 0 Jitter error (maybe fixed) : 0 Retry sector count : 0 Damaged sector count : 0

Track 21 Filename : /Users/Ely/Music/CD Rip/John Debney - The Princess Diaries [Score] (2001) [V2]/21 - Mia Apologizes.mp3 /Users/Ely/Music/CD Rip/John Debney - The Princess Diaries [Score] (2001) [FLAC]/21 - Mia Apologizes.flac /Users/Ely/Music/CD Rip/John Debney - The Princess Diaries [Score] (2001) [V0]/21 - Mia Apologizes.mp3 /Users/Ely/Music/CD Rip/John Debney - The Princess Diaries [Score] (2001) [CBR 320]/21 - Mia Apologizes.mp3

Track gain : 11.30 dB Peak : 0.206329 CRC32 hash (test run) : 70B458D8 CRC32 hash : 70B458D8 CRC32 hash (skip zero) : 56A0BE0E AccurateRip v1 signature : 96834797 AccurateRip v2 signature : DD5BFAD8 ->Track not present in AccurateRip database. Statistics Read error : 0 Jitter error (maybe fixed) : 0 Retry sector count : 0 Damaged sector count : 0

Track 22 Filename : /Users/Ely/Music/CD Rip/John Debney - The Princess Diaries [Score] (2001) [V2]/22 - Can I Call You Joe?.mp3 /Users/Ely/Music/CD Rip/John Debney - The Princess Diaries [Score] (2001) [FLAC]/22 - Can I Call You Joe?.flac /Users/Ely/Music/CD Rip/John Debney - The Princess Diaries [Score] (2001) [V0]/22 - Can I Call You Joe?.mp3 /Users/Ely/Music/CD Rip/John Debney - The Princess Diaries [Score] (2001) [CBR 320]/22 - Can I Call You Joe?.mp3

Track gain : 5.23 dB Peak : 0.682343 CRC32 hash (test run) : 53A2F958 CRC32 hash : 53A2F958 CRC32 hash (skip zero) : 1F3332A6 AccurateRip v1 signature : C3AEA7BF AccurateRip v2 signature : 4EFF0B59 ->Track not present in AccurateRip database. Statistics Read error : 0 Jitter error (maybe fixed) : 0 Retry sector count : 0 Damaged sector count : 0

Track 23 Filename : /Users/Ely/Music/CD Rip/John Debney - The Princess Diaries [Score] (2001) [V2]/23 - The Kiss.mp3 /Users/Ely/Music/CD Rip/John Debney - The Princess Diaries [Score] (2001) [FLAC]/23 - The Kiss.flac /Users/Ely/Music/CD Rip/John Debney - The Princess Diaries [Score] (2001) [V0]/23 - The Kiss.mp3 /Users/Ely/Music/CD Rip/John Debney - The Princess Diaries [Score] (2001) [CBR 320]/23 - The Kiss.mp3

Track gain : -0.61 dB Peak : 0.952087 CRC32 hash (test run) : F8AC8A6B CRC32 hash : F8AC8A6B CRC32 hash (skip zero) : F5F836C5 AccurateRip v1 signature : 5169948D AccurateRip v2 signature : 9F7A5BC9 ->Track not present in AccurateRip database. Statistics Read error : 0 Jitter error (maybe fixed) : 0 Retry sector count : 0 Damaged sector count : 0

Track 24 Filename : /Users/Ely/Music/CD Rip/John Debney - The Princess Diaries [Score] (2001) [V2]/24 - Harp Interlude.mp3 /Users/Ely/Music/CD Rip/John Debney - The Princess Diaries [Score] (2001) [FLAC]/24 - Harp Interlude.flac /Users/Ely/Music/CD Rip/John Debney - The Princess Diaries [Score] (2001) [V0]/24 - Harp Interlude.mp3 /Users/Ely/Music/CD Rip/John Debney - The Princess Diaries [Score] (2001) [CBR 320]/24 - Harp Interlude.mp3

Track gain : 9.75 dB Peak : 0.266846 CRC32 hash (test run) : 43D69AD0 CRC32 hash : 43D69AD0 CRC32 hash (skip zero) : 7BC3B436 AccurateRip v1 signature : D08FEED7 AccurateRip v2 signature : DF154ED7 ->Track not present in AccurateRip database. Statistics Read error : 0 Jitter error (maybe fixed) : 0 Retry sector count : 0 Damaged sector count : 0

Track 25 Filename : /Users/Ely/Music/CD Rip/John Debney - The Princess Diaries [Score] (2001) [V2]/25 - The Princess Diaries Medley.mp3 /Users/Ely/Music/CD Rip/John Debney - The Princess Diaries [Score] (2001) [FLAC]/25 - The Princess Diaries Medley.flac /Users/Ely/Music/CD Rip/John Debney - The Princess Diaries [Score] (2001) [V0]/25 - The Princess Diaries Medley.mp3 /Users/Ely/Music/CD Rip/John Debney - The Princess Diaries [Score] (2001) [CBR 320]/25 - The Princess Diaries Medley.mp3

Track gain : -0.20 dB Peak : 0.833923 CRC32 hash (test run) : C9F5ABC9 CRC32 hash : C9F5ABC9 CRC32 hash (skip zero) : 453FE9E3 AccurateRip v1 signature : 414BCBE0 AccurateRip v2 signature : 548FA3C3 ->Track not present in AccurateRip database. Statistics Read error : 0 Jitter error (maybe fixed) : 0 Retry sector count : 0 Damaged sector count : 0

No errors occurred

End of status report
TITLE "The Princess Diaries [Score]"PERFORMER "John Debney"REM GENRE "Soundtrack"REM DATE "2001"REM DISCNUMBER 1REM TOTALDISCS 1REM DISCID 4D072819REM REPLAYGAIN_ALBUM_GAIN 1.45 dBREM REPLAYGAIN_ALBUM_PEAK 0.952087FILE "01 - Main Titles - Princess Diaries Score.flac" WAVE TRACK 01 AUDIO TITLE "Main Titles - Princess Diaries Score" PERFORMER "John Debney" SONGWRITER "John Debney" ISRC USWD10110001 REM REPLAYGAIN_TRACK_GAIN 3.57 dB REM REPLAYGAIN_TRACK_PEAK 0.475128 INDEX 01 00:00:00FILE "02 - Queen Clarisse.flac" WAVE TRACK 02 AUDIO TITLE "Queen Clarisse" PERFORMER "John Debney" SONGWRITER "John Debney" ISRC USWD10110002 REM REPLAYGAIN_TRACK_GAIN 0.50 dB REM REPLAYGAIN_TRACK_PEAK 0.626831 INDEX 01 00:00:00FILE "03 - Mia Invites Lilly To The Ball.flac" WAVE TRACK 03 AUDIO TITLE "Mia Invites Lilly To The Ball" PERFORMER "John Debney" SONGWRITER "John Debney" ISRC USWD10110003 REM REPLAYGAIN_TRACK_GAIN 8.27 dB REM REPLAYGAIN_TRACK_PEAK 0.306976 INDEX 01 00:00:00FILE "04 - The Princess Diaries Waltz.flac" WAVE TRACK 04 AUDIO TITLE "The Princess Diaries Waltz" PERFORMER "John Debney" SONGWRITER "John Debney" ISRC USWD10110004 REM REPLAYGAIN_TRACK_GAIN -1.29 dB REM REPLAYGAIN_TRACK_PEAK 0.901459 INDEX 01 00:00:00FILE "05 - Mia''s Makeover.flac" WAVE TRACK 05 AUDIO TITLE "Mia''s Makeover" PERFORMER "John Debney" SONGWRITER "John Debney" ISRC USWD10110005 REM REPLAYGAIN_TRACK_GAIN 4.73 dB REM REPLAYGAIN_TRACK_PEAK 0.505676 INDEX 01 00:00:00FILE "06 - Princess Lessons.flac" WAVE TRACK 06 AUDIO TITLE "Princess Lessons" PERFORMER "John Debney" SONGWRITER "John Debney" ISRC USWD10110006 REM REPLAYGAIN_TRACK_GAIN 8.70 dB REM REPLAYGAIN_TRACK_PEAK 0.311279 INDEX 01 00:00:00FILE "07 - A New Mia.flac" WAVE TRACK 07 AUDIO TITLE "A New Mia" PERFORMER "John Debney" SONGWRITER "John Debney" ISRC USWD10110007 REM REPLAYGAIN_TRACK_GAIN 8.89 dB REM REPLAYGAIN_TRACK_PEAK 0.302368 INDEX 01 00:00:00FILE "08 - Mia Flees.flac" WAVE TRACK 08 AUDIO TITLE "Mia Flees" PERFORMER "John Debney" SONGWRITER "John Debney" ISRC USWD10110008 REM REPLAYGAIN_TRACK_GAIN 1.83 dB REM REPLAYGAIN_TRACK_PEAK 0.823090 INDEX 01 00:00:00FILE "09 - Sorry, Dad.flac" WAVE TRACK 09 AUDIO TITLE "Sorry, Dad" PERFORMER "John Debney" SONGWRITER "John Debney" ISRC USWD10110009 REM REPLAYGAIN_TRACK_GAIN 6.64 dB REM REPLAYGAIN_TRACK_PEAK 0.335083 INDEX 01 00:00:00FILE "10 - Lana, The Traitor.flac" WAVE TRACK 10 AUDIO TITLE "Lana, The Traitor" PERFORMER "John Debney" SONGWRITER "John Debney" ISRC USWD10110010 REM REPLAYGAIN_TRACK_GAIN 2.57 dB REM REPLAYGAIN_TRACK_PEAK 0.855469 INDEX 01 00:00:00FILE "11 - Mia Visits The Consulate.flac" WAVE TRACK 11 AUDIO TITLE "Mia Visits The Consulate" PERFORMER "John Debney" SONGWRITER "John Debney" ISRC USWD10110011 REM REPLAYGAIN_TRACK_GAIN 6.57 dB REM REPLAYGAIN_TRACK_PEAK 0.341217 INDEX 01 00:00:00FILE "12 - Scooter Talk.flac" WAVE TRACK 12 AUDIO TITLE "Scooter Talk" PERFORMER "John Debney" SONGWRITER "John Debney" ISRC USWD10110012 REM REPLAYGAIN_TRACK_GAIN 8.44 dB REM REPLAYGAIN_TRACK_PEAK 0.295258 INDEX 01 00:00:00FILE "13 - I Don''t Want To Be A Princess.flac" WAVE TRACK 13 AUDIO TITLE "I Don''t Want To Be A Princess" PERFORMER "John Debney" SONGWRITER "John Debney" ISRC USWD10110013 REM REPLAYGAIN_TRACK_GAIN 1.93 dB REM REPLAYGAIN_TRACK_PEAK 0.907074 INDEX 01 00:00:00FILE "14 - Father Talk.flac" WAVE TRACK 14 AUDIO TITLE "Father Talk" PERFORMER "John Debney" SONGWRITER "John Debney" ISRC USWD10110014 REM REPLAYGAIN_TRACK_GAIN 7.27 dB REM REPLAYGAIN_TRACK_PEAK 0.341125 INDEX 01 00:00:00FILE "15 - The Ball.flac" WAVE TRACK 15 AUDIO TITLE "The Ball" PERFORMER "John Debney" SONGWRITER "John Debney" ISRC USWD10110015 REM REPLAYGAIN_TRACK_GAIN 9.10 dB REM REPLAYGAIN_TRACK_PEAK 0.215393 INDEX 01 00:00:00FILE "16 - Meeting The Prime Minister.flac" WAVE TRACK 16 AUDIO TITLE "Meeting The Prime Minister" PERFORMER "John Debney" SONGWRITER "John Debney" ISRC USWD10110016 REM REPLAYGAIN_TRACK_GAIN 8.31 dB REM REPLAYGAIN_TRACK_PEAK 0.272217 INDEX 01 00:00:00FILE "17 - A Letter From The King.flac" WAVE TRACK 17 AUDIO TITLE "A Letter From The King" PERFORMER "John Debney" SONGWRITER "John Debney" ISRC USWD10110017 REM REPLAYGAIN_TRACK_GAIN 3.16 dB REM REPLAYGAIN_TRACK_PEAK 0.608185 INDEX 01 00:00:00FILE "18 - It''s A Real Job.flac" WAVE TRACK 18 AUDIO TITLE "It''s A Real Job" PERFORMER "John Debney" SONGWRITER "John Debney" ISRC USWD10110018 REM REPLAYGAIN_TRACK_GAIN 9.03 dB REM REPLAYGAIN_TRACK_PEAK 0.222778 INDEX 01 00:00:00FILE "19 - Mia''s Decision.flac" WAVE TRACK 19 AUDIO TITLE "Mia''s Decision" PERFORMER "John Debney" SONGWRITER "John Debney" ISRC USWD10110019 REM REPLAYGAIN_TRACK_GAIN -1.38 dB REM REPLAYGAIN_TRACK_PEAK 0.864563 INDEX 01 00:00:00FILE "20 - Learning To Walk.flac" WAVE TRACK 20 AUDIO TITLE "Learning To Walk" PERFORMER "John Debney" SONGWRITER "John Debney" ISRC USWD10110020 REM REPLAYGAIN_TRACK_GAIN 10.14 dB REM REPLAYGAIN_TRACK_PEAK 0.219055 INDEX 01 00:00:00FILE "21 - Mia Apologizes.flac" WAVE TRACK 21 AUDIO TITLE "Mia Apologizes" PERFORMER "John Debney" SONGWRITER "John Debney" ISRC USWD10110021 REM REPLAYGAIN_TRACK_GAIN 11.30 dB REM REPLAYGAIN_TRACK_PEAK 0.206329 INDEX 01 00:00:00FILE "22 - Can I Call You Joe?.flac" WAVE TRACK 22 AUDIO TITLE "Can I Call You Joe?" PERFORMER "John Debney" SONGWRITER "John Debney" ISRC USWD10110022 REM REPLAYGAIN_TRACK_GAIN 5.23 dB REM REPLAYGAIN_TRACK_PEAK 0.682343 INDEX 01 00:00:00FILE "23 - The Kiss.flac" WAVE TRACK 23 AUDIO TITLE "The Kiss" PERFORMER "John Debney" SONGWRITER "John Debney" ISRC USWD10110023 REM REPLAYGAIN_TRACK_GAIN -0.61 dB REM REPLAYGAIN_TRACK_PEAK 0.952087 INDEX 01 00:00:00FILE "24 - Harp Interlude.flac" WAVE TRACK 24 AUDIO TITLE "Harp Interlude" PERFORMER "John Debney" SONGWRITER "John Debney" ISRC USWD10110024 REM REPLAYGAIN_TRACK_GAIN 9.75 dB REM REPLAYGAIN_TRACK_PEAK 0.266846 INDEX 01 00:00:00FILE "25 - The Princess Diaries Medley.flac" WAVE TRACK 25 AUDIO TITLE "The Princess Diaries Medley" PERFORMER "John Debney" SONGWRITER "John Debney" ISRC USWD10110025 REM REPLAYGAIN_TRACK_GAIN -0.20 dB REM REPLAYGAIN_TRACK_PEAK 0.833923 INDEX 01 00:00:00


Трекер:  [ 14-Дек-2013 21:44 ]

  

Скачать .torrent

Размер .torrent файла 22 KB


Размер: 127 MB
Хэш (hash) релиза: 09674d692290a70a35f5dcc7b99d97ee45747749

Торренты, похожие на Как стать принцессой The Princess Diaries скачать торрент

Форум Название Автор Размер S L Добавлен
Саундтреки к фильмам и мультфильмам (lossless) ·· (Soundtrack) Как стать принцессой / The Princess Diaries - 2001, FLAC (tracks+.cue), lossless Galfimbul 410567192392 MB 0 0 1380530594

11:43

30-Сен-13

Саундтреки к фильмам и мультфильмам (lossless) ·· (Soundtrack) Дневники принцессы 2: Как стать королевой / The Princess Diaries 2: Royal Engagement - 2004, FLAC (tracks+.cue), lossless Galfimbul 327443111312 MB 0 0 1380530590

11:43

30-Сен-13

bot

Топик был перенесен в форум Саундтреки к фильмам и мультфильмам (lossless)

Перенес Galfimbul

Хотите добавить комментарий к записи скачать торрент Как стать принцессой The Princess Diaries

!Обратная связь