Скачать через торрент музыку Дневники принцессы 2: Как стать королевой The Princess Diaries 2: Royal Engagement - 2004, FLAC бесплатно без регистрации torrent

Если у вас наблюдаются проблемы со скриншотами, переходом по ссылками, скачиванием торрентов - проблемы в блокировщике рекламы AdBlock. #хорошегоДня!


Статистика раздачи
Размер:  312 MB   |    Зарегистрирован:  4 года   |    .torrent скачан:  22 раза   |   
Раздают:  1  
   
Загрузка...
 
Автор Сообщение

Galfimbul

avatar Galfimbul


Дневники принцессы 2: Как стать королевой / The Princess Diaries 2: Royal Engagement
Жанр: Soundtrack
Год выпуска диска: 2004
Производитель диска: USA
Издатель (лейбл): Walt Disney Records
Номер по каталогу: 61099-7
Аудиокодек: FLAC (*.flac)
Тип рипа: tracks+.cue
Битрейт аудио: lossless
Продолжительность: 00:46:20
Источник: what.cd / Pyromonkey83
Наличие сканов в содержимом раздачи: нет
1. "Breakaway" - Kelly Clarkson
2. "I Decide" - Lindsay Lohan (written by Diane Warren)
3. "This Is My Time" - Raven-Symoné
4. "I Always Get What I Want" - Avril Lavigne
5. "Trouble" - Pink
6. "Because You Live" - Jesse McCartney
7. "Love Me Tender" - Norah Jones and Adam Levy
8. "Fun In the Sun" - Steve Harwell
9. "Let''s Bounce" - Christy Carlson Romano
10. "Dance Dance Dance" - Wilson Phillips
11. "Fools" - Rachel Stevens
12. "A Love That Will Last" - Renee Olstead
13. "Your Crowning Glory" - Julie Andrews and Raven-Symoné
14. "Miracles Happen" - Jonny Blu

X Lossless Decoder version 20130127 (142.3)

XLD extraction logfile from 2013-02-01 04:45:04 -0700

Various Artists / The Princess Diaries 2 - Royal Engagement Original Soundtrack

Used drive : TSSTcorp CDDVDW SE-S084B (revision TS01)Media type : Pressed CD

Ripper mode : XLD Secure RipperDisable audio cache : OK for the drive with a cache less than 1375KiBMake use of C2 pointers : NORead offset correction : 6Max retry count : 100Gap status : Analyzed, Appended (except HTOA)

TOC of the extracted CD Track | Start | Length | Start sector | End sector --------------------------------------------------------- 1 | 00:00:00 | 03:58:69 | 0 | 17918 2 | 03:58:69 | 03:14:14 | 17919 | 32482 3 | 07:13:08 | 04:26:38 | 32483 | 52470 4 | 11:39:46 | 02:33:69 | 52471 | 64014 5 | 14:13:40 | 03:13:51 | 64015 | 78540 6 | 17:27:16 | 03:19:12 | 78541 | 93477 7 | 20:46:28 | 02:56:20 | 93478 | 106697 8 | 23:42:48 | 03:28:43 | 106698 | 122340 9 | 27:11:16 | 03:18:70 | 122341 | 137260 10 | 30:30:11 | 02:01:42 | 137261 | 146377 11 | 32:31:53 | 03:12:44 | 146378 | 160821 12 | 35:44:22 | 03:32:14 | 160822 | 176735 13 | 39:16:36 | 02:42:41 | 176736 | 188926 14 | 41:59:02 | 04:18:20 | 188927 | 208296 15 | 48:49:22 | 01:13:50 | 219697 | 225221

AccurateRip Summary (DiscID: 001876dc-01030c68-bb0bba0f) Track 01 : OK (v1, confidence 10/10) Track 02 : OK (v1, confidence 10/10) Track 03 : OK (v1, confidence 9/9) Track 04 : OK (v1, confidence 10/10) Track 05 : OK (v1, confidence 10/10) Track 06 : OK (v1, confidence 10/10) Track 07 : OK (v1, confidence 10/10) Track 08 : OK (v1, confidence 10/10) Track 09 : OK (v1, confidence 10/10) Track 10 : OK (v1, confidence 10/10) Track 11 : OK (v1, confidence 10/10) Track 12 : OK (v1, confidence 10/10) Track 13 : OK (v1, confidence 10/10) Track 14 : OK (v1, confidence 10/10) ->All tracks accurately ripped.

All Tracks Album gain : -8.47 dB Peak : 0.977173 Statistics Read error : 0 Jitter error (maybe fixed) : 0 Retry sector count : 2 Damaged sector count : 0

Track 01 Filename : /Users/Ely/Music/CD Rip/Various Artists - The Princess Diaries 2 - Royal Engagement Original Soundtrack (2004) [V2]/01 - Kelly Clarkson - Breakaway.mp3 /Users/Ely/Music/CD Rip/Various Artists - The Princess Diaries 2 - Royal Engagement Original Soundtrack (2004) [FLAC]/01 - Kelly Clarkson - Breakaway.flac /Users/Ely/Music/CD Rip/Various Artists - The Princess Diaries 2 - Royal Engagement Original Soundtrack (2004) [V0]/01 - Kelly Clarkson - Breakaway.mp3 /Users/Ely/Music/CD Rip/Various Artists - The Princess Diaries 2 - Royal Engagement Original Soundtrack (2004) [CBR 320]/01 - Kelly Clarkson - Breakaway.mp3 Pre-gap length : 00:02:00

Track gain : -8.35 dB Peak : 0.844360 CRC32 hash (test run) : F52BABA7 CRC32 hash : F52BABA7 CRC32 hash (skip zero) : 92C6ED76 AccurateRip v1 signature : 0E8AD2F0 AccurateRip v2 signature : 7227244A ->Accurately ripped (v1, confidence 10/10) Statistics Read error : 0 Jitter error (maybe fixed) : 0 Retry sector count : 0 Damaged sector count : 0

Track 02 Filename : /Users/Ely/Music/CD Rip/Various Artists - The Princess Diaries 2 - Royal Engagement Original Soundtrack (2004) [V2]/02 - Lindsay Lohan - I Decide.mp3 /Users/Ely/Music/CD Rip/Various Artists - The Princess Diaries 2 - Royal Engagement Original Soundtrack (2004) [FLAC]/02 - Lindsay Lohan - I Decide.flac /Users/Ely/Music/CD Rip/Various Artists - The Princess Diaries 2 - Royal Engagement Original Soundtrack (2004) [V0]/02 - Lindsay Lohan - I Decide.mp3 /Users/Ely/Music/CD Rip/Various Artists - The Princess Diaries 2 - Royal Engagement Original Soundtrack (2004) [CBR 320]/02 - Lindsay Lohan - I Decide.mp3

Track gain : -7.50 dB Peak : 0.966003 CRC32 hash (test run) : 7D7439B2 CRC32 hash : 7D7439B2 CRC32 hash (skip zero) : 93B95122 AccurateRip v1 signature : B2CAEF45 AccurateRip v2 signature : A47BEF8B ->Accurately ripped (v1, confidence 10/10) Statistics Read error : 0 Jitter error (maybe fixed) : 0 Retry sector count : 0 Damaged sector count : 0

Track 03 Filename : /Users/Ely/Music/CD Rip/Various Artists - The Princess Diaries 2 - Royal Engagement Original Soundtrack (2004) [V2]/03 - Raven - This Is My Time.mp3 /Users/Ely/Music/CD Rip/Various Artists - The Princess Diaries 2 - Royal Engagement Original Soundtrack (2004) [FLAC]/03 - Raven - This Is My Time.flac /Users/Ely/Music/CD Rip/Various Artists - The Princess Diaries 2 - Royal Engagement Original Soundtrack (2004) [V0]/03 - Raven - This Is My Time.mp3 /Users/Ely/Music/CD Rip/Various Artists - The Princess Diaries 2 - Royal Engagement Original Soundtrack (2004) [CBR 320]/03 - Raven - This Is My Time.mp3

Track gain : -8.34 dB Peak : 0.944061 CRC32 hash (test run) : 0378EF7C CRC32 hash : 0378EF7C CRC32 hash (skip zero) : 6B97DC86 AccurateRip v1 signature : B73E63B7 AccurateRip v2 signature : A402269B ->Accurately ripped (v1, confidence 9/9) Statistics Read error : 0 Jitter error (maybe fixed) : 0 Retry sector count : 0 Damaged sector count : 0

Track 04 Filename : /Users/Ely/Music/CD Rip/Various Artists - The Princess Diaries 2 - Royal Engagement Original Soundtrack (2004) [V2]/04 - Avril Lavigne - I Always Get What I Want.mp3 /Users/Ely/Music/CD Rip/Various Artists - The Princess Diaries 2 - Royal Engagement Original Soundtrack (2004) [FLAC]/04 - Avril Lavigne - I Always Get What I Want.flac /Users/Ely/Music/CD Rip/Various Artists - The Princess Diaries 2 - Royal Engagement Original Soundtrack (2004) [V0]/04 - Avril Lavigne - I Always Get What I Want.mp3 /Users/Ely/Music/CD Rip/Various Artists - The Princess Diaries 2 - Royal Engagement Original Soundtrack (2004) [CBR 320]/04 - Avril Lavigne - I Always Get What I Want.mp3

Track gain : -9.31 dB Peak : 0.977173 CRC32 hash (test run) : 0F0E0182 CRC32 hash : 0F0E0182 CRC32 hash (skip zero) : 38EFB01B AccurateRip v1 signature : 5BB66603 AccurateRip v2 signature : 933F4D7B ->Accurately ripped (v1, confidence 10/10) Statistics Read error : 0 Jitter error (maybe fixed) : 0 Retry sector count : 0 Damaged sector count : 0

Track 05 Filename : /Users/Ely/Music/CD Rip/Various Artists - The Princess Diaries 2 - Royal Engagement Original Soundtrack (2004) [V2]/05 - Pink - Trouble.mp3 /Users/Ely/Music/CD Rip/Various Artists - The Princess Diaries 2 - Royal Engagement Original Soundtrack (2004) [FLAC]/05 - Pink - Trouble.flac /Users/Ely/Music/CD Rip/Various Artists - The Princess Diaries 2 - Royal Engagement Original Soundtrack (2004) [V0]/05 - Pink - Trouble.mp3 /Users/Ely/Music/CD Rip/Various Artists - The Princess Diaries 2 - Royal Engagement Original Soundtrack (2004) [CBR 320]/05 - Pink - Trouble.mp3

Track gain : -9.99 dB Peak : 0.897552 CRC32 hash (test run) : 488C490E CRC32 hash : 488C490E CRC32 hash (skip zero) : 094C8DC8 AccurateRip v1 signature : 1B60D511 AccurateRip v2 signature : 1A91C51D ->Accurately ripped (v1, confidence 10/10) Statistics Read error : 0 Jitter error (maybe fixed) : 0 Retry sector count : 0 Damaged sector count : 0

Track 06 Filename : /Users/Ely/Music/CD Rip/Various Artists - The Princess Diaries 2 - Royal Engagement Original Soundtrack (2004) [V2]/06 - Jesse McCartney - Because You Live.mp3 /Users/Ely/Music/CD Rip/Various Artists - The Princess Diaries 2 - Royal Engagement Original Soundtrack (2004) [FLAC]/06 - Jesse McCartney - Because You Live.flac /Users/Ely/Music/CD Rip/Various Artists - The Princess Diaries 2 - Royal Engagement Original Soundtrack (2004) [V0]/06 - Jesse McCartney - Because You Live.mp3 /Users/Ely/Music/CD Rip/Various Artists - The Princess Diaries 2 - Royal Engagement Original Soundtrack (2004) [CBR 320]/06 - Jesse McCartney - Because You Live.mp3

Track gain : -8.40 dB Peak : 0.977173 CRC32 hash (test run) : 1F275C8B CRC32 hash : 1F275C8B CRC32 hash (skip zero) : B3D24C75 AccurateRip v1 signature : B59BF048 AccurateRip v2 signature : 1846F3C1 ->Accurately ripped (v1, confidence 10/10) Statistics Read error : 0 Jitter error (maybe fixed) : 0 Retry sector count : 0 Damaged sector count : 0

Track 07 Filename : /Users/Ely/Music/CD Rip/Various Artists - The Princess Diaries 2 - Royal Engagement Original Soundtrack (2004) [V2]/07 - Norah Jones and Adam Levy - Love Me Tender.mp3 /Users/Ely/Music/CD Rip/Various Artists - The Princess Diaries 2 - Royal Engagement Original Soundtrack (2004) [FLAC]/07 - Norah Jones and Adam Levy - Love Me Tender.flac /Users/Ely/Music/CD Rip/Various Artists - The Princess Diaries 2 - Royal Engagement Original Soundtrack (2004) [V0]/07 - Norah Jones and Adam Levy - Love Me Tender.mp3 /Users/Ely/Music/CD Rip/Various Artists - The Princess Diaries 2 - Royal Engagement Original Soundtrack (2004) [CBR 320]/07 - Norah Jones and Adam Levy - Love Me Tender.mp3

Track gain : -4.20 dB Peak : 0.977173 CRC32 hash (test run) : 74DBC93F CRC32 hash : 74DBC93F CRC32 hash (skip zero) : 20717EC1 AccurateRip v1 signature : F61986EE AccurateRip v2 signature : 4AF6D48E ->Accurately ripped (v1, confidence 10/10) Statistics Read error : 0 Jitter error (maybe fixed) : 0 Retry sector count : 0 Damaged sector count : 0

Track 08 Filename : /Users/Ely/Music/CD Rip/Various Artists - The Princess Diaries 2 - Royal Engagement Original Soundtrack (2004) [V2]/08 - Steve Harwell - Fun In The Sun.mp3 /Users/Ely/Music/CD Rip/Various Artists - The Princess Diaries 2 - Royal Engagement Original Soundtrack (2004) [FLAC]/08 - Steve Harwell - Fun In The Sun.flac /Users/Ely/Music/CD Rip/Various Artists - The Princess Diaries 2 - Royal Engagement Original Soundtrack (2004) [V0]/08 - Steve Harwell - Fun In The Sun.mp3 /Users/Ely/Music/CD Rip/Various Artists - The Princess Diaries 2 - Royal Engagement Original Soundtrack (2004) [CBR 320]/08 - Steve Harwell - Fun In The Sun.mp3

Track gain : -8.52 dB Peak : 0.870575 CRC32 hash (test run) : B5C4E325 CRC32 hash : B5C4E325 CRC32 hash (skip zero) : 3961B79F AccurateRip v1 signature : 0113573D AccurateRip v2 signature : 11268FEF ->Accurately ripped (v1, confidence 10/10) Statistics Read error : 0 Jitter error (maybe fixed) : 0 Retry sector count : 0 Damaged sector count : 0

Track 09 Filename : /Users/Ely/Music/CD Rip/Various Artists - The Princess Diaries 2 - Royal Engagement Original Soundtrack (2004) [V2]/09 - Christy Carlson Romano - Let''s Bounce.mp3 /Users/Ely/Music/CD Rip/Various Artists - The Princess Diaries 2 - Royal Engagement Original Soundtrack (2004) [FLAC]/09 - Christy Carlson Romano - Let''s Bounce.flac /Users/Ely/Music/CD Rip/Various Artists - The Princess Diaries 2 - Royal Engagement Original Soundtrack (2004) [V0]/09 - Christy Carlson Romano - Let''s Bounce.mp3 /Users/Ely/Music/CD Rip/Various Artists - The Princess Diaries 2 - Royal Engagement Original Soundtrack (2004) [CBR 320]/09 - Christy Carlson Romano - Let''s Bounce.mp3

Track gain : -8.17 dB Peak : 0.944061 CRC32 hash (test run) : 8E2099E4 CRC32 hash : 8E2099E4 CRC32 hash (skip zero) : 412794CD AccurateRip v1 signature : 9ED68191 AccurateRip v2 signature : 81933898 ->Accurately ripped (v1, confidence 10/10) Statistics Read error : 0 Jitter error (maybe fixed) : 0 Retry sector count : 2 Damaged sector count : 0

Track 10 Filename : /Users/Ely/Music/CD Rip/Various Artists - The Princess Diaries 2 - Royal Engagement Original Soundtrack (2004) [V2]/10 - Wilson Phillips - Dance, Dance, Dance.mp3 /Users/Ely/Music/CD Rip/Various Artists - The Princess Diaries 2 - Royal Engagement Original Soundtrack (2004) [FLAC]/10 - Wilson Phillips - Dance, Dance, Dance.flac /Users/Ely/Music/CD Rip/Various Artists - The Princess Diaries 2 - Royal Engagement Original Soundtrack (2004) [V0]/10 - Wilson Phillips - Dance, Dance, Dance.mp3 /Users/Ely/Music/CD Rip/Various Artists - The Princess Diaries 2 - Royal Engagement Original Soundtrack (2004) [CBR 320]/10 - Wilson Phillips - Dance, Dance, Dance.mp3

Track gain : -8.65 dB Peak : 0.912933 CRC32 hash (test run) : 96582FC1 CRC32 hash : 96582FC1 CRC32 hash (skip zero) : C823053E AccurateRip v1 signature : 1F926D3E AccurateRip v2 signature : 71EFC1A4 ->Accurately ripped (v1, confidence 10/10) Statistics Read error : 0 Jitter error (maybe fixed) : 0 Retry sector count : 0 Damaged sector count : 0

Track 11 Filename : /Users/Ely/Music/CD Rip/Various Artists - The Princess Diaries 2 - Royal Engagement Original Soundtrack (2004) [V2]/11 - Rachel Stevens - Fools.mp3 /Users/Ely/Music/CD Rip/Various Artists - The Princess Diaries 2 - Royal Engagement Original Soundtrack (2004) [FLAC]/11 - Rachel Stevens - Fools.flac /Users/Ely/Music/CD Rip/Various Artists - The Princess Diaries 2 - Royal Engagement Original Soundtrack (2004) [V0]/11 - Rachel Stevens - Fools.mp3 /Users/Ely/Music/CD Rip/Various Artists - The Princess Diaries 2 - Royal Engagement Original Soundtrack (2004) [CBR 320]/11 - Rachel Stevens - Fools.mp3

Track gain : -6.86 dB Peak : 0.862000 CRC32 hash (test run) : 9A728210 CRC32 hash : 9A728210 CRC32 hash (skip zero) : 9EB0F88D AccurateRip v1 signature : 59F2A688 AccurateRip v2 signature : 727E7ADB ->Accurately ripped (v1, confidence 10/10) Statistics Read error : 0 Jitter error (maybe fixed) : 0 Retry sector count : 0 Damaged sector count : 0

Track 12 Filename : /Users/Ely/Music/CD Rip/Various Artists - The Princess Diaries 2 - Royal Engagement Original Soundtrack (2004) [V2]/12 - Renee Olstead - A Love That Will Last.mp3 /Users/Ely/Music/CD Rip/Various Artists - The Princess Diaries 2 - Royal Engagement Original Soundtrack (2004) [FLAC]/12 - Renee Olstead - A Love That Will Last.flac /Users/Ely/Music/CD Rip/Various Artists - The Princess Diaries 2 - Royal Engagement Original Soundtrack (2004) [V0]/12 - Renee Olstead - A Love That Will Last.mp3 /Users/Ely/Music/CD Rip/Various Artists - The Princess Diaries 2 - Royal Engagement Original Soundtrack (2004) [CBR 320]/12 - Renee Olstead - A Love That Will Last.mp3

Track gain : -6.84 dB Peak : 0.977173 CRC32 hash (test run) : 5DA0E082 CRC32 hash : 5DA0E082 CRC32 hash (skip zero) : 5BB9735D AccurateRip v1 signature : DA858E4E AccurateRip v2 signature : F5F63647 ->Accurately ripped (v1, confidence 10/10) Statistics Read error : 0 Jitter error (maybe fixed) : 0 Retry sector count : 0 Damaged sector count : 0

Track 13 Filename : /Users/Ely/Music/CD Rip/Various Artists - The Princess Diaries 2 - Royal Engagement Original Soundtrack (2004) [V2]/13 - Julie Andrews and Raven - Your Crowning Glory.mp3 /Users/Ely/Music/CD Rip/Various Artists - The Princess Diaries 2 - Royal Engagement Original Soundtrack (2004) [FLAC]/13 - Julie Andrews and Raven - Your Crowning Glory.flac /Users/Ely/Music/CD Rip/Various Artists - The Princess Diaries 2 - Royal Engagement Original Soundtrack (2004) [V0]/13 - Julie Andrews and Raven - Your Crowning Glory.mp3 /Users/Ely/Music/CD Rip/Various Artists - The Princess Diaries 2 - Royal Engagement Original Soundtrack (2004) [CBR 320]/13 - Julie Andrews and Raven - Your Crowning Glory.mp3

Track gain : -7.62 dB Peak : 0.977173 CRC32 hash (test run) : E8A4C7B5 CRC32 hash : E8A4C7B5 CRC32 hash (skip zero) : 27D49B79 AccurateRip v1 signature : EEA2FF9E AccurateRip v2 signature : B344BBD7 ->Accurately ripped (v1, confidence 10/10) Statistics Read error : 0 Jitter error (maybe fixed) : 0 Retry sector count : 0 Damaged sector count : 0

Track 14 Filename : /Users/Ely/Music/CD Rip/Various Artists - The Princess Diaries 2 - Royal Engagement Original Soundtrack (2004) [V2]/14 - Jonny Blu - Miracles Happens.mp3 /Users/Ely/Music/CD Rip/Various Artists - The Princess Diaries 2 - Royal Engagement Original Soundtrack (2004) [FLAC]/14 - Jonny Blu - Miracles Happens.flac /Users/Ely/Music/CD Rip/Various Artists - The Princess Diaries 2 - Royal Engagement Original Soundtrack (2004) [V0]/14 - Jonny Blu - Miracles Happens.mp3 /Users/Ely/Music/CD Rip/Various Artists - The Princess Diaries 2 - Royal Engagement Original Soundtrack (2004) [CBR 320]/14 - Jonny Blu - Miracles Happens.mp3

Track gain : -6.52 dB Peak : 0.942810 CRC32 hash (test run) : B615E7EF CRC32 hash : B615E7EF CRC32 hash (skip zero) : D984BC0A AccurateRip v1 signature : B1869994 AccurateRip v2 signature : 2E3161A1 ->Accurately ripped (v1, confidence 10/10) Statistics Read error : 0 Jitter error (maybe fixed) : 0 Retry sector count : 0 Damaged sector count : 0

No errors occurred

End of status report
TITLE "The Princess Diaries 2 - Royal Engagement Original Soundtrack"PERFORMER "Various Artists"REM GENRE "Soundtrack"REM DATE "2004"REM DISCNUMBER 1REM TOTALDISCS 1REM DISCID BB0BBA0FREM REPLAYGAIN_ALBUM_GAIN -8.47 dBREM REPLAYGAIN_ALBUM_PEAK 0.977173FILE "01 - Kelly Clarkson - Breakaway.flac" WAVE TRACK 01 AUDIO TITLE " Breakaway" PERFORMER "Kelly Clarkson" ISRC USWD10423641 REM REPLAYGAIN_TRACK_GAIN -8.35 dB REM REPLAYGAIN_TRACK_PEAK 0.844360 INDEX 01 00:00:00FILE "02 - Lindsay Lohan - I Decide.flac" WAVE TRACK 02 AUDIO TITLE "I Decide" PERFORMER "Lindsay Lohan" ISRC USWD10423654 REM REPLAYGAIN_TRACK_GAIN -7.50 dB REM REPLAYGAIN_TRACK_PEAK 0.966003 INDEX 01 00:00:00FILE "03 - Raven - This Is My Time.flac" WAVE TRACK 03 AUDIO TITLE "This Is My Time" PERFORMER "Raven" ISRC USWD10423655 REM REPLAYGAIN_TRACK_GAIN -8.34 dB REM REPLAYGAIN_TRACK_PEAK 0.944061 INDEX 01 00:00:00FILE "04 - Avril Lavigne - I Always Get What I Want.flac" WAVE TRACK 04 AUDIO TITLE "I Always Get What I Want" PERFORMER "Avril Lavigne" ISRC USAR10400371 REM REPLAYGAIN_TRACK_GAIN -9.31 dB REM REPLAYGAIN_TRACK_PEAK 0.977173 INDEX 01 00:00:00FILE "05 - Pink - Trouble.flac" WAVE TRACK 05 AUDIO TITLE "Trouble" PERFORMER "Pink" ISRC USAR10301183 REM REPLAYGAIN_TRACK_GAIN -9.99 dB REM REPLAYGAIN_TRACK_PEAK 0.897552 INDEX 01 00:00:00FILE "06 - Jesse McCartney - Because You Live.flac" WAVE TRACK 06 AUDIO TITLE "Because You Live" PERFORMER "Jesse McCartney" ISRC USHR10421205 REM REPLAYGAIN_TRACK_GAIN -8.40 dB REM REPLAYGAIN_TRACK_PEAK 0.977173 INDEX 01 00:00:00FILE "07 - Norah Jones and Adam Levy - Love Me Tender.flac" WAVE TRACK 07 AUDIO TITLE "Love Me Tender" PERFORMER "Norah Jones and Adam Levy" ISRC US42S0402011 REM REPLAYGAIN_TRACK_GAIN -4.20 dB REM REPLAYGAIN_TRACK_PEAK 0.977173 INDEX 01 00:00:00FILE "08 - Steve Harwell - Fun In The Sun.flac" WAVE TRACK 08 AUDIO TITLE "Fun In The Sun" PERFORMER "Steve Harwell" ISRC USWD10423644 REM REPLAYGAIN_TRACK_GAIN -8.52 dB REM REPLAYGAIN_TRACK_PEAK 0.870575 INDEX 01 00:00:00FILE "09 - Christy Carlson Romano - Let''s Bounce.flac" WAVE TRACK 09 AUDIO TITLE "Let''s Bounce" PERFORMER "Christy Carlson Romano" ISRC USWD10423636 REM REPLAYGAIN_TRACK_GAIN -8.17 dB REM REPLAYGAIN_TRACK_PEAK 0.944061 INDEX 01 00:00:00FILE "10 - Wilson Phillips - Dance, Dance, Dance.flac" WAVE TRACK 10 AUDIO TITLE "Dance, Dance, Dance" PERFORMER "Wilson Phillips" ISRC USSM10403381 REM REPLAYGAIN_TRACK_GAIN -8.65 dB REM REPLAYGAIN_TRACK_PEAK 0.912933 INDEX 01 00:00:00FILE "11 - Rachel Stevens - Fools.flac" WAVE TRACK 11 AUDIO TITLE "Fools" PERFORMER "Rachel Stevens" ISRC GBCTA0400139 REM REPLAYGAIN_TRACK_GAIN -6.86 dB REM REPLAYGAIN_TRACK_PEAK 0.862000 INDEX 01 00:00:00FILE "12 - Renee Olstead - A Love That Will Last.flac" WAVE TRACK 12 AUDIO TITLE "A Love That Will Last" PERFORMER "Renee Olstead" ISRC USRE10400466 REM REPLAYGAIN_TRACK_GAIN -6.84 dB REM REPLAYGAIN_TRACK_PEAK 0.977173 INDEX 01 00:00:00FILE "13 - Julie Andrews and Raven - Your Crowning Glory.flac" WAVE TRACK 13 AUDIO TITLE "Your Crowning Glory" PERFORMER "Julie Andrews and Raven" ISRC USWD10423637 REM REPLAYGAIN_TRACK_GAIN -7.62 dB REM REPLAYGAIN_TRACK_PEAK 0.977173 INDEX 01 00:00:00FILE "14 - Jonny Blu - Miracles Happens.flac" WAVE TRACK 14 AUDIO TITLE "Miracles Happens" PERFORMER "Jonny Blu" ISRC USWD10423656 REM REPLAYGAIN_TRACK_GAIN -6.52 dB REM REPLAYGAIN_TRACK_PEAK 0.942810 INDEX 01 00:00:00


Трекер:  [ 14-Дек-2013 21:44 ]

  

Скачать .torrent

Размер .torrent файла 14 KB


Размер: 312 MB
Хэш (hash) релиза: cc673640fa086d3caba78239eda111695055e823

bot

Топик был перенесен в форум Саундтреки к фильмам и мультфильмам (lossless)

Перенес Galfimbul

Хотите добавить комментарий к записи скачать торрент Дневники принцессы 2: Как стать королевой The Princess Diaries 2: Royal Engagement - 2004, FLAC

!Обратная связь