Скачать через торрент Ра-Зефон OVA RahXephon Kansoukyoku Kanojo to Kanojo Jishin to - Thatness and Thereness бесплатно Аниме Все серии на русском torrent

Если у вас наблюдаются проблемы со скриншотами, переходом по ссылками, скачиванием торрентов - проблемы в блокировщике рекламы AdBlock. #хорошегоДня!


Статистика раздачи
Размер:  408 MB   |    Зарегистрирован:  4 года 2 месяца   |    .torrent скачан:  33 раза   |   
Раздают:  1  
   
Загрузка...
 
Автор Сообщение

Polarnik

avatar Polarnik


Ра-Зефон OVA / RahXephon Kansoukyoku Kanojo to Kanojo Jishin to - Thatness and Thereness
Страна: Япония
Год выпуска: 2003
Жанр: драма, фантастика, меха
Тип: OVA
Продолжительность: 15 мин
Озвучка:
Одноголосная Azazel
Субтитры: есть
русские (внешние)
от Shiro & WizVio
Студия:
Режиссер: Кёда Томоки
Описание: Идёт 2015 год. Семнадцатилетний Камина Аято заканчивает школу в Токио. Из родителей у него — только вечно занятая мать. Два года назад в результате нападения неизвестных захватчиков всё человечество погибло, осталась невредимой только относительно небольшая территория с центром в Токио, выехать за пределы которой невозможно. Ученикам говорят в школе, что всё население планеты составляет теперь не более 23 миллионов человек.

В 2003 году была выпущена видео-игра «РаЗефон» для Sony Playstation 2. В качестве бонуса на диске с игрой находилась специальная OVA-серия аниме — «Her and Herself (彼女と彼女自身と) / Thatness and Thereness».

© World Art
Качество: BDRip
Релиз/Автор рипа: E-HARO Raws
Совместимость с бытовыми плеерами: Нет
Наличие линковки: Нет
Тип видео: без хардсаба
Формат: MKV
Видео: x264, 960x720, (4/3), ~3000кбит/с, 23.976fps, 10 bit
Аудио #1 (внешняя) русская - MP3, 2 ch, 192кбит/с, 44100Hz
Аудио #2 (в контейнере) японская - Vorbis, 2 ch, 320кбит/с, 48000Hz
* Чтобы смотреть с озвучкой, необходимо из папки Rus sound [Azazel] переписать файлы в папку, где находятся видеофайлы. Далее, следует запустить плеер и переключиться на mka-дорожку.
* Чтобы смотреть с субтитрами, необходимо из папки Rus subs [Shiro & WizVio] переписать файл в папку, где находятся видеофайл. В большинстве плееров, одноимённые субтитры подключатся автоматически.

#1 Ра-Зефон [ТВ] - ТВ (26 эп. + эп.-дайджест), оригинальный ТВ-сериал, 2002
#2 Ра-Зефон - Фильм - п/ф, киноверсия ТВ-сериала, 2003
#3 Ра-Зефон OVA - OVA (1 эп.), spin-off (ответвление сюжета), 2003


Общее
Уникальный идентификатор : 226212496091977587931389458264609610166 (0xAA2EF12707DF66748DD9F9178F7159B6)
Полное имя : C:\Торренты №2\RahXephon OVA [BDRip 720p]\[E-HARO Raws] RahXephon Kansoukyoku Kanojo to Kanojo Jishin to - Thatness and Thereness (BD 960x720 h264 10bit Vorbis).mkv
Формат : Matroska
Версия формата : Version 4 / Version 2
Размер файла : 387 Мбайт
Продолжительность : 15 м.
Режим общего битрейта : Переменный
Общий поток : 3481 Кбит/сек
Дата кодирования : UTC 2013-09-21 20:05:29
Программа кодирования : mkvmerge v6.3.0 (''You can''t stop me!'') built on Jun 28 2013 20:09:41
Библиотека кодирования : libebml v1.3.0 + libmatroska v1.4.0

Видео
Идентификатор : 1
Формат : AVC
Формат/Информация : Advanced Video Codec
Профиль формата : High 10@L5.0
Параметр CABAC формата : Да
Параметр ReFrames формата : 9 кадров
Идентификатор кодека : V_MPEG4/ISO/AVC
Продолжительность : 15 м.
Битрейт : 3091 Кбит/сек
Ширина : 960 пикселей
Высота : 720 пикселей
Соотношение сторон : 4:3
Режим частоты кадров : Постоянный
Частота кадров : 23,976 кадра/сек
Цветовое пространство : YUV
Субдискретизация насыщенности : 4:2:0
Битовая глубина : 10 бит
Тип развёртки : Прогрессивная
Бит/(Пиксели*Кадры) : 0.187
Размер потока : 344 Мбайт (89%)
Заголовок : RAHXEPHON: Interlude - Thatness and Thereness
Библиотека кодирования : x264 core 133 r2334 a3ac64b
Настройки программы : cabac=1 / ref=9 / deblock=1:-2:-2 / analyse=0x3:0x113 / me=umh / subme=9 / psy=1 / psy_rd=0.90:0.00 / mixed_ref=1 / me_range=24 / chroma_me=1 / trellis=2 / 8x8dct=1 / cqm=0 / deadzone=21,11 / fast_pskip=0 / chroma_qp_offset=-2 / threads=9 / lookahead_threads=2 / sliced_threads=0 / nr=0 / decimate=0 / interlaced=0 / bluray_compat=0 / constrained_intra=0 / bframes=12 / b_pyramid=2 / b_adapt=2 / b_bias=0 / direct=1 / weightb=1 / open_gop=0 / weightp=2 / keyint=240 / keyint_min=24 / scenecut=40 / intra_refresh=0 / rc=crf / mbtree=0 / crf=16.0 / qcomp=0.72 / qpmin=0 / qpmax=81 / qpstep=4 / ip_ratio=1.40 / pb_ratio=1.30 / aq=1:0.90
Default : Да
Forced : Нет
Основные цвета : BT.709
Характеристики трансфера : BT.709
Коэффициенты матрицы : BT.709

Аудио
Идентификатор : 2
Формат : Vorbis
Параметр Floor формата : 1
Идентификатор кодека : A_VORBIS
Продолжительность : 15 м.
Вид битрейта : Переменный
Битрейт : 320 Кбит/сек
Каналы : 2 канала
Частота : 48,0 КГц
Метод сжатия : С потерями
Размер потока : 35,6 Мбайт (9%)
Библиотека кодирования : libVorbis (Schaufenugget) (20101101 (Schaufenugget))
Язык : Japanese
Default : Да
Forced : Нет

Меню
00:00:00.000 : :intro
00:02:05.667 : :OPening
00:03:35.757 : :main
00:14:01.340 : :EnDing



Трекер:  [ 02-Окт-2013 15:41 ]

  

Скачать .torrent

Размер .torrent файла 17 KB


Размер: 408 MB
Хэш (hash) релиза: 116b148b7fef9b1f6d753f666eeed859384212f6
Подписка на обновления:

Еще никто не оставлял запись к записи скачать торрент Ра-Зефон OVA RahXephon Kansoukyoku Kanojo to Kanojo Jishin to - Thatness and Thereness . Будь первым!

!Обратная связь