Скачать через торрент музыку Астрал: Глава 2 Insidious: Chapter 2 бесплатно без регистрации torrent

Если у вас наблюдаются проблемы со скриншотами, переходом по ссылками, скачиванием торрентов - проблемы в блокировщике рекламы AdBlock. #хорошегоДня!


Статистика раздачи
Размер:  263 MB   |    Зарегистрирован:  4 года   |    .torrent скачан:  29 раз   |   
Раздают:  1  
   
Загрузка...
 
Автор Сообщение

Galfimbul

avatar Galfimbul


Астрал: Глава 2 / Insidious: Chapter 2

Жанр: Score
Композитор: Joseph Bishara
Год выпуска диска: 2013
Страна-производитель диска: США
Издатель (лейбл): Void Recordings
Номер по каталогу: VR04

Аудиокодек: FLAC (*.flac)
Тип рипа: tracks+.cue
Битрейт аудио: lossless
Продолжительность: 46456

Источник: what.cd
Наличие сканов в содержимом раздачи: да

Доп. информация: Как всегда жуткий саундтрек Джозефа Бишара, в последнее время постоянного композитора Джеймса Вана к его же продолжению известного очень жуткого фильма!

Не менее знаменитый саундтрек к первому фильму в lossless!

Саундтрек Дж. Бишары к предыдущей картины Дж. Вана "Заклятие" (2013) в lossless!
01 Ghost Photographs (1:02)
02 Inside Your Dream (1:19)
03 The Flickering Entity (1:46)
04 Insidious Chapter 2 (3:22)
05 You Think I Did This (0:46)
06 New Home (0:44)
07 Empty Crib (0:31)
08 Empty Home (0:50)
09 Had A Bad Dream (1:24)
10 Who Behind Eyes (2:01)
11 Don''t You Dare (2:10)
12 Are You Here (2:41)
13 Only Ghosts Left (1:36)
14 This Is My Room (1:33)
15 To Live Again (1:24)
16 Mater Mortis (1:07)
17 Putrid Chamber (3:25)
18 Further Striking (1:14)
19 Feel Real Pain (2:01)
20 One Of The Dead (2:25)
21 The Mother (1:26)
22 Good Little Girl (1:07)
23 Closing Further (2:18)
24 Time To Forget (1:16)
25 New Haunting (1:15)
26 Void Figure 7 (сh2) (2:28)
Exact Audio Copy V1.0 beta 3 from 29. August 2011

EAC extraction logfile from 2. October 2013, 16:34

Joseph Bishara / Insidious: Chapter 2

Used drive : HL-DT-STBD-RE BH10LS38 Adapter: 2 ID: 0

Read mode : SecureUtilize accurate stream : YesDefeat audio cache : YesMake use of C2 pointers : No

Read offset correction : 667Overread into Lead-In and Lead-Out : NoFill up missing offset samples with silence : YesDelete leading and trailing silent blocks : NoNull samples used in CRC calculations : YesUsed interface : Native Win32 interface for Win NT & 2000Gap handling : Appended to previous track

Used output format : User Defined EncoderSelected bitrate : 768 kBit/sQuality : HighAdd ID3 tag : NoCommand line compressor : C:\Program Files (x86)\Exact Audio Copy\FLAC\FLAC.EXEAdditional command line options : -8 -V -T "ARTIST=%artist%" -T "TITLE=%title%" -T "ALBUM=%albumtitle%" -T "DATE=%year%" -T "TRACKNUMBER=%tracknr%" -T "GENRE=%genre%" -T "PERFORMER=%albuminterpret%" -T "COMPOSER=%composer%" %haslyrics%--tag-from-file=LYRICS="%lyricsfile%"%haslyrics% -T "ALBUMARTIST=%albumartist%" -T "ALBUM ARTIST=%albumartist%" -T "DISCNUMBER=%cdnumber%" -T "TOTALDISCS=%totalcds%" -T "TOTALTRACKS=%numtracks%" -T "COMMENT=%comment%" %source% -o %dest%

TOC of the extracted CD

Track | Start | Length | Start sector | End sector --------------------------------------------------------- 1 | 0:00.00 | 1:02.37 | 0 | 4686 2 | 1:02.37 | 1:18.64 | 4687 | 10600 3 | 2:21.26 | 1:46.33 | 10601 | 18583 4 | 4:07.59 | 3:22.01 | 18584 | 33734 5 | 7:29.60 | 0:45.47 | 33735 | 37156 6 | 8:15.32 | 0:44.01 | 37157 | 40457 7 | 8:59.33 | 0:31.11 | 40458 | 42793 8 | 9:30.44 | 0:50.23 | 42794 | 46566 9 | 10:20.67 | 1:23.56 | 46567 | 52847 10 | 11:44.48 | 2:01.33 | 52848 | 61955 11 | 13:46.06 | 2:09.65 | 61956 | 71695 12 | 15:55.71 | 2:41.11 | 71696 | 83781 13 | 18:37.07 | 1:36.22 | 83782 | 91003 14 | 20:13.29 | 1:33.11 | 91004 | 97989 15 | 21:46.40 | 1:23.51 | 97990 | 104265 16 | 23:10.16 | 1:07.07 | 104266 | 109297 17 | 24:17.23 | 3:24.68 | 109298 | 124665 18 | 27:42.16 | 1:14.31 | 124666 | 130246 19 | 28:56.47 | 2:01.33 | 130247 | 139354 20 | 30:58.05 | 2:24.38 | 139355 | 150192 21 | 33:22.43 | 1:26.09 | 150193 | 156651 22 | 34:48.52 | 1:06.42 | 156652 | 161643 23 | 35:55.19 | 2:17.68 | 161644 | 171986 24 | 38:13.12 | 1:15.68 | 171987 | 177679 25 | 39:29.05 | 1:14.42 | 177680 | 183271 26 | 40:43.47 | 2:27.73 | 183272 | 194369

Track 1

Filename C:\Users\chris\Desktop\Rips\01 - Ghost photographs.wav

Pre-gap length 0:00:02.00

Peak level 96.5 % Extraction speed 0.7 X Track quality 100.0 % Test CRC 3CF79B4B Copy CRC 3CF79B4B Track not present in AccurateRip database Copy OK

Track 2

Filename C:\Users\chris\Desktop\Rips\02 - inside your dream.wav

Peak level 28.0 % Extraction speed 0.8 X Track quality 100.0 % Test CRC 5486E902 Copy CRC 5486E902 Track not present in AccurateRip database Copy OK

Track 3

Filename C:\Users\chris\Desktop\Rips\03 - the flickering entity.wav

Peak level 100.0 % Extraction speed 0.9 X Track quality 100.0 % Test CRC 2139B5C8 Copy CRC 2139B5C8 Track not present in AccurateRip database Copy OK

Track 4

Filename C:\Users\chris\Desktop\Rips\04 - Insidious Chapter 2.wav

Peak level 65.6 % Extraction speed 1.1 X Track quality 100.0 % Test CRC 1CE88053 Copy CRC 1CE88053 Track not present in AccurateRip database Copy OK

Track 5

Filename C:\Users\chris\Desktop\Rips\05 - you think I did this.wav

Peak level 33.6 % Extraction speed 0.8 X Track quality 100.0 % Test CRC F60B7F34 Copy CRC F60B7F34 Track not present in AccurateRip database Copy OK

Track 6

Filename C:\Users\chris\Desktop\Rips\06 - new home.wav

Peak level 19.3 % Extraction speed 0.8 X Track quality 100.0 % Test CRC 8D689E7E Copy CRC 8D689E7E Track not present in AccurateRip database Copy OK

Track 7

Filename C:\Users\chris\Desktop\Rips\07 - empty crib.wav

Peak level 96.7 % Extraction speed 0.6 X Track quality 100.0 % Test CRC BBC5B53F Copy CRC BBC5B53F Track not present in AccurateRip database Copy OK

Track 8

Filename C:\Users\chris\Desktop\Rips\08 - empty home.wav

Peak level 39.1 % Extraction speed 0.8 X Track quality 100.0 % Test CRC 12C4ABC1 Copy CRC 12C4ABC1 Track not present in AccurateRip database Copy OK

Track 9

Filename C:\Users\chris\Desktop\Rips\09 - had a bad dream.wav

Peak level 61.6 % Extraction speed 1.0 X Track quality 100.0 % Test CRC BD74AB3F Copy CRC BD74AB3F Track not present in AccurateRip database Copy OK

Track 10

Filename C:\Users\chris\Desktop\Rips\10 - who behind eyes.wav

Peak level 96.3 % Extraction speed 1.2 X Track quality 100.0 % Test CRC 46A136F1 Copy CRC 46A136F1 Track not present in AccurateRip database Copy OK

Track 11

Filename C:\Users\chris\Desktop\Rips\11 - Don''t You Dare.wav

Peak level 97.5 % Extraction speed 1.3 X Track quality 100.0 % Test CRC 53BF8A31 Copy CRC 53BF8A31 Track not present in AccurateRip database Copy OK

Track 12

Filename C:\Users\chris\Desktop\Rips\12 - are you Here.wav

Peak level 96.3 % Extraction speed 1.4 X Track quality 100.0 % Test CRC C2F1672E Copy CRC C2F1672E Track not present in AccurateRip database Copy OK

Track 13

Filename C:\Users\chris\Desktop\Rips\13 - only Ghosts left.wav

Peak level 97.4 % Extraction speed 1.0 X Track quality 99.8 % Test CRC 37F11005 Copy CRC 37F11005 Track not present in AccurateRip database Copy OK

Track 14

Filename C:\Users\chris\Desktop\Rips\14 - this is My room.wav

Peak level 96.7 % Extraction speed 1.3 X Track quality 100.0 % Test CRC 97DEA9EE Copy CRC 97DEA9EE Track not present in AccurateRip database Copy OK

Track 15

Filename C:\Users\chris\Desktop\Rips\15 - to Live again.wav

Peak level 98.0 % Extraction speed 1.0 X Track quality 99.8 % Test CRC DBA6A396 Copy CRC DBA6A396 Track not present in AccurateRip database Copy OK

Track 16

Filename C:\Users\chris\Desktop\Rips\16 - Mater Mortis.wav

Peak level 96.5 % Extraction speed 1.2 X Track quality 100.0 % Test CRC 93BE3758 Copy CRC 93BE3758 Track not present in AccurateRip database Copy OK

Track 17

Filename C:\Users\chris\Desktop\Rips\17 - putrid chamber.wav

Peak level 96.5 % Extraction speed 1.6 X Track quality 100.0 % Test CRC 81FB1223 Copy CRC 81FB1223 Track not present in AccurateRip database Copy OK

Track 18

Filename C:\Users\chris\Desktop\Rips\18 - Further striking.wav

Peak level 96.5 % Extraction speed 1.3 X Track quality 100.0 % Test CRC 4EF61B5A Copy CRC 4EF61B5A Track not present in AccurateRip database Copy OK

Track 19

Filename C:\Users\chris\Desktop\Rips\19 - feel real Pain.wav

Peak level 97.5 % Extraction speed 1.5 X Track quality 100.0 % Test CRC 745534B9 Copy CRC 745534B9 Track not present in AccurateRip database Copy OK

Track 20

Filename C:\Users\chris\Desktop\Rips\20 - one of the Dead.wav

Peak level 97.0 % Extraction speed 1.6 X Track quality 100.0 % Test CRC 0CBAA85A Copy CRC 0CBAA85A Track not present in AccurateRip database Copy OK

Track 21

Filename C:\Users\chris\Desktop\Rips\21 - the Mother.wav

Peak level 97.6 % Extraction speed 1.5 X Track quality 100.0 % Test CRC 7FE4B2E7 Copy CRC 7FE4B2E7 Track not present in AccurateRip database Copy OK

Track 22

Filename C:\Users\chris\Desktop\Rips\22 - good little girl.wav

Peak level 96.9 % Extraction speed 1.4 X Track quality 100.0 % Test CRC 85F2DA87 Copy CRC 85F2DA87 Track not present in AccurateRip database Copy OK

Track 23

Filename C:\Users\chris\Desktop\Rips\23 - closing Further.wav

Peak level 66.5 % Extraction speed 1.7 X Track quality 100.0 % Test CRC D5B3353F Copy CRC D5B3353F Track not present in AccurateRip database Copy OK

Track 24

Filename C:\Users\chris\Desktop\Rips\24 - time to forget.wav

Peak level 60.1 % Extraction speed 1.5 X Track quality 100.0 % Test CRC B211A031 Copy CRC B211A031 Track not present in AccurateRip database Copy OK

Track 25

Filename C:\Users\chris\Desktop\Rips\25 - new haunting.wav

Peak level 55.8 % Extraction speed 1.4 X Track quality 100.0 % Test CRC 4E19C551 Copy CRC 4E19C551 Track not present in AccurateRip database Copy OK

Track 26

Filename C:\Users\chris\Desktop\Rips\26 - void figure 7 (ch2).wav

Peak level 80.5 % Extraction speed 1.8 X Track quality 100.0 % Test CRC F9C0A727 Copy CRC F9C0A727 Track not present in AccurateRip database Copy OK

None of the tracks are present in the AccurateRip database

No errors occurred

End of status report

==== Log checksum 4856C4C070C1D1823CF9A3EDF7476F342A47750DF09EE2DEC9DC5021A1EB5DCA ====
REM GENRE SoundtrackREM DATE 2013REM DISCID 5C0A1F1AREM COMMENT "ExactAudioCopy v1.0b3"PERFORMER "Joseph Bishara"TITLE "Insidious. Chapter 2"FILE "01 Ghost Photographs.wav" WAVE TRACK 01 AUDIO TITLE "Ghost Photographs" PERFORMER "Joseph Bishara" INDEX 01 00:00:00FILE "02 Inside Your Dream.wav" WAVE TRACK 02 AUDIO TITLE "Inside Your Dream" PERFORMER "Joseph Bishara" INDEX 01 00:00:00FILE "03 The Flickering Entity.wav" WAVE TRACK 03 AUDIO TITLE "The Flickering Entity" PERFORMER "Joseph Bishara" INDEX 01 00:00:00FILE "04 Insidious Chapter 2.wav" WAVE TRACK 04 AUDIO TITLE "Insidious Chapter 2" PERFORMER "Joseph Bishara" INDEX 01 00:00:00FILE "05 You Think I Did This.wav" WAVE TRACK 05 AUDIO TITLE "You Think I Did This" PERFORMER "Joseph Bishara" INDEX 01 00:00:00FILE "06 New Home.wav" WAVE TRACK 06 AUDIO TITLE "New Home" PERFORMER "Joseph Bishara" INDEX 01 00:00:00FILE "07 Empty Crib.wav" WAVE TRACK 07 AUDIO TITLE "Empty Crib" PERFORMER "Joseph Bishara" INDEX 01 00:00:00FILE "08 Empty Home.wav" WAVE TRACK 08 AUDIO TITLE "Empty Home" PERFORMER "Joseph Bishara" INDEX 01 00:00:00FILE "09 Had A Bad Dream.wav" WAVE TRACK 09 AUDIO TITLE "Had A Bad Dream" PERFORMER "Joseph Bishara" INDEX 01 00:00:00FILE "10 Who Behind Eyes.wav" WAVE TRACK 10 AUDIO TITLE "Who Behind Eyes" PERFORMER "Joseph Bishara" INDEX 01 00:00:00FILE "11 Don''t You Dare.wav" WAVE TRACK 11 AUDIO TITLE "Don''t You Dare" PERFORMER "Joseph Bishara" INDEX 01 00:00:00FILE "12 Are You Here.wav" WAVE TRACK 12 AUDIO TITLE "Are You Here" PERFORMER "Joseph Bishara" INDEX 01 00:00:00FILE "13 Only Ghosts Left.wav" WAVE TRACK 13 AUDIO TITLE "Only Ghosts Left" PERFORMER "Joseph Bishara" INDEX 01 00:00:00FILE "14 This Is My Room.wav" WAVE TRACK 14 AUDIO TITLE "This Is My Room" PERFORMER "Joseph Bishara" INDEX 01 00:00:00FILE "15 To Live Again.wav" WAVE TRACK 15 AUDIO TITLE "To Live Again" PERFORMER "Joseph Bishara" INDEX 01 00:00:00FILE "16 Mater Mortis.wav" WAVE TRACK 16 AUDIO TITLE "Mater Mortis" PERFORMER "Joseph Bishara" INDEX 01 00:00:00FILE "17 Putrid Chamber.wav" WAVE TRACK 17 AUDIO TITLE "Putrid Chamber" PERFORMER "Joseph Bishara" INDEX 01 00:00:00FILE "18 Further Striking.wav" WAVE TRACK 18 AUDIO TITLE "Further Striking" PERFORMER "Joseph Bishara" INDEX 01 00:00:00FILE "19 Feel Real Pain.wav" WAVE TRACK 19 AUDIO TITLE "Feel Real Pain" PERFORMER "Joseph Bishara" INDEX 01 00:00:00FILE "20 One Of The Dead.wav" WAVE TRACK 20 AUDIO TITLE "One Of The Dead" PERFORMER "Joseph Bishara" INDEX 01 00:00:00FILE "21 The Mother.wav" WAVE TRACK 21 AUDIO TITLE "The Mother" PERFORMER "Joseph Bishara" INDEX 01 00:00:00FILE "22 Good Little Girl.wav" WAVE TRACK 22 AUDIO TITLE "Good Little Girl" PERFORMER "Joseph Bishara" INDEX 01 00:00:00FILE "23 Closing Further.wav" WAVE TRACK 23 AUDIO TITLE "Closing Further" PERFORMER "Joseph Bishara" INDEX 01 00:00:00FILE "24 Time To Forget.wav" WAVE TRACK 24 AUDIO TITLE "Time To Forget" PERFORMER "Joseph Bishara" INDEX 01 00:00:00FILE "25 New Haunting.wav" WAVE TRACK 25 AUDIO TITLE "New Haunting" PERFORMER "Joseph Bishara" INDEX 01 00:00:00FILE "26 Void Figure 7 (сh2).wav" WAVE TRACK 26 AUDIO TITLE "Void Figure 7 (сh2)" PERFORMER "Joseph Bishara" INDEX 01 00:00:00
46456




Трекер:  [ 14-Дек-2013 21:44 ]

  

Скачать .torrent

Размер .torrent файла 12 KB


Размер: 263 MB
Хэш (hash) релиза: 9aa49aaff7a9dc8eef4cdc5a95984bccff549472

Торренты, похожие на Астрал: Глава 2 Insidious: Chapter 2 скачать торрент

Форум Название Автор Размер S L Добавлен
Саундтреки к фильмам и мультфильмам (mp3) ·· (Score) Астрал, Астрал: Глава 2 / Insidious, Insidious: Chapter 2 (by Joseph Bishara) - 2011 - 2013, MP3, 320 kbps Galfimbul 202861960193 MB 0 0 1378910468

17:41

11-Сен-13

bot

Топик был перенесен в форум Саундтреки к фильмам и мультфильмам (lossless)

Перенес Galfimbul

Хотите добавить комментарий к записи скачать торрент Астрал: Глава 2 Insidious: Chapter 2

!Обратная связь