Скачать через торрент Приключения породистого отаку Outbreak Company бесплатно Аниме Все серии на русском torrent

Если у вас наблюдаются проблемы со скриншотами, переходом по ссылками, скачиванием торрентов - проблемы в блокировщике рекламы AdBlock. #хорошегоДня!


Статистика раздачи
Размер:  524 MB   |    Зарегистрирован:  4 года 2 месяца   |    .torrent скачан:  9 раз   |   
Раздают:  1  
   
Загрузка...
 
Автор Сообщение

Galfimbul

avatar Galfimbul


Приключения породистого отаку / Outbreak Company

Страна: Япония
Год выпуска: 2013 г.
Жанр: приключения
Тип: TV
Продолжительность: 25 мин.

Режиссер: Ойкава Кэй

Описание: Шиничи Кано отаку до мозга костей. Он не имеет никаких особых способностей, за исключением обширных знаний о «моэ» культуре и ее продукции; он знает всё о манге, аниме, играх, лайт-новеллах и фигуркам которые относятся к «моэ». В один прекрасный день его призывают фантастический мир, где живут эльфы и летают драконы, дают задание, и не просто задание, скажем, бороться с монстрами или спасти принцессу, а пропагандировать моэ культуру в этом мире! Приняв такой странный вызов он повстречается с дворцовой стражей, горничной полуэльфийкой и императрицей, которая является маленькой девочкой. Сначала он занимается этим просто так, для веселья, но позже появляются серьезные вопросы, которые Шиничи должен решить сам: этническая дискриминация, социальные проблемы, конфликты с соседними странами, проблемы с оппозицией, включая японское правительство и т.д. Сможет ли он преодолеть препятствия и успешно принести «моэ» культуру в фэнтезийный мир?

Качество: HDTVRip
Тип релиза: Без хардсаба
Формат видео: MP4
Наличие линковки: Нет
Релиз/Автор рипа: Zero-Raws
Видео: H264, 1280x720, 1345 kbps, 23.976 fps, 8 bit
Аудио: AAC, 207 kbps, 48000 Hz, 2ch Язык Японский
Субтитры: ass, внешние Язык субтитров русский ; Перевод:
Редактор: antibillotic
Переводчик: kuro
Оформление: ximik

Не забываем "благодарить" и писать комментарии. Вам не сложно, а мне приятно.
General
Complete name                    : E:\ongoing\Outbreak company\[Zero-Raws] Outbreak company - 01 (TBS 1280x720 x264 AAC).mp4
Format                           : MPEG-4
Format profile                   : Base Media
Codec ID                         : isom
File size                        : 273 MiB
Duration                         : 24mn 29s
Overall bit rate                 : 1 556 Kbps
Encoded date                     : UTC 2013-10-03 17:37:02
Tagged date                      : UTC 2013-10-03 17:37:02

Video
ID                               : 1
Format                           : AVC
Format/Info                      : Advanced Video Codec
Format profile                   : High@L3.1
Format settings, CABAC           : Yes
Format settings, ReFrames        : 4 frames
Codec ID                         : avc1
Codec ID/Info                    : Advanced Video Coding
Duration                         : 24mn 29s
Bit rate                         : 1 345 Kbps
Maximum bit rate                 : 8 618 Kbps
Width                            : 1 280 pixels
Height                           : 720 pixels
Display aspect ratio             : 16:9
Frame rate mode                  : Constant
Frame rate                       : 23.976 fps
Color space                      : YUV
Chroma subsampling               : 4:2:0
Bit depth                        : 8 bits
Scan type                        : Progressive
Bits/(Pixel*Frame)               : 0.061
Stream size                      : 236 MiB (86%)
Writing library                  : x264 core 133 r2334 a3ac64b
Encoding settings                : cabac=1 / ref=3 / deblock=1:0:0 / analyse=0x3:0x113 / me=hex / subme=7 / psy=1 / psy_rd=1.00:0.00 / mixed_ref=1 / me_range=16 / chroma_me=1 / trellis=1 / 8x8dct=1 / cqm=0 / deadzone=21,11 / fast_pskip=1 / chroma_qp_offset=-2 / threads=12 / lookahead_threads=2 / sliced_threads=0 / nr=0 / decimate=1 / interlaced=0 / bluray_compat=0 / constrained_intra=0 / bframes=3 / b_pyramid=2 / b_adapt=1 / b_bias=0 / direct=1 / weightb=1 / open_gop=0 / weightp=2 / keyint=250 / keyint_min=23 / scenecut=40 / intra_refresh=0 / rc_lookahead=40 / rc=crf / mbtree=1 / crf=19.5 / qcomp=0.60 / qpmin=0 / qpmax=69 / qpstep=4 / ip_ratio=1.40 / aq=1:1.00
Encoded date                     : UTC 2013-10-03 17:19:11
Tagged date                      : UTC 2013-10-03 17:37:03

Audio
ID                               : 2
Format                           : AAC
Format/Info                      : Advanced Audio Codec
Format profile                   : LC
Codec ID                         : 40
Duration                         : 24mn 29s
Bit rate mode                    : Variable
Bit rate                         : 207 Kbps
Maximum bit rate                 : 269 Kbps
Channel(s)                       : 2 channels
Channel positions                : Front: L R
Sampling rate                    : 48.0 KHz
Compression mode                 : Lossy
Stream size                      : 36.3 MiB (13%)
Language                         : Japanese
Encoded date                     : UTC 2013-10-03 17:19:25
Tagged date                      : UTC 2013-10-03 17:37:03
01. episode 1


Трекер:  [ 14-Окт-2013 17:51 ]

  

Скачать .torrent

Размер .torrent файла 11 KB


Размер: 524 MB
Хэш (hash) релиза: 46daf53e4c183292eaedf1f8d99e093e553e7679
Подписка на обновления:

bot

Топик был перенесен в форум Аниме | HD Rips

Перенес Galfimbul

Хотите добавить комментарий к записи скачать торрент Приключения породистого отаку Outbreak Company

!Обратная связь