Скачать через торрент Божественные куклы Kamisama Dolls бесплатно Аниме Все серии на русском torrent

Если у вас наблюдаются проблемы со скриншотами, переходом по ссылками, скачиванием торрентов - проблемы в блокировщике рекламы AdBlock. #хорошегоДня!


Статистика раздачи
Размер:  11.07 GB   |    Зарегистрирован:  4 года 1 месяц   |    .torrent скачан:  38 раз   |   
Раздают:  1  
   
Загрузка...
 
Автор Сообщение

Polarnik

avatar Polarnik



Год выпуска: 2011
Страна: Япония
Жанр: приключения, мистика
Продолжительность: 13 эп. по 24 мин.
Перевод:

русские субтитры от Advantage (ТВ, полные/вспомогательные)
редактор: DeK, переводчик/оформление: Nachtwandler, перевод песен: Silver Phoenix
русские субтитры от Dreamers Team (спешлы)
переводчик: Hige-san, редактор: Bel-chan
Режиссер: Киси Сэйдзи
Студия: Brains Base
Описание:
На студенческой вечеринке товарищи подпоили первокурсника Кёхэя Кугу и отправили признаваться всеобщей любимице Хибино Сиба, мотивируя тем, что отец девушки, хоть и столичный житель, а родом из тех же мест. Увы, парень не рассчитал сил, в итоге добросердечная Хибино сама осталась провожать утомившегося кавалера. Но хмель мигом слетел с Кёхэя, когда в вызванном лифте они с подругой увидели изрубленное тело. Несмотря на вид, главный герой узнал убитого земляка и не особо удивился, когда вечером в его жилище явилась «какаси» - Божественная кукла. А чего удивляться, если именно эту куклу по имени Кукури он оставил перед отъездом младшей сестренке Утао, следующей Посвященной?

Уже много веков в деревне Сорамори существует Храм - тайный орден, Посвященные которого могут подчинять «оболочки Бога» или Божественные куклы – сверхъестественные существа, обладающие огромной мощью. От сестры герой узнал, что Аки, их родич-отступник, убивший своей силой множество людей, бежал из заключения и явился в Токио – очевидно, по его душу. После небольшого разговора с появившимся Аки квартира бедного Кёхэя оказалась уничтожена, но отец Хибино замял дело и пригласил ребят пожить у него, на робкие возражения ответив, что таковы приказы Храма, а они не обсуждаются. Итак, Куга (к явному неудовольствию младшей сестры) соединился с любимой. Вот только приятно ли сознавать, что, куда ни убегай от прошлого, а собственная судьба тебе, похоже, не принадлежит?
© Hollow, World Art
Информационные ссылки: AniDB || World Art || MAL
Качество: BDRip
Энкод: Yousei-raws | #yousei-raws@irc. rizon. net
Тип видео: без хардсаба
Формат: mkv
Видео: x264 (Hi10p), 1280x720, ~3000 Kbps, 23.976 fps
Аудио JAP: Vorbis, 48000Hz, ~256 Kbps, 2ch
Аудио RUS 1,2,3: AAC, 48000Hz, ~192 Kbps, 2ch (внешними файлами)
Аудио RUS 4,5: AC3, 48000Hz, ~192 Kbps, 2ch (внешними файлами)
одноголосая (муж.) от Ancord (AniDub)
одноголосая (муж.) от Dark_Demon
двухголосая (муж./жен.) от Lupin & Say (Animedia)
двухголосая (жен./муж.) от Milirina & Sad_kit (Anything-group)
двухголосая (муж./жен.) от maxzer & Persona99 (GetSmart)
01. A God Arrives
02. A God`s Training
03. It Attacks...
04. Heruma
05. To Home...
06. Karakami Village
07. Portrait of Memories
08. The Role of a God
09. Tangled Relations
10. The Princess Arrives
11. Hibino Kidnapped
12. Out of Control
13. Kuga Kyohei, the Seki
Общее
Уникальный идентификатор : 248673890679680255467486253032742566707 (0xBB14D9681A3A8DA182FAEC4D345FBB33)
Полное имя : Z:\Anime\720p\Kamisama Dolls [BD] [720p]\[Yousei-raws] Kamisama Dolls 01 [BDrip 1280x720 x264 Vorbis].mkv
Формат : Matroska
Версия формата : Version 2
Размер файла : 614 Мбайт
Продолжительность : 23 м.
Режим общего битрейта : Переменный
Общий поток : 3598 Кбит/сек
Дата кодирования : UTC 2011-11-22 06:08:58
Программа кодирования : mkvmerge v2.9.7 (''Tenderness'') built on Jul 1 2009 18:43:35
Библиотека кодирования : libebml v0.7.7 + libmatroska v0.8.1

Видео
Идентификатор : 1
Формат : AVC
Формат/Информация : Advanced Video Codec
Профиль формата : High 10@L4.1
Параметр CABAC формата : Да
Параметр ReFrames формата : 9 кадров
Идентификатор кодека : V_MPEG4/ISO/AVC
Продолжительность : 23 м.
Битрейт : 3270 Кбит/сек
Ширина : 1280 пикселей
Высота : 720 пикселей
Соотношение сторон : 16:9
Режим частоты кадров : Постоянный
Частота кадров : 23,976 кадра/сек
Цветовое пространство : YUV
Субдискретизация насыщенности : 4:2:0
Битовая глубина : 10 бит
Тип развёртки : Прогрессивная
Бит/(Пиксели*Кадры) : 0.148
Размер потока : 558 Мбайт (91%)
Библиотека кодирования : x264 core 118 r2085+614 d1cc25d
Настройки программы : cabac=1 / ref=9 / deblock=1:-2:-2 / analyse=0x3:0x133 / me=umh / subme=9 / psy=1 / fade_compensate=0.00 / psy_rd=0.80:0.00 / mixed_ref=1 / me_range=24 / chroma_me=1 / trellis=2 / 8x8dct=1 / cqm=0 / deadzone=21,11 / fast_pskip=1 / chroma_qp_offset=-2 / threads=6 / sliced_threads=0 / nr=0 / decimate=0 / interlaced=0 / bluray_compat=0 / constrained_intra=0 / fgo=0 / bframes=8 / b_pyramid=2 / b_adapt=2 / b_bias=0 / direct=1 / weightb=1 / open_gop=0 / weightp=2 / keyint=250 / keyint_min=23 / scenecut=40 / intra_refresh=0 / rc=crf / mbtree=0 / crf=15.8 / qcomp=0.70 / qpmin=9 / qpmax=38 / qpstep=4 / ip_ratio=1.40 / pb_ratio=1.30 / aq=1:0.90
Default : Да
Forced : Нет

Аудио
Идентификатор : 2
Формат : Vorbis
Параметр Floor формата : 1
Идентификатор кодека : A_VORBIS
Продолжительность : 23 м.
Вид битрейта : Переменный
Битрейт : 256 Кбит/сек
Каналы : 2 канала
Частота : 48,0 КГц
Метод сжатия : С потерями
Размер потока : 43,7 Мбайт (7%)
Библиотека кодирования : libVorbis (Schaufenugget) (20101101 (Schaufenugget))
Язык : Japanese
Default : Да
Forced : Нет


Данный релиз предназначен для просмотра на ПК. Воспроизведение на иных проигрывателях не гарантируется. Для просмотра рекомендуется Media Player Classic с установленным пакетом кодеков K-Lite.

Данный релиз содержит 10-битное видео (Hi10p). Для корректного воспроизведения обязательно используйте кодеки, поддерживающие 10-битное видео.

Данный релиз предназначен для просмотра с внешними субтитрами и внешними звуковыми дорожками.

[b]Для просмотра с внешней звуковой дорожкой нужно:
перекинуть файлы .mka из папки "RUS Sound [<автор(ы) озвучки>]" в одну папку с видео и переключить звуковую дорожку в плеере при просмотре.
Для просмотра с субтитрами нужно:
перекинуть файлы .ass из папки "RUS Subtitles [<автор(ы) перевода>]" в одну папку с видео - плеер подгрузит их автоматически при открытии видео.


Трекер:  [ 28-Окт-2013 09:13 ]

  

Скачать .torrent

Размер .torrent файла 71 KB


Размер: 11.07 GB
Хэш (hash) релиза: 954ffb326cc02d4f0b9701fd5de5bf3abb0e3d05
Подписка на обновления:

Торренты, похожие на Божественные куклы Kamisama Dolls скачать торрент

Форум Название Автор Размер S L Добавлен
Аниме | HD Rips ·· Божественные куклы / Kamisama Dolls [01-05 из 13] [TV] [без хардсаба] [RUS(int), JAP+SUB] [2011, приключения, фантастика, романтика, BDRip] [720p] Galfimbul 20017253601.86 GB 0 0 1342515180

11:53

17-Июл-12

Еще никто не оставлял запись к записи скачать торрент Божественные куклы Kamisama Dolls . Будь первым!

!Обратная связь