Скачать через торрент музыку Ночь живых мертвецов Night Of The Living Dead бесплатно без регистрации torrent

Если у вас наблюдаются проблемы со скриншотами, переходом по ссылками, скачиванием торрентов - проблемы в блокировщике рекламы AdBlock. #хорошегоДня!


Статистика раздачи
Размер:  296 MB   |    Зарегистрирован:  3 года 11 месяцев   |    .torrent скачан:  38 раз   |   
Раздают:  1  
   
Загрузка...
 
Автор Сообщение

Galfimbul

avatar Galfimbul


Ночь живых мертвецов / Night Of The Living Dead

Жанр: Score
Композитор: Paul McCollough
Год выпуска диска: 2002
Год выпуска фильма: 1990
Страна-производитель диска: США
Издатель (лейбл): Numenorean Music
Номер по каталогу: NMCD 002

Аудиокодек: FLAC (*.flac)
Тип рипа: tracks+.cue
Битрейт аудио: lossless
Продолжительность: 01:02:05

Источник: forums.ffshrine.org
Наличие сканов в содержимом раздачи: да

Треклист:
01 Cemetery (3:13)
02 Farmhouse (5:10)
03 Tensionizer (1:10)
04 Twin Geeks (3:16)
05 The Pity Of Angels (2:49)
06 Boarding School (2:18)
07 Talking Points (6:00)
08 Courage To Go (7:27)
09 Pump Run (9:27)
10 Zombies Win! Zombies Win! (9:22)
11 Passage To Normal (11:55)

Доп. информация: Саундтрек к ремейку 1990 года культового зомби-хоррора Джорджа Ромеро 1968 года, выполненного знаменитым постановщиком спецэффектов Томом Савини (Tom Savini).

Единственное недоразумением во всём этом - вся музыка является заново сыгранной и перезаписанной в 2002 году. Дескать, как написано в буклете, автора не устроило качество оригинальных записей 1990 года! Тем более обидно, что данный релиз - единственное издание саундтрека.
Exact Audio Copy V0.99 prebeta 4 from 23. January 2008

EAC extraction logfile from 24. October 2013, 18:17

Paul McCollough / Night Of The Living Dead (Original Score From The Motion Picture)

Used drive : PIONEER DVD RW DVR-109 Adapter: 1 ID: 0

Read mode : SecureUtilize accurate stream : YesDefeat audio cache : YesMake use of C2 pointers : No

Read offset correction : 48Overread into Lead-In and Lead-Out : NoFill up missing offset samples with silence : YesDelete leading and trailing silent blocks : NoNull samples used in CRC calculations : YesUsed interface : Native Win32 interface for Win NT & 2000Gap handling : Appended to previous track

Used output format : Internal WAV RoutinesSample format : 44.100 Hz; 16 Bit; Stereo

TOC of the extracted CD

Track | Start | Length | Start sector | End sector --------------------------------------------------------- 1 | 0:00.00 | 3:12.53 | 0 | 14452 2 | 3:12.53 | 5:10.22 | 14453 | 37724 3 | 8:23.00 | 1:10.08 | 37725 | 42982 4 | 9:33.08 | 3:15.44 | 42983 | 57651 5 | 12:48.52 | 2:48.64 | 57652 | 70315 6 | 15:37.41 | 2:17.59 | 70316 | 80649 7 | 17:55.25 | 5:59.39 | 80650 | 107613 8 | 23:54.64 | 7:26.65 | 107614 | 141128 9 | 31:21.54 | 9:27.00 | 141129 | 183653 10 | 40:48.54 | 9:22.04 | 183654 | 225807 11 | 50:10.58 | 11:54.44 | 225808 | 279401

Track 1

Filename C:\Documents and Settings\My Documents\My Music\Paul McCollough\2002 - Night Of The Living Dead (Original Score From The Motion Picture)\01. Cemetery.wav

Pre-gap length 0:00:02.00

Peak level 94.3 % Track quality 100.0 % Test CRC 1A47CC08 Copy CRC 1A47CC08 Accurately ripped (confidence 1) [C2C49B2A] Copy OK

Track 2

Filename C:\Documents and Settings\My Documents\My Music\Paul McCollough\2002 - Night Of The Living Dead (Original Score From The Motion Picture)\02. Farmhouse.wav

Pre-gap length 0:00:03.00

Peak level 95.3 % Track quality 100.0 % Test CRC 476F3DA1 Copy CRC 476F3DA1 Accurately ripped (confidence 1) [64F48343] Copy OK

Track 3

Filename C:\Documents and Settings\My Documents\My Music\Paul McCollough\2002 - Night Of The Living Dead (Original Score From The Motion Picture)\03. Tensionizer.wav

Pre-gap length 0:00:03.00

Peak level 52.3 % Track quality 100.0 % Test CRC 8A9EC7BE Copy CRC 8A9EC7BE Accurately ripped (confidence 1) [F6BAD74C] Copy OK

Track 4

Filename C:\Documents and Settings\My Documents\My Music\Paul McCollough\2002 - Night Of The Living Dead (Original Score From The Motion Picture)\04. Twin Geeks.wav

Pre-gap length 0:00:03.00

Peak level 65.8 % Track quality 100.0 % Test CRC 1EB8F9DC Copy CRC 1EB8F9DC Accurately ripped (confidence 1) [C615977B] Copy OK

Track 5

Filename C:\Documents and Settings\My Documents\My Music\Paul McCollough\2002 - Night Of The Living Dead (Original Score From The Motion Picture)\05. The Pity Of Angels.wav

Pre-gap length 0:00:03.00

Peak level 94.4 % Track quality 100.0 % Test CRC EA1A796E Copy CRC EA1A796E Accurately ripped (confidence 1) [E7C2056B] Copy OK

Track 6

Filename C:\Documents and Settings\My Documents\My Music\Paul McCollough\2002 - Night Of The Living Dead (Original Score From The Motion Picture)\06. Boarding School.wav

Pre-gap length 0:00:03.00

Peak level 33.5 % Track quality 100.0 % Test CRC E34BD5D8 Copy CRC E34BD5D8 Accurately ripped (confidence 1) [E659277A] Copy OK

Track 7

Filename C:\Documents and Settings\My Documents\My Music\Paul McCollough\2002 - Night Of The Living Dead (Original Score From The Motion Picture)\07. Talking Points.wav

Pre-gap length 0:00:03.00

Peak level 96.3 % Track quality 100.0 % Test CRC E282F480 Copy CRC E282F480 Accurately ripped (confidence 1) [0056219C] Copy OK

Track 8

Filename C:\Documents and Settings\My Documents\My Music\Paul McCollough\2002 - Night Of The Living Dead (Original Score From The Motion Picture)\08. Courage To Go.wav

Pre-gap length 0:00:03.00

Peak level 95.3 % Track quality 100.0 % Test CRC 8B120057 Copy CRC 8B120057 Accurately ripped (confidence 1) [225FB1DD] Copy OK

Track 9

Filename C:\Documents and Settings\My Documents\My Music\Paul McCollough\2002 - Night Of The Living Dead (Original Score From The Motion Picture)\09. Pump Run.wav

Pre-gap length 0:00:03.00

Peak level 96.9 % Track quality 100.0 % Test CRC 16044189 Copy CRC 16044189 Accurately ripped (confidence 1) [D4DA2381] Copy OK

Track 10

Filename C:\Documents and Settings\My Documents\My Music\Paul McCollough\2002 - Night Of The Living Dead (Original Score From The Motion Picture)\10. Zombies Win! Zombies Win!.wav

Pre-gap length 0:00:03.00

Peak level 95.6 % Track quality 100.0 % Test CRC ACE84C4A Copy CRC ACE84C4A Accurately ripped (confidence 1) [8F2A360C] Copy OK

Track 11

Filename C:\Documents and Settings\My Documents\My Music\Paul McCollough\2002 - Night Of The Living Dead (Original Score From The Motion Picture)\11. Passage To Normal.wav

Pre-gap length 0:00:03.00

Peak level 99.2 % Track quality 100.0 % Test CRC B0151911 Copy CRC B0151911 Accurately ripped (confidence 1) [F2D1DE11] Copy OK

All tracks accurately ripped

No errors occurred

End of status report
REM GENRE SoundtrackREM DATE 2002REM DISCID 900E8D0BREM COMMENT "ExactAudioCopy v0.99pb4"PERFORMER "Paul McCollough"TITLE "Night Of The Living Dead"FILE "01 Cemetery.wav" WAVE TRACK 01 AUDIO FLAGS DCP PERFORMER "Paul McCollough" TITLE "Cemetery" INDEX 01 00:00:00 TRACK 02 AUDIO FLAGS DCP PERFORMER "Paul McCollough" TITLE "Farmhouse" INDEX 00 03:09:53FILE "02 Farmhouse.wav" WAVE INDEX 01 00:00:00 TRACK 03 AUDIO FLAGS DCP PERFORMER "Paul McCollough" TITLE "Tensionizer" INDEX 00 05:07:22FILE "03 Tensionizer.wav" WAVE INDEX 01 00:00:00 TRACK 04 AUDIO FLAGS DCP PERFORMER "Paul McCollough" TITLE "Twin Geeks" INDEX 00 01:07:08FILE "04 Twin Geeks.wav" WAVE INDEX 01 00:00:00 TRACK 05 AUDIO FLAGS DCP PERFORMER "Paul McCollough" TITLE "The Pity Of Angels" INDEX 00 03:12:44FILE "05 The Pity Of Angels.wav" WAVE INDEX 01 00:00:00 TRACK 06 AUDIO FLAGS DCP PERFORMER "Paul McCollough" TITLE "Boarding School" INDEX 00 02:45:64FILE "06 Boarding School.wav" WAVE INDEX 01 00:00:00 TRACK 07 AUDIO FLAGS DCP PERFORMER "Paul McCollough" TITLE "Talking Points" INDEX 00 02:14:59FILE "07 Talking Points.wav" WAVE INDEX 01 00:00:00 TRACK 08 AUDIO FLAGS DCP PERFORMER "Paul McCollough" TITLE "Courage To Go" INDEX 00 05:56:39FILE "08 Courage To Go.wav" WAVE INDEX 01 00:00:00 TRACK 09 AUDIO FLAGS DCP PERFORMER "Paul McCollough" TITLE "Pump Run" INDEX 00 07:23:65FILE "09 Pump Run.wav" WAVE INDEX 01 00:00:00 TRACK 10 AUDIO FLAGS DCP PERFORMER "Paul McCollough" TITLE "Zombies Win! Zombies Win!" INDEX 00 09:24:00FILE "10 Zombies Win! Zombies Win!.wav" WAVE INDEX 01 00:00:00 TRACK 11 AUDIO FLAGS DCP PERFORMER "Paul McCollough" TITLE "Passage To Normal" INDEX 00 09:19:04FILE "11 Passage To Normal.wav" WAVE INDEX 01 00:00:00




Трекер:  [ 14-Дек-2013 21:44 ]

  

Скачать .torrent

Размер .torrent файла 13 KB


Размер: 296 MB
Хэш (hash) релиза: 5043a70530205c3989e66636e1a3465d4aeb624c

Торренты, похожие на Ночь живых мертвецов Night Of The Living Dead скачать торрент

Форум Название Автор Размер S L Добавлен
Саундтреки к фильмам и мультфильмам (lossless) ·· (Score) Ночь живых мертвецов / Night Of The Living Dead (They Won't Stay Dead! Music from the Soundtrack of Night Of The Living Dead) - 2010 (1968), FLAC (tracks+.cue), lossless Galfimbul 370645171353 MB 0 0 1322394182

14:43

27-Ноя-11

Саундтреки к фильмам и мультфильмам (mp3) ·· (Score) Ночь живых мертвецов / Night Of The Living Dead (by Paul McCollough) - 2001 (1990), MP3, 320 kbps Galfimbul 149180788142 MB 0 0 1324924311

21:31

26-Дек-11

bot

Топик был перенесен в форум Саундтреки к фильмам и мультфильмам (lossless)

Перенес Galfimbul

Хотите добавить комментарий к записи скачать торрент Ночь живых мертвецов Night Of The Living Dead

!Обратная связь