Скачать через торрент Хроники клуба Возвращения домой Kitakubu Katsudou Kiroku бесплатно Аниме Все серии на русском torrent

Если у вас наблюдаются проблемы со скриншотами, переходом по ссылками, скачиванием торрентов - проблемы в блокировщике рекламы AdBlock. #хорошегоДня!


Статистика раздачи
Размер:  7.75 GB   |    Зарегистрирован:  3 года 9 месяцев   |    .torrent скачан:  32 раза   |   
Раздают:  1  
   
Загрузка...
 
Автор Сообщение

Polarnik

avatar Polarnik



Год выпуска: 2013
Страна: Япония
Жанр: комедия
Продолжительность: ТВ-сериал, 12 эп. по 24 мин. + 15 спешлов
Выпуск: c 05.07.2013 по 11.10.2013
Перевод:

русские субтитры от CAMELIASUBS (полные/вспомогательные) [1-5]
редакторы: justbell, Lukeshka, переводчик: LeoDreaM

русские субтитры от Дмитрий Седоченко (полные/вспомогательные) [6-12 TV + 1-9 SP]
Режиссер: Сато Хикару
Студия: Nomad
Описание:
Отчаянная выдумщица Сакура создала в родной школе «Клуб возвращения домой» не ради поиска пришельцев или завоевания чемпионских титулов, а просто так, чтобы после уроков было где сбросить напряжение от постоянной зубрежки. К ней тут же присоединились лучшие подруги – немногословная Ботан, мастерица всяческих воинских искусств, и Клейр, наследница мега-корпорации, предпочитающая вести жизнь «обычной школьницы». И все бы хорошо, но первый год показал, что в клубе явно кого-то не хватает!

Пришла весна, сакура зацвела снова, и вакантные места заполнились. Клубным талисманом, без которого в этом жанре вообще никуда, стала милашка Карин, один взгляд на которую у любого вызовет острый приступ «каваизма». Роль носительницы здравого смысла досталась Нацуки – девушке с острым умом и сильным характером, иначе сохранить душевное здоровье среди четырех юмористок и оригиналок проблематично. Вот теперь, в полном составе, члены клуба точно готовы к выполнению главной задачи - развлекаться, дурачиться и дарить радость зрителям!
© Hollow, World Art
Информационные ссылки: AniDB || World Art || MAL
Качество: BDRip
Энкод: Winter - RG Pantheon
Тип видео: без хардсаба
Формат: mkv
Видео: x264 (Hi10p), 1280x720, ~3200 Kbps, 23.976 fps
Аудио JAP: Vorbis, 48000Hz, ~256 Kbps, 2ch
Аудио RUS 1: AC3, 48000Hz, ~192 Kbps, 2ch (внешними файлами)
двухголосая (жен./жен.) от Акварелька & MezIdA (Anifilm)
01. Go-Home Club Applicants / Life Is Short; Go Home, Young Lady / Beware of Hagizuki-ryuu Practitioners / Extravagant Youth: Priceless
02. If the Cuckoo Won`t Sing, It`s Probably Dead / Girl Power Overdrive / Social Mixer Training
03. Kill the Suspicious Person! / Middle School Diary / Don`t Feed the Cute Girls / Fifteen Years in Solitude
04. Fierce Battle! The First Term Sports Tournament / Burn! Fire Safety Soul! / Fundamentals of a Retool
05. The Demon King`s Dignity / Recommended Literature / Vaguely Remembered Folk Tales
06. Youth is an Explosion / Guilty Judge / The Four Heavenly Kings of Hagishirabe-ryuu
07. Sealed Words!! / The Fierce Battle`s Conclusion!! / Surprise Party
08. Big Sis and Little Bro / Street Poems / Big Sis and Friends / The Nameless Landmark
09. The Ultimate Decision / A Magnificent Training Camp / Starry Sky Imagination / Mankind`s Greatest Invention Is Air Conditioning... and the Dead Freedom That Results
10. Judge People by Appearances / Field Trip!! The Ancient Art of Hagishirabe-ryuu \ Five Girls, One Hundred Ghost Stories / I Won`t Give It Up
11. Names of Flowers / Bound by School Rules / All`s Well That Ends Well
12. Misreading / What`s Tap-oom? / I Hate Bugs / Conserving Water / Antonyms / Debut!! Aikarin / Aikarin Strikes Back / Complacency / The Perfect Equal / Animal Sounds / Map / Taste of the Commoners / Heroic Tale / What If the Person Inside the Four Bear Kings / A Song That`s Not Even Vaguely Remembered / You Fed the Cute Girls Too Much / The "How to Draw" Song / Cute / The "How to Draw Sakura-chan" Song / The Retorters` Pit / Important Announcement
Общее
Уникальный идентификатор : 202706143987156702140150288645727325583 (0x987FC883D546822D8D21234077CA0D8F)
Полное имя : Z:\Anime\720p\Kitakubu Katsudou Kiroku [BD] [720p]\[Winter] Kitakubu Katsudou Kiroku 01 [BDrip 1280x720 x264 Vorbis].mkv
Формат : Matroska
Версия формата : Version 2
Размер файла : 599 Мбайт
Продолжительность : 23 м.
Режим общего битрейта : Переменный
Общий поток : 3638 Кбит/сек
Дата кодирования : UTC 2013-11-01 17:21:30
Программа кодирования : mkvmerge v2.9.8 ('C'est le bon') built on Aug 13 2009 12:49:06
Библиотека кодирования : libebml v0.7.7 + libmatroska v0.8.1

Видео
Идентификатор : 1
Формат : AVC
Формат/Информация : Advanced Video Codec
Профиль формата : High 10@L4.1
Параметр CABAC формата : Да
Параметр ReFrames формата : 9 кадров
Идентификатор кодека : V_MPEG4/ISO/AVC
Продолжительность : 23 м.
Битрейт : 3310 Кбит/сек
Ширина : 1280 пикселей
Высота : 720 пикселей
Соотношение сторон : 16:9
Режим частоты кадров : Постоянный
Частота кадров : 23,976 кадра/сек
Цветовое пространство : YUV
Субдискретизация насыщенности : 4:2:0
Битовая глубина : 10 бит
Тип развёртки : Прогрессивная
Бит/(Пиксели*Кадры) : 0.150
Размер потока : 545 Мбайт (91%)
Библиотека кодирования : x264 core 132 r2309 3b1f1f7
Настройки программы : cabac=1 / ref=9 / deblock=1:-2:-2 / analyse=0x3:0x133 / me=umh / subme=9 / psy=1 / psy_rd=0.90:0.00 / mixed_ref=1 / me_range=24 / chroma_me=1 / trellis=2 / 8x8dct=1 / cqm=0 / deadzone=21,11 / fast_pskip=1 / chroma_qp_offset=-2 / threads=6 / lookahead_threads=1 / sliced_threads=0 / nr=0 / decimate=0 / interlaced=0 / bluray_compat=0 / constrained_intra=0 / bframes=8 / b_pyramid=2 / b_adapt=2 / b_bias=0 / direct=1 / weightb=1 / open_gop=0 / weightp=2 / keyint=250 / keyint_min=23 / scenecut=40 / intra_refresh=0 / rc=crf / mbtree=0 / crf=15.5 / qcomp=0.70 / qpmin=9 / qpmax=42 / qpstep=4 / ip_ratio=1.40 / pb_ratio=1.30 / aq=1:0.90
Default : Нет
Forced : Нет

Аудио
Идентификатор : 2
Формат : Vorbis
Параметр Floor формата : 1
Идентификатор кодека : A_VORBIS
Продолжительность : 23 м.
Вид битрейта : Переменный
Битрейт : 256 Кбит/сек
Каналы : 2 канала
Частота : 48,0 КГц
Метод сжатия : С потерями
Размер потока : 42,2 Мбайт (7%)
Библиотека кодирования : libVorbis (Omnipresent) (20120203 (Omnipresent))
Язык : Japanese
Default : Да
Forced : Нет


Данный релиз предназначен для просмотра на ПК. Воспроизведение на иных проигрывателях не гарантируется. Для просмотра рекомендуется Media Player Classic с установленным пакетом кодеков K-Lite.

Данный релиз содержит 10-битное видео (Hi10p). Для корректного воспроизведения обязательно используйте кодеки, поддерживающие 10-битное видео.

Данный релиз предназначен для просмотра с внешними субтитрами и внешними звуковыми дорожками.

[b]Для просмотра с внешней звуковой дорожкой нужно:
перекинуть файлы .mka из папки "RUS Sound [<автор(ы) озвучки>]" в одну папку с видео и переключить звуковую дорожку в плеере при просмотре.
Для просмотра с субтитрами нужно:
перекинуть файлы .ass из папки "RUS Subtitles [<автор(ы) перевода>]" в одну папку с видео - плеер подгрузит их автоматически при открытии видео.


Трекер:  [ 10-Мар-2014 09:24 ]

  

Скачать .torrent

Размер .torrent файла 49 KB


Размер: 7.75 GB
Хэш (hash) релиза: 75d15e1fe1eb4c809fe07b10b8e868b4a28146b1
Подписка на обновления:

Торренты, похожие на Хроники клуба Возвращения домой Kitakubu Katsudou Kiroku скачать торрент

Форум Название Автор Размер S L Добавлен
Аниме | HD Rips ·· Хроники клуба Возвращения домой / Kitakubu Katsudou Kiroku [TV+Special] [12+9 из 12+15] [Без хардсаба] [JAP, SUB] [2013, комедия, BDRemux] [1080p] Galfimbul 8053520524275 GB 0 0 1481583436

01:57

13-Дек-16

Аниме | HD Rips ·· Хроники клуба Возвращения домой / Kitakubu Katsudou Kiroku (Сато Хикару) [TV+Special] [12+9 из 12+15] [без хардсаба] [RUS(ext), JAP+SUB] [2013 г., комедия, BDRip] [1080p] Galfimbul 1906430282617.76 GB 0 0 1424094150

16:42

16-Фев-15

Аниме | HD Rips ·· Хроники клуба Возвращения домой / Kitakubu Katsudou Kiroku (Сато Хикару) [TV] [01-11 из 12] [Без хардсаба] [JAP+SUB] [2013 г., комедия, школа, WEBRip] [1080p] Polarnik 62686424365.84 GB 0 0 1383555321

11:55

4-Ноя-13

Аниме | HD Rips ·· Хроники клуба Возвращения домой / Kitakubu Katsudou Kiroku (Сато Хикару) [TV] [01 из >12] [без хардсаба] [RUS(int), JAP+SUB] [2013 г., комедия, WEBRip] [720p] Polarnik 354026021338 MB 0 0 1373574690

23:31

11-Июл-13

Аниме | HD Rips ·· Хроники клуба "Возвращение домой" / Kitakubu Katsudou Kiroku [TV] [1 из 12] [Без хардсаба] [JAP+SUB] [2013 г., Школа, сейнэн, HDTVRip] [720p] Polarnik 329565766314 MB 0 0 1373295016

17:50

8-Июл-13

Еще никто не оставлял запись к записи скачать торрент Хроники клуба Возвращения домой Kitakubu Katsudou Kiroku . Будь первым!

!Обратная связь