Скачать через торрент музыку Святая кровь Santa Sangre бесплатно без регистрации torrent

Если у вас наблюдаются проблемы со скриншотами, переходом по ссылками, скачиванием торрентов - проблемы в блокировщике рекламы AdBlock. #хорошегоДня!


Статистика раздачи
Размер:  212 MB   |    Зарегистрирован:  3 года 11 месяцев   |    .torrent скачан:  14 раз   |   
Раздают:  1  
   
Загрузка...
 
Автор Сообщение

Galfimbul

avatar Galfimbul


Святая кровь / Santa Sangre

Жанр: Score
Композитор: Simon Boswell
Год выпуска диска: 1990
Год выпуска фильма: 1989
Страна-производитель диска: Великобритания
Издатель (лейбл): President
Номер по каталогу: PCOM 1104

Аудиокодек: FLAC (*.flac)
Тип рипа: image+.cue
Битрейт аудио: lossless
Продолжительность: 41:38

Источник: hqshare.net
Наличие сканов в содержимом раздачи: да

Треклист:
01 Simon Boswell - Fin Del Mundo (Traditional) (2:43)
02 Simon Boswell - Alma (2:58)
03 Circus Orgo - Alejandra (E. Mora) (2:42)
04 Simon Boswell - Triste (1:48)
05 Silver Hombre - Besame Mucho (C. Velazquez) (3:34)
06 Simon Boswell - Acid Revenge (2:14)
07 Simon Boswell - Herbage (1:43)
08 Simon Boswell - Truck (3:19)
09 Fenix Y Concha - Dejame Llorar (A. Esparza Oteo) (1:25)
10 Simon Boswell - Holy Guitar (1:33)
11 Simon Boswell - Grave Business (1:48)
12 Simon Boswell - Heart (3:55)
13 Simon Boswell - Kids'' Theme (2:21)
14 Simon Boswell - Wingbeat (1:54)
15 Simon Boswell - Church Tattoo (3:07)
16 Simon Boswell - Sweet Dreams (1:24)
17 Simon Boswell - Karnival (3:11)

Доп. информация: Саундтрек Саймона Босуэла к фильму знаменитого классика сюрреалистического шока Алехандро Ходоровски.
EAC extraction logfile from 16. December 2006, 10:42 for CDSimon Boswell / Santa Sangre

Used drive : PLEXTOR CD-R PREMIUM Adapter: 4 ID: 1Read mode : Secure with NO C2, accurate stream, disable cacheRead offset correction : 30Overread into Lead-In and Lead-Out : No

Used output format : Internal WAV Routines 44.100 Hz; 16 Bit; Stereo

Other options : Fill up missing offset samples with silence : Yes Delete leading and trailing silent blocks : No Installed external ASPI interface

Range status and errorsSelected range Filename C:\[vesperus]Simon Boswell - Santa Sangre\Score\Simon Boswell - Santa Sangre.wav

Peak level 68.5 % Range quality 100.0 % CRC 6266C386 Copy OK

No errors occured

End of status report
REM GENRE SoundtrackREM DATE 1989REM DISCID DF09C211REM COMMENT "ExactAudioCopy v0.95b3"PERFORMER "Simon Boswell"TITLE "Santa Sangre"FILE "Simon Boswell - Santa Sangre.flac" WAVE TRACK 01 AUDIO TITLE "Fin Del Mundo (Traditional)" PERFORMER "Simon Boswell" INDEX 00 00:00:00 INDEX 01 00:00:32 TRACK 02 AUDIO TITLE "Alma" PERFORMER "Simon Boswell" INDEX 00 02:40:36 INDEX 01 02:43:57 TRACK 03 AUDIO TITLE "Alejandra (E. Mora)" PERFORMER "Circus Orgo" INDEX 00 05:38:15 INDEX 01 05:41:32 TRACK 04 AUDIO TITLE "Triste" PERFORMER "Simon Boswell" INDEX 00 08:20:55 INDEX 01 08:23:62 TRACK 05 AUDIO TITLE "Besame Mucho (C. Velazquez)" PERFORMER "Silver Hombre" INDEX 00 10:11:09 INDEX 01 10:12:15 TRACK 06 AUDIO TITLE "Acid Revenge" PERFORMER "Simon Boswell" INDEX 00 13:41:59 INDEX 01 13:46:17 TRACK 07 AUDIO TITLE "Herbage" PERFORMER "Simon Boswell" INDEX 00 15:55:27 INDEX 01 15:59:57 TRACK 08 AUDIO TITLE "Truck" PERFORMER "Simon Boswell" INDEX 00 17:39:51 INDEX 01 17:42:37 TRACK 09 AUDIO TITLE "Dejame Llorar (A. Esparza Oteo)" PERFORMER "Fenix Y Concha" INDEX 00 20:59:68 INDEX 01 21:01:65 TRACK 10 AUDIO TITLE "Holy Guitar" PERFORMER "Simon Boswell" INDEX 00 22:25:19 INDEX 01 22:26:42 TRACK 11 AUDIO TITLE "Grave Business" PERFORMER "Simon Boswell" INDEX 00 23:55:70 INDEX 01 23:59:27 TRACK 12 AUDIO TITLE "Heart" PERFORMER "Simon Boswell" INDEX 00 25:44:15 INDEX 01 25:47:27 TRACK 13 AUDIO TITLE "Kids'' Theme" PERFORMER "Simon Boswell" INDEX 00 29:39:02 INDEX 01 29:42:60 TRACK 14 AUDIO TITLE "Wingbeat" PERFORMER "Simon Boswell" INDEX 00 32:00:50 INDEX 01 32:03:52 TRACK 15 AUDIO TITLE "Church Tattoo" PERFORMER "Simon Boswell" INDEX 00 33:54:50 INDEX 01 33:57:20 TRACK 16 AUDIO TITLE "Sweet Dreams" PERFORMER "Simon Boswell" INDEX 00 37:02:74 INDEX 01 37:03:72 TRACK 17 AUDIO TITLE "Karnival" PERFORMER "Simon Boswell" INDEX 00 38:24:59 INDEX 01 38:27:42




Трекер:  [ 14-Дек-2013 21:44 ]

  

Скачать .torrent

Размер .torrent файла 17 KB


Размер: 212 MB
Хэш (hash) релиза: 2ab227f959513c65e3f0098f35a387dd48e7c643

bot

Топик был перенесен в форум Саундтреки к фильмам и мультфильмам (lossless)

Перенес Galfimbul

Хотите добавить комментарий к записи скачать торрент Святая кровь Santa Sangre

!Обратная связь